Watch movie | Psychologie Et Alchimie | Chalk N Duster 2016 Official Trailer Free Download HD 720p

Скачать через торрент [SERIAL] Улыбка пересмешника Серии: 1-16 из 16 бесплатно русская версия torrent активатор

Статистика раздачи
Размер:  3.28 GB   |    Зарегистрирован:  3 года 7 месяцев   |    .torrent скачан:  91 раз   |   
Раздают:  1  
   
загрузка...
 
Автор Сообщение

Galfimbul

avatar Galfimbul


Улыбка пересмешника
Год выпуска: 2014
Страна: Россия (Марс Медиа Энтертейнмент)
Жанр: Детектив, мелодрама
Продолжительность: 16 х ~ 00:45:00
Перевод: Не требуется
Cубтитры: Нет
Режиссер: Алексей Рудаков
В ролях: Елена Аросьева, Кирилл Сафонов, Анна Казючиц, Андрей Фролов (II), Алексей Фатеев, Людмила Полякова, Марина Куделинская, Андрей Межулис, Сергей Тезов, Владимир Стержаков, Илья Оболонков, Натали Старынкевич, Любовь Тихомирова, Алёна Кузнецова, Юлия Пивень, Галина Анисимова (II), Людмила Уланова (II), Наталья Гаранина, Ксения Волкова, Максим Сапрыкин (II), Светлана Виноградова, Андрюс Паулавичюс, Сергей Вещёв, Тимур Бадалбейли, Андрей Иванов (VI), Дмитрий Бурлаков, Кирилл Болтаев, Сергей Чудаков, Маргарита Шилова, Иван Агапов, Елена Муромцева (II), Геннадий Семёнов, Татьяна Тимакова, Артур Казберов, Анна Канарис, Юрий Сазонов, Елена Ветрова, Надежда Исайкина, Александра Булычёва
Описание: В маленьком южном городке, где жила Вика, все девушки мечтали об одном - встретить успешного, красивого и любящего мужа… И Вика его встретила. Кирилл был из Москвы, владел собственным бизнесом, и готов был сделать всё ради любимой. Красивый роман, свадьба, переезд в большой дом в столице, рождение двух детей – жизнь Вики была похожа на сказку… которой было суждено однажды закончиться.

[url=...287&nm=%D0%A3%D0%BB%D1%8B%D0%B1%D0%BA%D0%B0%20%D0%BF%D0%B5%D1%80%D0%B5%D1%81%D0%BC%D0%B5%D1%88%D0%BD%D0%B8%D0%BA%D0%B0]Все раздачи сериала[/url]
Качество: HDTVRip (Рип с [url=...4861056]HDTVRip 720p[/url])
Формат: MP4
Видео: AVC, 480х272 (16:9), 25.000 fps, ~500 Kbps
Аудио: Русский, AAC, 48.0 KHz, 2 ch, 128 Kbps
General
Complete name : Ulybka.peresmeshnika.2014.S01.HDTVRip.XviD.480x(semen_52-TNC)\[SERIAL] Ulybka.peresmeshnika.2014.S01E01.HDTVRip.XviD.480x(semen_52-TNC).mp4
Format : MPEG-4
Format profile : Base Media
Codec ID : isom
File size : 214 MiB
Duration : 47mn 20s
Overall bit rate mode : Variable
Overall bit rate : 632 Kbps
Collection : Ulybka peresmeshnika 2014
Season : 1
Part : 1
ContentType : TV Show
Encoded date : UTC 2014-11-24 15:43:33
Tagged date : UTC 2014-11-24 15:43:58
Writing application : MkvToMp4 version: 0.224 (x64)
Comment : Rip by semen_52-TNC
Title/Sort : Ulybka peresmeshnika 2014

Video
ID : 1
Format : MPEG-4 Visual
Format profile : Advanced [email protected]
Format settings, BVOP : No
Format settings, QPel : No
Format settings, GMC : No warppoints
Format settings, Matrix : Custom
Codec ID : 20
Duration : 47mn 20s
Bit rate mode : Variable
Bit rate : 499 Kbps
Maximum bit rate : 1 741 Kbps
Width : 480 pixels
Height : 272 pixels
Display aspect ratio : 16:9
Frame rate mode : Constant
Frame rate : 25.000 fps
Color space : YUV
Chroma subsampling : 4:2:0
Bit depth : 8 bits
Scan type : Progressive
Compression mode : Lossy
Bits/(Pixel*Frame) : 0.153
Stream size : 169 MiB (79%)
Writing library : XviD 73
Language : English
Tagged date : UTC 2014-11-24 15:43:39

Audio
ID : 2
Format : AAC
Format/Info : Advanced Audio Codec
Format profile : LC
Codec ID : 40
Duration : 47mn 20s
Bit rate mode : Variable
Bit rate : 128 Kbps
Maximum bit rate : 131 Kbps
Channel(s) : 2 channels
Channel positions : Front: L R
Sampling rate : 48.0 KHz
Compression mode : Lossy
Stream size : 43.3 MiB (20%)
Language : Russian
Encoded date : UTC 2014-11-24 15:43:34
Tagged date : UTC 2014-11-24 15:43:39


Трекер:  [ 02-Дек-2014 21:00 ]

  

Скачать .torrent

Размер .torrent файла 18 KB


Размер: 3.28 GB
Хэш (hash) релиза: 8d5a6c8119662e3895f2dad2d7b11b11169e1b04

Еще никто не оставлял запись к записи скачать торрент [SERIAL] Улыбка пересмешника Серии: 1-16 из 16 . Будь первым!

!Обратная связь