20 000 лье под водой: Капитан Немо (2010) PC | www scenetime com - Days of our Lives S53E195 720p WEB x264-W4F | VideoShow: видео редактор

Скачать через торрент [VIDEO] Экипаж Серии: 1-2 из 2 бесплатно русская версия torrent активатор

Статистика раздачи
Размер:  790 MB   |    Зарегистрирован:  3 года 7 месяцев   |    .torrent скачан:  50 раз   |   
Раздают:  1  
   
загрузка...
 
Автор Сообщение

Galfimbul

avatar Galfimbul


Экипаж



Год выпуска: 1979
Страна: СССР, Мосфильм
Жанр: триллер, драма, мелодрама
Продолжительность: 01:19:04; 00:56:30
Перевод: Не требуется
Cубтитры: нет
Режиссер: Александр Митта
В ролях: Георгий Жжёнов, Анатолий Васильев, Леонид Филатов, Александра Яковлева, Ирина Акулова, Екатерина Васильева, Мария Скворцова, Галина Гладкова, Юрий Горобец, Александр Павлов, Елена Коренева, Геннадий Матвеев, Рома Монин, Иван Рыжов, Комаки Курихара, Александр Потапов, Алексей Якубов, Ирина Савина, Антон Табаков, Иван Агафонов, Ирина Санпитер, Сергей Яковлев, Юрий Гусев, Константин Захаров, Николай Сморчков, Николай Лебедев, Герман Юшко, Павел Ремезов, Александр Пашутин, Анна Варпаховская, Иван Воронов, Лариса Барабанова, Владимир Иванов, Александра Назарова, Владимир Маренков, Вадим Александров, Клара Румянова
Описание: Экипаж самолета, перевозящего грузы и пассажиров, попадает в ситуацию, по сравнению, с которой конец света может показаться детской забавой… В аэропорту, в котором приземлился самолет, землетрясение. Извергается огненная лава, земля уходит из под ног, все вокруг горит и рушится, людей охватывает ужас, возникает паника.

После прибытия самолета происходит огромной силы новый толчок. Взлетная полоса повреждена. Но благодаря опыту и мужеству экипажа самолет удается поднять в воздух. Кажется, что пришло спасение, что самое страшное осталось на земле. Однако выясняется, что при взлете самолет получил массу повреждений, и одно из них слишком опасно, чтобы самолет смог благополучно приземлиться...



Качество: DVDRip
Формат: MP4
Видео: AVC at 679 Kbps, 496 x 360 (1.372) at 25.000 fps
Аудио: AAC at 128 Kbps, 2 channels, 48.0 KHz
GeneralComplete name : G:\Экипаж (1979) 640х\Экипаж 01 серия.mp4Format : MPEG-4Format profile : Base MediaCodec ID : isomFile size : 461 MiBDuration : 1h 19mnOverall bit rate mode : VariableOverall bit rate : 815 KbpsMovie name : Экипаж 01 серия (1979) [by Alien.09]Encoded date : UTC 2014-11-24 22:06:11Tagged date : UTC 2014-11-24 22:06:24Writing application : MkvToMp4 version: 0.224 (x64)Comment : [rip by Alien.09]hdvd : 0stik : 9

VideoID : 1Format : AVCFormat/Info : Advanced Video CodecFormat profile : [email protected] settings, CABAC : YesFormat settings, ReFrames : 3 framesCodec ID : avc1Codec ID/Info : Advanced Video CodingDuration : 1h 19mnBit rate : 679 KbpsMaximum bit rate : 4 364 KbpsWidth : 496 pixelsHeight : 360 pixelsDisplay aspect ratio : 1.372Frame rate mode : ConstantFrame rate : 25.000 fpsColor space : YUVChroma subsampling : 4:2:0Bit depth : 8 bitsScan type : ProgressiveBits/(Pixel*Frame) : 0.152Stream size : 384 MiB (83%)Writing library : x264 core 116 r2019M 9cc407dEncoding settings : cabac=1 / ref=3 / deblock=1:0:0 / analyse=0x1:0x131 / me=hex / subme=7 / psy=1 / psy_rd=1.00:0.20 / mixed_ref=1 / me_range=16 / chroma_me=1 / trellis=1 / 8x8dct=0 / cqm=0 / deadzone=21,11 / fast_pskip=1 / chroma_qp_offset=-3 / threads=12 / sliced_threads=0 / nr=0 / decimate=1 / interlaced=0 / bluray_compat=0 / constrained_intra=0 / bframes=3 / b_pyramid=0 / b_adapt=2 / b_bias=0 / direct=3 / weightb=1 / open_gop=0 / weightp=0 / keyint=250 / keyint_min=25 / scenecut=40 / intra_refresh=0 / rc_lookahead=40 / rc=2pass / mbtree=1 / bitrate=679 / ratetol=1.0 / qcomp=0.60 / qpmin=10 / qpmax=51 / qpstep=4 / cplxblur=20.0 / qblur=0.5 / vbv_maxrate=5000 / vbv_bufsize=1835 / nal_hrd=none / ip_ratio=1.40 / aq=1:1.00Language : RussianEncoded date : UTC 2014-11-24 22:06:11Tagged date : UTC 2014-11-24 22:06:17

AudioID : 2Format : AACFormat/Info : Advanced Audio CodecFormat profile : LCCodec ID : 40Duration : 1h 19mnBit rate mode : VariableBit rate : 128 KbpsMaximum bit rate : 216 KbpsChannel(s) : 2 channelsChannel positions : Front: L RSampling rate : 48.0 KHzCompression mode : LossyStream size : 72.4 MiB (16%)Language : RussianEncoded date : UTC 2014-11-24 22:06:15Tagged date : UTC 2014-11-24 22:06:17


Трекер:  [ 02-Дек-2014 21:00 ]

  

Скачать .torrent

Размер .torrent файла 16 KB


Размер: 790 MB
Хэш (hash) релиза: f5de6c7a1e7fc1d181df962ab9ca176fb3036ce1

Еще никто не оставлял запись к записи скачать торрент [VIDEO] Экипаж Серии: 1-2 из 2 . Будь первым!

!Обратная связь