Война и политика | Download Lagu Papinka - Aku Masih Cinta (Official Music Video) | Coaching

Скачать через торрент [VIDEO] Бонни и Клайд Bonnie and Clyde бесплатно русская версия torrent активатор

Статистика раздачи
Размер:  645 MB   |    Зарегистрирован:  3 года 7 месяцев   |    .torrent скачан:  35 раз   |   
Раздают:  1  
   
загрузка...
 
Автор Сообщение

Galfimbul

avatar Galfimbul


Бонни и Клайд / Bonnie and Clyde



Год выпуска: 1967
Страна: США
Жанр: Драма, криминал, биография
Продолжительность: 01:50:46
Перевод: Профессиональный (дублированный) Варус Видео
Cубтитры: нет
Режиссер: Артур Пенн / Arthur Penn
В ролях: Уоррен Битти, Фэй Данауэй, Майкл Дж. Поллард, Джин Хэкмен, Эстелл Парсонс, Денвер Пайл, Даб Тейлор, Эванс Эванс, Джин Уайлдер, Марта Эдкок
Описание: Молодые и отчаянные любовники Бонни и Клайд легко и изящно грабят банки в 30-е годы XX века. Но их романтизм и «робингудство» довольно быстро перерастают в лужи и реки крови, в хаос и грязь смерти, а судьба пророчит им неудачу...



Качество: HDRip (рип с BDRip 1080p)
Формат: MP4
Видео: AVC at 679 Kbps, 640 x 352 (1.778) at 23.976 fps
Аудио: AAC at 128 Kbps, 2 channels, 48.0 KHz
GeneralComplete name : G:\Бонни и Клайд (1967) 640х.mp4Format : MPEG-4Format profile : Base MediaCodec ID : isomFile size : 645 MiBDuration : 1h 50mnOverall bit rate mode : VariableOverall bit rate : 815 KbpsMovie name : Bonnie and Clyde (1967) () [by Alien.09]Encoded date : UTC 2014-11-25 14:06:01Tagged date : UTC 2014-11-25 14:06:21Writing application : MkvToMp4 version: 0.224 (x64)Comment : [rip by Alien.09]hdvd : 0stik : 9

VideoID : 1Format : AVCFormat/Info : Advanced Video CodecFormat profile : [email protected] settings, CABAC : YesFormat settings, ReFrames : 3 framesCodec ID : avc1Codec ID/Info : Advanced Video CodingDuration : 1h 50mnBit rate : 679 KbpsMaximum bit rate : 4 263 KbpsWidth : 640 pixelsHeight : 352 pixelsDisplay aspect ratio : 16:9Frame rate mode : ConstantFrame rate : 23.976 fpsColor space : YUVChroma subsampling : 4:2:0Bit depth : 8 bitsScan type : ProgressiveBits/(Pixel*Frame) : 0.126Stream size : 538 MiB (83%)Writing library : x264 core 125 r2200M 999b753Encoding settings : cabac=1 / ref=3 / deblock=1:0:0 / analyse=0x1:0x131 / me=hex / subme=7 / psy=1 / psy_rd=1.00:0.20 / mixed_ref=1 / me_range=16 / chroma_me=1 / trellis=1 / 8x8dct=0 / cqm=0 / deadzone=21,11 / fast_pskip=1 / chroma_qp_offset=-3 / threads=4 / lookahead_threads=1 / sliced_threads=0 / nr=0 / decimate=1 / interlaced=0 / bluray_compat=0 / constrained_intra=0 / bframes=3 / b_pyramid=0 / b_adapt=2 / b_bias=0 / direct=3 / weightb=1 / open_gop=0 / weightp=0 / keyint=230 / keyint_min=23 / scenecut=40 / intra_refresh=0 / rc_lookahead=40 / rc=2pass / mbtree=1 / bitrate=679 / ratetol=1.0 / qcomp=0.60 / qpmin=10 / qpmax=51 / qpstep=4 / cplxblur=20.0 / qblur=0.5 / vbv_maxrate=5000 / vbv_bufsize=1835 / nal_hrd=none / ip_ratio=1.40 / aq=1:1.00Language : EnglishEncoded date : UTC 2014-11-25 14:06:01Tagged date : UTC 2014-11-25 14:06:09

AudioID : 2Format : AACFormat/Info : Advanced Audio CodecFormat profile : LCCodec ID : 40Duration : 1h 50mnBit rate mode : VariableBit rate : 128 KbpsMaximum bit rate : 153 KbpsChannel(s) : 2 channelsChannel positions : Front: L RSampling rate : 48.0 KHzCompression mode : LossyStream size : 101 MiB (16%)Language : RussianEncoded date : UTC 2014-11-25 14:06:06Tagged date : UTC 2014-11-25 14:06:09


Трекер:  [ 02-Дек-2014 21:00 ]

  

Скачать .torrent

Размер .torrent файла 13 KB


Размер: 645 MB
Хэш (hash) релиза: c2e5e8ca7fb0fcad00758693be8305ac091e7131

Еще никто не оставлял запись к записи скачать торрент [VIDEO] Бонни и Клайд Bonnie and Clyde . Будь первым!

!Обратная связь