Sean Hobin | Leukemia Headaches Manual Guide Pdf | The Chronicles Of ...

Скачать через торрент [MULT] Винни-Пух Винни-Пух идет в гости бесплатно русская версия torrent активатор

Статистика раздачи
Размер:  241 MB   |    Зарегистрирован:  3 года 7 месяцев   |    .torrent скачан:  69 раз   |   
Раздают:  1  
   
загрузка...
 
Автор Сообщение

Galfimbul

avatar Galfimbul


Винни-Пух / Винни-Пух идет в гости / Винни-Пух и день забот



Год выпуска: 1964-1972
Страна: СССР, Союзмультфильм
Жанр: Мультфильм, рисованный, приключения, семейный
Продолжительность: 00:10:37; 00:10:26; 00:20:18
Перевод: Не требуется
Cубтитры: нет
Режиссер: Фёдор Хитрук, Геннадий Сокольский
В ролях: Евгений Леонов, Ия Саввина, Владимир Осенев, Эраст Гарин, Зинаида Нарышкина
Описание: Мультфильм трилогия, снят по сказке Алана Милнаю.
Первый мультфильм из серии о забавном медвежонке и его друзьях. Глава, в которой происходит знакомство с Винни-Пухом и подозрительными пчелами.
Второй мультфильм о том, как Винни с Пятачком идут в гости к Кролику.
В третьем мультфильме у ослика Иа день рождения, о котором все забыли. Но друзья есть и они собираются дарить подарки...



Качество: HDRip (рип с BDRip 720p)
Формат: MP4
Видео: AVC at 679 Kbps, 480 x 360 (1.328) at 23.976 fps
Аудио: AAC at 127 Kbps, 2 channels, 48.0 KHz
GeneralComplete name : G:\Винни Пух (1969-1972) 640х\01 Винни Пух (1969)_new.mp4Format : MPEG-4Format profile : Base MediaCodec ID : isomFile size : 61.8 MiBDuration : 10mn 37sOverall bit rate mode : VariableOverall bit rate : 814 KbpsMovie name : 01 Винни Пух (1969)Encoded date : UTC 2014-11-26 07:42:12Tagged date : UTC 2014-11-26 07:42:13Writing application : MkvToMp4 version: 0.224 (x64)Comment : 01 Винни Пух (1969) [rip by Alien.09]hdvd : 0stik : 9

VideoID : 1Format : AVCFormat/Info : Advanced Video CodecFormat profile : [email protected] settings, CABAC : YesFormat settings, ReFrames : 3 framesCodec ID : avc1Codec ID/Info : Advanced Video CodingDuration : 10mn 37sBit rate : 679 KbpsMaximum bit rate : 4 099 KbpsWidth : 480 pixelsHeight : 360 pixelsDisplay aspect ratio : 4:3Frame rate mode : ConstantFrame rate : 23.976 fpsColor space : YUVChroma subsampling : 4:2:0Bit depth : 8 bitsScan type : ProgressiveBits/(Pixel*Frame) : 0.164Stream size : 51.6 MiB (83%)Writing library : x264 core 125 r2200M 999b753Encoding settings : cabac=1 / ref=3 / deblock=1:0:0 / analyse=0x1:0x131 / me=hex / subme=7 / psy=1 / psy_rd=1.00:0.20 / mixed_ref=1 / me_range=16 / chroma_me=1 / trellis=1 / 8x8dct=0 / cqm=0 / deadzone=21,11 / fast_pskip=1 / chroma_qp_offset=-3 / threads=4 / lookahead_threads=1 / sliced_threads=0 / nr=0 / decimate=1 / interlaced=0 / bluray_compat=0 / constrained_intra=0 / bframes=3 / b_pyramid=0 / b_adapt=2 / b_bias=0 / direct=3 / weightb=1 / open_gop=0 / weightp=0 / keyint=230 / keyint_min=23 / scenecut=40 / intra_refresh=0 / rc_lookahead=40 / rc=2pass / mbtree=1 / bitrate=679 / ratetol=1.0 / qcomp=0.60 / qpmin=10 / qpmax=51 / qpstep=4 / cplxblur=20.0 / qblur=0.5 / vbv_maxrate=5000 / vbv_bufsize=1835 / nal_hrd=none / ip_ratio=1.40 / aq=1:1.00Language : EnglishEncoded date : UTC 2014-11-26 07:42:12Tagged date : UTC 2014-11-26 07:42:13

AudioID : 2Format : AACFormat/Info : Advanced Audio CodecFormat profile : LCCodec ID : 40Duration : 10mn 37sBit rate mode : VariableBit rate : 127 KbpsMaximum bit rate : 214 KbpsChannel(s) : 2 channelsChannel positions : Front: L RSampling rate : 48.0 KHzCompression mode : LossyStream size : 9.68 MiB (16%)Language : RussianEncoded date : UTC 2014-11-26 07:42:12Tagged date : UTC 2014-11-26 07:42:13


Трекер:  [ 02-Дек-2014 21:00 ]

  

Скачать .torrent

Размер .torrent файла 19 KB


Размер: 241 MB
Хэш (hash) релиза: 8482793c94fb02472f0fb6c7e17d3f50f9c97f81

Еще никто не оставлял запись к записи скачать торрент [MULT] Винни-Пух Винни-Пух идет в гости . Будь первым!

!Обратная связь