Transforming Government Lessons From The Reinvention Laboratories | Game of Thrones - Il Trono di Spade S06e10[Mux - 720p - H264 - Ita Eng Ac3 - Sub Ita Eng] DLMux Gius | Superhot VR : Comme dans un film de John Woo

Скачать через торрент [SERIAL] Elementary Элементарно бесплатно русская версия torrent активатор

Статистика раздачи
Размер:  624 MB   |    Зарегистрирован:  3 года 7 месяцев   |    .torrent скачан:  45 раз   |   
Раздают:  1  
   
загрузка...
 
Автор Сообщение

Galfimbul

avatar Galfimbul


Элементарно / Elementary

Год выпуска: 2014

Страна: США
Жанр: Драма, криминал, детектив
Продолжительность: ~00:45:00 х 4
Перевод: Многоголосое профессиональное закадровое озвучание (NewStudio)
Cубтитры: нет

Режиссер: Джон Дэвид Коулз, Майкл Куэста, Род Холкомб
В ролях: Джонни Ли Миллер, Люси Лью, Эйдан Куинн, Джон Майкл Хилл, Натали Дормер, Ато Эссонда, Линда Эмонд, Майкл Ден Деккер, Винни Джонс, Эрик Дженсен
Описание: Никаких каминов, скрипок и лондонских туманов. Америка, наше время. Холмс - не только гениальный сыщик, но и бывший наркоман. Ватсон - не просто женщина-доктор с пикантной внешностью Люси Лиу, но и неплохой аналитик. Вместе они могут горы свернуть. Но сейчас успешный детективный дуэт на грани распада. Смогут ли Холмс и Ватсон друг без друга?
Качество: WEB-DLRip
Формат: MP4
Видео: MPEG-4, 480*272, 16/9, 378kbps, 25.000 fps
Аудио: AAC, 125kbps, 48 KHz, 2 ch
F:\Elementary.s03\Elementary.S03E01..mp4 General Complete name : F:\Elementary.s03\Elementary.S03E01..mp4 Format : MPEG-4 Format profile : Base Media / Version 2 Codec ID : mp42 File size : 158 MiB Duration : 43mn 36s Overall bit rate mode : Variable Overall bit rate : 506 Kbps Encoded date : UTC 2014-11-03 20:40:54 Tagged date : UTC 2014-11-03 20:40:59 Writing application : mp4creator 1.4.4 Video #1 ID : 1 Format : MPEG-4 Visual Format profile : [email protected] Format settings, BVOP : No Format settings, QPel : No Format settings, GMC : No warppoints Format settings, Matrix : Default (H.263) Codec ID : 20 Duration : 43mn 36s Bit rate mode : Variable Bit rate : 378 Kbps Maximum bit rate : 1 756 Kbps Width : 480 pixels Height : 272 pixels Display aspect ratio : 16:9 Frame rate mode : Constant Frame rate : 25.000 fps Color space : YUV Chroma subsampling : 4:2:0 Bit depth : 8 bits Scan type : Progressive Compression mode : Lossy Bits/(Pixel*Frame) : 0.116 Stream size : 118 MiB (75%) Language : English Encoded date : UTC 2014-11-03 20:40:54 Tagged date : UTC 2014-11-03 20:40:57 Audio #2 ID : 2 Format : AAC Format/Info : Advanced Audio Codec Format profile : LC Codec ID : 40 Duration : 43mn 36s Bit rate mode : Variable Bit rate : 125 Kbps Maximum bit rate : 381 Kbps Channel(s) : 2 channels Channel positions : Front: L R Sampling rate : 48.0 KHz Compression mode : Lossy Stream size : 39.1 MiB (25%) Language : English Encoded date : UTC 2014-11-03 20:40:58 Tagged date : UTC 2014-11-03 20:40:59
Раздача ведётся путём добавления новых серий; при каждом добавлении создаётся новый торрент. Чтобы начать докачку новой серии, пользователям необходимо сделать следующее:

- Остановить скачивание.
- Удалить старый торрент у себя из клиента (старые серии удалять не надо).
- Скачать новый торрент и запустить его у себя в клиенте вместо старого, при этом указать клиенту путь в старую папку куда и должно происходить скачивание новых серий.

Ваш клиент при этом должен произвести хеширование (проверку) старой папки (если не производит сам - помогите ему сделать это), и будет докачивать только те серии которых у вас ещё нет. Старые серии при этом не удаляются, а продолжают раздаваться!
Если вы уже удалили старые серии, то предотвратить повторную закачку старых серий можно, отжав галочку в соответствующих местах при запуске нового торрента. По возможности, желательно не удалять старые серии как можно дольше, чтобы релизер не столько продолжал раздавать старые серии, а смог сконцентрироваться на новых.
01. Enough Nemesis to Go Around / Врагов хватит всем
02. The Five Orange Pipz / Пять апельсиновых зернышек
03. Just a Regular Irregular / Математическая загадка
04. Bella /Белла
05. Rip Off /
06. Terra Pericolosa /
[url]...4312580[/url]


Трекер:  [ 02-Дек-2014 21:00 ]

  

Скачать .torrent

Размер .torrent файла 13 KB


Размер: 624 MB
Хэш (hash) релиза: f34d86d1a7fe48f9723d557cf0a8f7d9822f46bd

Еще никто не оставлял запись к записи скачать торрент [SERIAL] Elementary Элементарно . Будь первым!

!Обратная связь