Lucky Luke | Rory Scovel | Sarah Henning

Скачать через торрент [SERIAL] Однажды в сказке Давным-давно бесплатно русская версия torrent активатор

Статистика раздачи
Размер:  560 MB   |    Зарегистрирован:  3 года 7 месяцев   |    .torrent скачан:  50 раз   |   
Раздают:  1  
   
загрузка...
 
Автор Сообщение

Galfimbul

avatar Galfimbul


Однажды в сказке / Давным-давно / В некотором царстве
Once Upon a Time
Сезон 4

Год выпуска: 2014
Страна: США
Жанр: Драма, фэнтези
Продолжительность: 2 х ~ 00:43:00
Перевод: Профессиональный (дублированный) [Невафильм]
Cубтитры: Нет
Режиссер: Грег Биман, Марк Майлод, Дин Уайт
В ролях: Джиннифер Гудвин, Дженнифер Моррисон, Лана Паррия, Джошуа Даллас, Джаред Гилмор, Роберт Карлайл, Эмили де Рэвин, Колин О’Донохью, Меган Ори, Ли Аренберг
Описание: Сюжет фэнтези разворачивается в двух мирах — современном и сказочном. Беззаботная жизнь 28-летней Эммы Свон меняется, когда ее 10-летний сын Генри, от которого она отказалась много лет назад, находит Эмму и объявляет, что она является дочерью Прекрасного Принца и Белоснежки. Само собой разумеется, у мальчишки нет никаких сомнений, что параллельно нашему существует альтернативный сказочный мир — город Сторибрук, в котором в итоге оказывается Эмма. Постепенно героиня привязывается к необычному мальчику и странному городу, жители которого «забыли», кем они были в прошлом. А все из-за проклятия Злой Королевы (по совместительству приемной матери Генри), с помощью которого колдунья остановила время в сказочной стране. Однако стоит протянуть руку — и сказка оживет. Эпическая битва за будущее двух миров начинается, но, чтобы одержать победу, Эмме придется принять свою судьбу…

[url=...287&nm=Once%20Upon%20a%20Time%20%D0%94%D0%B8%D0%BD%20%D0%A3%D0%B0%D0%B9%D1%82]Все раздачи сериала[/url]
[url=...4881051]Исходник (ссылка)[/url]
Качество: WEB-DLRip
Формат: MP4
Видео: AVC, 640х360 (16:9), 23.976 fps, 768 Kbps
Аудио: Русский, AAC, 48.0 KHz, 2 ch, 128 Kbps [Dub, Невафильм]
Джошуа Даллас (Прекрасный принц) и Джиннифер Гудвин (Белоснежка) в реальной жизни являются мужем и женой.
В пилотном эпизоде сериала Лерой насвистывает композицию «Whistle While You Work», которая была написана для анимационной картины студии Disney «Белоснежка и семь гномов» (1937).
Шоу было задумано еще в 2004 году, но Адам Хоровиц и Эдвард Китсис не брались за него до тех пор, пока не была закончена работа над сериалом «Остаться в живых» (2004-2010).
Автором акварелей, которыми иллюстрирована книга сказок, принадлежащая Генри, является португальский художник Жоао Лемос (Joao MP Lemos), рисующий комиксы для компании Marvel.
Продюсеры предлагали роль Голубой феи Леди Гаге, но от её менеджера ответа не поступило. В итоге роль отдали Киган Коннор Трейси.
Имена многих персонажей в Сторибруке часто взаимосвязаны с их сказочными прототипами. Например:
Мэри Маргарет Блэнчард (Белоснежка): Блэнчард происходит из французского слова «blanc» т. е. белый. Имя «Мэри Маргарет» позаимствовано у реальной женщины, которая, как полагают, была прообразом Белоснежки, по имени «Мария София Маргэрета Катарина Фрайфройлайн фон Эрталь» (родившийся 15 июня 1729 в Германии).
Регина Миллс (Злая Королева): Регина — по-латински «Королева».
Мистер Голд (Румпельштильцхен): Румпельштильцхен прял из соломы золото (англ. gold) в своей истории.
Руби (Красная Шапочка): Рубин — драгоценный камень от розового до кроваво-красного оттенков.
Эшли Бойд (Золушка): Зола предшествует пеплу (ash — Эшли) в процессе горения. Бойд от гэльского слова «buidhe», что значит «с желтыми волосами».
Синди Глас (Зеркало): Поскольку иначе зеркало называют «looking glass». Кроме того, его газета называется «Зеркало».
Арчи Хоппер (Сверчок): Сверчки передвигаются прыжками (Хоппер -> hop -> прыжок). Кроме того, слово «сricket» (англ. сверчок) иногда используется для обозначения слова бункер (hopper — бункер).
Джефферсон (Безумный Шляпник): у группы Jefferson Airplane есть песня «Белый Кролик», которая отражает образы сказки «Алиса в Стране Чудес».
Кора (Королева Червей) — имя образовано от латинского «cor» — сердце.
Пилотный эпизод привлек 12,930 миллионов зрителей.
Кэти Сакхофф пробовалась на роль Эммы Свон.
Два часа требуется, чтобы наложить грим Румпельштильцхена на Роберта Карлайла, не считая минут 20, чтобы одеться в костюм.
Несколько раз за время сериала, на руке мистера Голда можно было заметить обручальное кольцо. Дело в том, что Роберт Карлайл просто забывал снять своё на съёмках, он даже сам писал об этом в твиттере.
01. Повесть о двух сестрах / A Tale of Two Sisters
02. Снежная мгла / White out
x264 [info]: frame I:801 Avg QP:15.28 size: 35525
x264 [info]: frame P:17645 Avg QP:18.41 size: 8330
x264 [info]: frame B:43431 Avg QP:21.29 size: 1665

x264 [total]: encoded 61877 frames, 30.08 fps, 767.95 kb/s
General
Complete name : Odnazhdy.v.skazke.2014.S04.WEB-DLRip.x264.640x(semen_52-TNC)\Odnazhdy.v.skazke.2014.s04e01(semen_52-TNC).mp4
Format : MPEG-4
Format profile : Base Media
Codec ID : isom
File size : 278 MiB
Duration : 43mn 0s
Overall bit rate mode : Variable
Overall bit rate : 904 Kbps
Collection : Odnazhdy v skazke
Season : 4
Part : 1
ContentType : TV Show
Encoded date : UTC 2014-12-01 19:08:32
Tagged date : UTC 2014-12-01 19:09:10
Writing application : MkvToMp4 version: 0.224 (x64)
Comment : Rip by semen_52-TNC
Title/Sort : Odnazhdy v skazke

Video
ID : 1
Format : AVC
Format/Info : Advanced Video Codec
Format profile : [email protected]
Format settings, CABAC : Yes
Format settings, ReFrames : 5 frames
Codec ID : avc1
Codec ID/Info : Advanced Video Coding
Duration : 43mn 0s
Bit rate : 768 Kbps
Maximum bit rate : 3 123 Kbps
Width : 640 pixels
Height : 360 pixels
Display aspect ratio : 16:9
Frame rate mode : Constant
Frame rate : 23.976 fps
Color space : YUV
Chroma subsampling : 4:2:0
Bit depth : 8 bits
Scan type : Progressive
Bits/(Pixel*Frame) : 0.139
Stream size : 236 MiB (85%)
Writing library : x264 core 130 r2273 b3065e6
Encoding settings : cabac=1 / ref=5 / deblock=1:-2:-2 / analyse=0x3:0x133 / me=esa / subme=9 / psy=1 / psy_rd=1.00:0.15 / mixed_ref=1 / me_range=32 / chroma_me=1 / trellis=2 / 8x8dct=1 / cqm=0 / deadzone=21,11 / fast_pskip=0 / chroma_qp_offset=-3 / threads=12 / lookahead_threads=2 / sliced_threads=0 / nr=0 / decimate=1 / interlaced=0 / bluray_compat=0 / constrained_intra=0 / bframes=3 / b_pyramid=2 / b_adapt=2 / b_bias=0 / direct=3 / weightb=1 / open_gop=0 / weightp=2 / keyint=250 / keyint_min=25 / scenecut=40 / intra_refresh=0 / rc_lookahead=60 / rc=2pass / mbtree=1 / bitrate=768 / ratetol=1.0 / qcomp=0.60 / qpmin=0 / qpmax=69 / qpstep=4 / cplxblur=20.0 / qblur=0.5 / ip_ratio=1.40 / aq=1:1.00
Language : English
Encoded date : UTC 2014-12-01 19:08:32
Tagged date : UTC 2014-12-01 19:08:43

Audio
ID : 2
Format : AAC
Format/Info : Advanced Audio Codec
Format profile : LC
Codec ID : 40
Duration : 43mn 0s
Bit rate mode : Variable
Bit rate : 128 Kbps
Maximum bit rate : 133 Kbps
Channel(s) : 2 channels
Channel positions : Front: L R
Sampling rate : 48.0 KHz
Compression mode : Lossy
Stream size : 39.4 MiB (14%)
Title : Dub Nevafilm
Language : Russian
Encoded date : UTC 2014-12-01 19:08:36
Tagged date : UTC 2014-12-01 19:08:43
Внимание! Раздача ведётся путём добавления новых серий; при каждом добавлении создётся новый торрент. Чтобы начать докачку новой серии, пользователям необходимо сделать следующее:
(1) остановить скачивание,
(2) удалить старый торрент у себя из клиента (старые серии удалять не надо),
(3) скачать новый торрент и запустить его у себя в клиенте вместо старого, при этом указать клиенту путь в старую папку куда и должно происходить скачивание новых серий.
Ваш клиент при этом должен произвести хеширование (проверку) старой папки (если не производит сам - помогите ему сделать это), и будет докачивать только те серии которых у вас ещё нет. Старые серии при этом не удаляются, а продолжают раздаваться!
Eсли вы уже удалили старые серии, то предотвратить повторную закачку старых серий можно, отжав галочку в соответсвующих местах при запуске нового торрента. По возможности, желательно не удалять старые серии как можно дольше чтобы релизёр не столько продолжал раздавать старые серии, а смог сконцентрироваться на новых.


Трекер:  [ 02-Дек-2014 21:00 ]

  

Скачать .torrent

Размер .torrent файла 11 KB


Размер: 560 MB
Хэш (hash) релиза: 5e7b2294f362bae372c86732fea4568db11751c9

Еще никто не оставлял запись к записи скачать торрент [SERIAL] Однажды в сказке Давным-давно . Будь первым!

!Обратная связь