Episode 109 | Rich & Famous | Eps8 Feud : Bette and Joan - Season 1 (2017)

Скачать через торрент [VIDEO] Адреналин Crank бесплатно русская версия torrent активатор

Статистика раздачи
Размер:  1.15 GB   |    Зарегистрирован:  3 года 7 месяцев   |    .torrent скачан:  53 раза   |   
Раздают:  1  
   
загрузка...
 
Автор Сообщение

Galfimbul

avatar Galfimbul


CrankАдреналин


Год выпуска: 2006
Страна: США
Жанр: боевик, триллер, драма, криминал
Продолжительность: 01:27:42
Перевод: Профессиональный (полное дублирование)
Режиссер: Марк Невелдайн | Mark Neveldine, Брайан Тейлор | Brian Taylor

В ролях: Джейсон Стэйтем (Jason Statham) | Эми Смарт (Amy Smart) | Хосе Пабло Кантильо (Jose Pablo Cantillo) | Эфрен Рамирез (Efren Ramirez) | Дуайт Йоакам (Dwight Yoakam) | Карлос Санс (Carlos Sanz)
Наемный убийца Чев узнает, что недоброжелатели отравили его редким китайским ядом и отрава начнет действовать немедленно, как только пульс перестанет биться ниже определенной отметки.
Качество: [i]BDRip
([url=...3541964][i]Blu-ray Disc[/url])
Формат: MP4
Видео: AVC High L4.1, 960х536 (16:9), 1 740 Kbps, 23.976 fps
Аудио: AAC, 2 ch, 48 kHz, 132 Kbps[/i]

x264 [info]: frame I:952   Avg QP:19.32  size: 58302
x264 [info]: frame P:35653 Avg QP:24.18  size: 16636
x264 [info]: frame B:89563 Avg QP:27.32  size:  5529
x264 [info]: consecutive B-frames:  7.6%  6.2% 14.6% 19.5% 14.1% 27.0%  3.4%  1.3%  2.3%  1.0%  0.8%  1.9%  0.3%
x264 [info]: mb I  I16..4: 16.6% 58.4% 24.9%
x264 [info]: mb P  I16..4:  2.1%  9.8%  2.6%  P16..4: 30.5% 30.8%  7.9%  0.0%  0.0%    skip:16.3%
x264 [info]: mb B  I16..4:  0.3%  1.4%  0.3%  B16..8: 35.6% 14.0%  2.1%  direct: 2.6%  skip:43.7%  L0:44.2% L1:49.0% BI: 6.8%
x264 [info]: 8x8 transform intra:67.0% inter:63.0%
x264 [info]: direct mvs  spatial:98.3% temporal:1.7%
x264 [info]: coded y,uvDC,uvAC intra: 75.1% 66.6% 30.2% inter: 15.1% 12.7% 0.8%
x264 [info]: i16 v,h,dc,p: 31% 24%  2% 43%
x264 [info]: i8 v,h,dc,ddl,ddr,vr,hd,vl,hu:  8%  6%  4% 10% 16% 14% 16% 11% 14%
x264 [info]: i4 v,h,dc,ddl,ddr,vr,hd,vl,hu: 13%  9%  6%  9% 14% 12% 14% 10% 14%
x264 [info]: i8c dc,h,v,p: 31% 31% 19% 19%
x264 [info]: Weighted P-Frames: Y:2.9% UV:1.5%
x264 [info]: ref P L0: 52.8% 12.6% 13.6%  5.3%  3.8%  3.0%  2.5%  1.5%  1.3%  1.2%  1.1%  1.1%  0.4%  0.0%
x264 [info]: ref B L0: 76.5%  9.7%  5.0%  2.3%  1.9%  1.3%  1.2%  0.7%  0.7%  0.4%  0.2%
x264 [info]: ref B L1: 92.8%  7.2%
x264 [info]: kb/s:1738.83
encoded 126168 frames, 11.06 fps, 1738.83 kb/s

General
Complete name                            : Z:\Downloads\Crank.mp4
Format                                   : MPEG-4
Format profile                           : Base Media
Codec ID                                 : isom
File size                                : 1.15 GiB
Duration                                 : 1h 27mn
Overall bit rate mode                    : Variable
Overall bit rate                         : 1 878 Kbps
Movie name                               : Crank
ContentType                              : Short Film
Encoded date                             : UTC 2014-11-24 20:10:55
Tagged date                              : UTC 2014-11-24 20:11:24
Writing application                      : MkvToMp4 version: 0.224 (x64)
Cover                                    : Yes
Comment                                  : |TORCHDK|

Video
ID                                       : 1
Format                                   : AVC
Format/Info                              : Advanced Video Codec
Format profile                           : [email protected]
Format settings, CABAC                   : Yes
Format settings, ReFrames                : 12 frames
Codec ID                                 : avc1
Codec ID/Info                            : Advanced Video Coding
Duration                                 : 1h 27mn
Bit rate                                 : 1 740 Kbps
Maximum bit rate                         : 10.3 Mbps
Width                                    : 960 pixels
Height                                   : 536 pixels
Display aspect ratio                     : 16:9
Frame rate mode                          : Constant
Frame rate                               : 23.976 fps
Color space                              : YUV
Chroma subsampling                       : 4:2:0
Bit depth                                : 8 bits
Scan type                                : Progressive
Bits/(Pixel*Frame)                       : 0.141
Stream size                              : 1.07 GiB (93%)
Writing library                          : x264 core 130 r2273 b3065e6
Encoding settings                        : cabac=1 / ref=12 / deblock=1:-2:-1 / analyse=0x3:0x113 / me=umh / subme=11 / psy=1 / psy_rd=1.00:0.00 / mixed_ref=1 / me_range=48 / chroma_me=1 / trellis=2 / 8x8dct=1 / cqm=0 / deadzone=21,11 / fast_pskip=1 / chroma_qp_offset=-2 / threads=12 / lookahead_threads=3 / sliced_threads=0 / nr=0 / decimate=1 / interlaced=0 / bluray_compat=0 / constrained_intra=0 / bframes=12 / b_pyramid=2 / b_adapt=2 / b_bias=0 / direct=3 / weightb=1 / open_gop=0 / weightp=2 / keyint=250 / keyint_min=23 / scenecut=40 / intra_refresh=0 / rc_lookahead=40 / rc=2pass / mbtree=1 / bitrate=1740 / ratetol=1.0 / qcomp=0.60 / qpmin=0 / qpmax=69 / qpstep=4 / cplxblur=20.0 / qblur=0.5 / ip_ratio=1.40 / aq=1:1.00
Language                                 : English
Encoded date                             : UTC 2014-11-24 20:10:55
Tagged date                              : UTC 2014-11-24 20:11:09

Audio
ID                                       : 2
Format                                   : AAC
Format/Info                              : Advanced Audio Codec
Format profile                           : LC
Codec ID                                 : 40
Duration                                 : 1h 27mn
Bit rate mode                            : Variable
Bit rate                                 : 132 Kbps
Maximum bit rate                         : 201 Kbps
Channel(s)                               : 2 channels
Channel positions                        : Front: L R
Sampling rate                            : 48.0 KHz
Compression mode                         : Lossy
Stream size                              : 82.6 MiB (7%)
Language                                 : Russian
Encoded date                             : UTC 2014-11-24 20:11:06
Tagged date                              : UTC 2014-11-24 20:11:09


Трекер:  [ 02-Дек-2014 21:00 ]

  

Скачать .torrent

Размер .torrent файла 12 KB


Размер: 1.15 GB
Хэш (hash) релиза: 7cf266b81ec56df66f813f584c510bb2eee03b96

Торренты, похожие на [VIDEO] Адреналин Crank скачать торрент

Форум Название Автор Размер S L Добавлен
Видео (Фильмы/Клипы) ·· [VIDEO] Адреналин: Высокое напряжение / Crank: High Voltage (Марк Невелдин / Mark Neveldine, Брайан Тэйлор / Brian Taylor) [2009 г., боевик, драма, комедия, криминал, BDRip] [MP4, 960x] Galfimbul 13512060781.26 GB 0 0 1417543746

21:09

2-Дек-14

Еще никто не оставлял запись к записи скачать торрент [VIDEO] Адреналин Crank . Будь первым!

!Обратная связь