"Altupi" | Isabella Sermon | Loveless

Скачать через торрент [VIDEO] Адреналин: Высокое напряжение Crank: High Voltage бесплатно русская версия torrent активатор

Статистика раздачи
Размер:  1.26 GB   |    Зарегистрирован:  3 года 7 месяцев   |    .torrent скачан:  85 раз   |   
Раздают:  1  
   
загрузка...
 
Автор Сообщение

Galfimbul

avatar Galfimbul


Crank: High VoltageАдреналин: Высокое напряжение


Год выпуска: 2009
Страна: США
Жанр: боевик, драма, комедия, криминал
Продолжительность: 01:35:51
Перевод: Профессиональный (полное дублирование)
Режиссер: Марк Невелдайн | Mark Neveldine, Брайан Тейлор | Brian Taylor

В ролях: Джейсон Стэйтем (Jason Statham) | Эми Смарт (Amy Smart) | Бай Лин (Bai Ling) | Эфрен Рамирез (Efren Ramirez) | Дуайт Йоакам (Dwight Yoakam) | Клифтон Коллинз мл. (Clifton Collins Jr.)
Он умер, но обещал вернуться! Не чудом, а благодаря современным медицинским технологиям Чев Челиос получает новое сердце и новый шанс отомстить своим врагам. Теперь для постоянной подзарядки ему требуется электрический разряд мощностью не меньше, чем у автомобильного аккумулятора.
Качество: BDRip ([url=...3021876][i]Blu-ray Disc[/url])
Формат: MP4
Видео: AVC High L4.1, 960х520 (16:9), 1 740 Kbps, 23.976 fps
Аудио: AAC, 2 ch, 48 kHz, 132 Kbps[/i]

x264 [info]: frame I:1313  Avg QP:22.30  size: 56935
x264 [info]: frame P:46571 Avg QP:26.86  size: 14613
x264 [info]: frame B:89991 Avg QP:28.87  size:  5502
x264 [info]: consecutive B-frames: 10.7% 10.7% 18.2% 26.8% 13.7% 15.4%  2.3%  1.0%  1.1%
x264 [info]: mb I  I16..4: 15.6% 56.4% 28.0%
x264 [info]: mb P  I16..4:  4.0% 11.5%  3.3%  P16..4: 26.4% 24.3%  6.8%  0.0%  0.0%    skip:23.7%
x264 [info]: mb B  I16..4:  0.7%  1.9%  0.5%  B16..8: 32.3% 13.6%  2.3%  direct: 2.5%  skip:46.3%  L0:42.5% L1:49.5% BI: 8.0%
x264 [info]: 8x8 transform intra:60.5% inter:58.8%
x264 [info]: direct mvs  spatial:94.0% temporal:6.0%
x264 [info]: coded y,uvDC,uvAC intra: 60.7% 53.0% 19.2% inter: 13.9% 8.9% 0.5%
x264 [info]: i16 v,h,dc,p: 27% 20%  8% 44%
x264 [info]: i8 v,h,dc,ddl,ddr,vr,hd,vl,hu:  9%  6%  8% 10% 14% 14% 14% 12% 13%
x264 [info]: i4 v,h,dc,ddl,ddr,vr,hd,vl,hu: 14%  8% 10%  8% 13% 12% 12% 10% 13%
x264 [info]: i8c dc,h,v,p: 30% 33% 19% 17%
x264 [info]: Weighted P-Frames: Y:2.7% UV:1.2%
x264 [info]: ref P L0: 57.9% 13.2% 12.1%  4.4%  3.1%  2.5%  2.1%  1.3%  1.1%  1.0%  1.0%  0.4%  0.0%
x264 [info]: ref B L0: 83.1%  7.9%  3.6%  1.6%  1.2%  0.9%  0.7%  0.4%  0.3%  0.2%
x264 [info]: ref B L1: 94.6%  5.4%
x264 [info]: kb/s:1739.61
encoded 137875 frames, 12.08 fps, 1739.61 kb/s

General
Complete name                            : Z:\Downloads\Crank High Voltage.mp4
Format                                   : MPEG-4
Format profile                           : Base Media
Codec ID                                 : isom
File size                                : 1.26 GiB
Duration                                 : 1h 35mn
Overall bit rate mode                    : Variable
Overall bit rate                         : 1 880 Kbps
Movie name                               : Crank High Voltage
ContentType                              : Short Film
Encoded date                             : UTC 2014-12-02 01:48:24
Tagged date                              : UTC 2014-12-02 01:48:56
Writing application                      : MkvToMp4 version: 0.224 (x64)
Cover                                    : Yes
Comment                                  : |TORCHDK|

Video
ID                                       : 1
Format                                   : AVC
Format/Info                              : Advanced Video Codec
Format profile                           : [email protected]
Format settings, CABAC                   : Yes
Format settings, ReFrames                : 11 frames
Codec ID                                 : avc1
Codec ID/Info                            : Advanced Video Coding
Duration                                 : 1h 35mn
Bit rate                                 : 1 740 Kbps
Maximum bit rate                         : 12.2 Mbps
Width                                    : 960 pixels
Height                                   : 520 pixels
Display aspect ratio                     : 1.85:1
Frame rate mode                          : Constant
Frame rate                               : 23.976 fps
Color space                              : YUV
Chroma subsampling                       : 4:2:0
Bit depth                                : 8 bits
Scan type                                : Progressive
Bits/(Pixel*Frame)                       : 0.145
Stream size                              : 1.16 GiB (93%)
Writing library                          : x264 core 130 r2273 b3065e6
Encoding settings                        : cabac=1 / ref=11 / deblock=1:-2:-1 / analyse=0x3:0x113 / me=umh / subme=11 / psy=1 / psy_rd=1.00:0.00 / mixed_ref=1 / me_range=48 / chroma_me=1 / trellis=2 / 8x8dct=1 / cqm=0 / deadzone=21,11 / fast_pskip=1 / chroma_qp_offset=-2 / threads=12 / lookahead_threads=2 / sliced_threads=0 / nr=0 / decimate=1 / interlaced=0 / bluray_compat=0 / constrained_intra=0 / bframes=8 / b_pyramid=2 / b_adapt=2 / b_bias=0 / direct=3 / weightb=1 / open_gop=0 / weightp=2 / keyint=250 / keyint_min=23 / scenecut=40 / intra_refresh=0 / rc_lookahead=40 / rc=2pass / mbtree=1 / bitrate=1740 / ratetol=1.0 / qcomp=0.60 / qpmin=0 / qpmax=69 / qpstep=4 / cplxblur=20.0 / qblur=0.5 / ip_ratio=1.40 / aq=1:1.00
Language                                 : English
Encoded date                             : UTC 2014-12-02 01:48:24
Tagged date                              : UTC 2014-12-02 01:48:39

Audio
ID                                       : 2
Format                                   : AAC
Format/Info                              : Advanced Audio Codec
Format profile                           : LC
Codec ID                                 : 40
Duration                                 : 1h 35mn
Bit rate mode                            : Variable
Bit rate                                 : 132 Kbps
Maximum bit rate                         : 225 Kbps
Channel(s)                               : 2 channels
Channel positions                        : Front: L R
Sampling rate                            : 48.0 KHz
Compression mode                         : Lossy
Stream size                              : 90.5 MiB (7%)
Language                                 : Russian
Encoded date                             : UTC 2014-12-02 01:48:36
Tagged date                              : UTC 2014-12-02 01:48:39


Трекер:  [ 02-Дек-2014 21:00 ]

  

Скачать .torrent

Размер .torrent файла 13 KB


Размер: 1.26 GB
Хэш (hash) релиза: 023a2207d17ad538aa51ce0f1715ab428e9304ba

Еще никто не оставлял запись к записи скачать торрент [VIDEO] Адреналин: Высокое напряжение Crank: High Voltage . Будь первым!

!Обратная связь