[Crime] Narcos S01 Complete German DL NetflixUHD x264 - TVS | الفصل السابق> | TheVideo

Скачать через торрент [VIDEO] Сказка о царе Салтане бесплатно русская версия torrent активатор

Статистика раздачи
Размер:  476 MB   |    Зарегистрирован:  3 года 7 месяцев   |    .torrent скачан:  39 раз   |   
Раздают:  1  
   
загрузка...
 
Автор Сообщение

Galfimbul

avatar Galfimbul


Сказка о царе Салтане



Год выпуска: 1966
Страна: СССР, киностудия Мосфильм
Жанр: Сказка, детский, семейный
Продолжительность: 01:21:39
Перевод: Не требуется
Cубтитры: нет
Режиссер: Александр Птушко
В ролях: Владимир Андреев, Лариса Голубкина, Олег Видов, Ксения Рябинкина, Николай Бармин, Яков Беленький, Нина Беляева, Борис Битюков, Юрий Чекулаев, Анатолий Дегтярь, Владимир Ферапонтов, Сергей Голованов, Вера Ивлева, Артем Карапетян, Юрий Киреев, Виктор Колпаков, Сергей Мартинсон, Евгений Майхровский, Григорий Михайлов, Сарра Мокиль, Олег Мокшанцев, Валерий Носик, Михаил Орлов, Дмитрий Орловский, Павел Шальнов, Григорий Шпигель, Гурген Тонунц, Виктор Уральский, Зоя Василькова, Ольга Викланд, Валентина Ананьина, Елена Вольская
Описание: Три девицы под окном пряли поздно вечерком... А потом много чего было: и любовь, и клевета, и предательство, и чудеса, и множество волшебных приключений, и тридцать три богатыря, и, конечно же, счастливый конец...



Качество: DVDRip
Формат: MP4
Видео: AVC at 679 Kbps, 640 x 288 (2.200) at 25.000 fps
Аудио: AAC at 128 Kbps, 2 channels, 48.0 KHz
GeneralComplete name : G:\Сказка о царе Салтане (1966) 640х.mp4Format : MPEG-4Format profile : Base MediaCodec ID : isomFile size : 476 MiBDuration : 1h 21mnOverall bit rate mode : VariableOverall bit rate : 815 KbpsMovie name : Сказка о царе Салтане (1966) [by Alien.09]Encoded date : UTC 2014-12-02 12:06:31Tagged date : UTC 2014-12-02 12:06:48Writing application : MkvToMp4 version: 0.224 (x64)Comment : Сказка о царе Салтане (1966) [rip by Alien.09]hdvd : 0stik : 9

VideoID : 1Format : AVCFormat/Info : Advanced Video CodecFormat profile : [email protected] settings, CABAC : YesFormat settings, ReFrames : 3 framesCodec ID : avc1Codec ID/Info : Advanced Video CodingDuration : 1h 21mnBit rate : 679 KbpsMaximum bit rate : 4 907 KbpsWidth : 640 pixelsHeight : 288 pixelsDisplay aspect ratio : 2.2:1Frame rate mode : ConstantFrame rate : 25.000 fpsColor space : YUVChroma subsampling : 4:2:0Bit depth : 8 bitsScan type : ProgressiveBits/(Pixel*Frame) : 0.147Stream size : 397 MiB (83%)Writing library : x264 core 125 r2200M 999b753Encoding settings : cabac=1 / ref=3 / deblock=1:0:0 / analyse=0x1:0x131 / me=hex / subme=7 / psy=1 / psy_rd=1.00:0.20 / mixed_ref=1 / me_range=16 / chroma_me=1 / trellis=1 / 8x8dct=0 / cqm=0 / deadzone=21,11 / fast_pskip=1 / chroma_qp_offset=-3 / threads=4 / lookahead_threads=1 / sliced_threads=0 / nr=0 / decimate=1 / interlaced=0 / bluray_compat=0 / constrained_intra=0 / bframes=3 / b_pyramid=0 / b_adapt=2 / b_bias=0 / direct=3 / weightb=1 / open_gop=0 / weightp=0 / keyint=250 / keyint_min=25 / scenecut=40 / intra_refresh=0 / rc_lookahead=40 / rc=2pass / mbtree=1 / bitrate=679 / ratetol=1.0 / qcomp=0.60 / qpmin=10 / qpmax=51 / qpstep=4 / cplxblur=20.0 / qblur=0.5 / vbv_maxrate=5000 / vbv_bufsize=1835 / nal_hrd=none / ip_ratio=1.40 / aq=1:1.00Language : RussianEncoded date : UTC 2014-12-02 12:06:31Tagged date : UTC 2014-12-02 12:06:39

AudioID : 2Format : AACFormat/Info : Advanced Audio CodecFormat profile : LCCodec ID : 40Duration : 1h 21mnBit rate mode : VariableBit rate : 128 KbpsMaximum bit rate : 193 KbpsChannel(s) : 2 channelsChannel positions : Front: L RSampling rate : 48.0 KHzCompression mode : LossyStream size : 74.7 MiB (16%)Language : RussianEncoded date : UTC 2014-12-02 12:06:36Tagged date : UTC 2014-12-02 12:06:39


Трекер:  [ 02-Дек-2014 21:00 ]

  

Скачать .torrent

Размер .torrent файла 19 KB


Размер: 476 MB
Хэш (hash) релиза: ecb38506659f18be42ef8ea09e87c7f07bd0fc8a

Торренты, похожие на [VIDEO] Сказка о царе Салтане скачать торрент

Форум Название Автор Размер S L Добавлен
Видео (Фильмы/Клипы) ·· [VIDEO] Сказка о царе Салтане (Александр Птушко) [1966, сказка, DVDRip] [MP4, 640x] [Крупный план, полная реставрация] Galfimbul 744696729710 MB 0 0 1494775081

18:18

14-Май-17

Еще никто не оставлял запись к записи скачать торрент [VIDEO] Сказка о царе Салтане . Будь первым!

!Обратная связь