Ocean Girl | Télécharger Part 4 | Télécharger Part 12

Скачать через торрент [ANIME] Отчаянные бойцы бакуган Bakugan Battle Brawlers бесплатно русская версия torrent активатор

Статистика раздачи
Размер:  3.73 GB   |    Зарегистрирован:  3 года 7 месяцев   |    .torrent скачан:  30 раз   |   
Раздают:  1  
   
загрузка...
 
Автор Сообщение

Galfimbul

avatar Galfimbul


Отчаянные бойцы бакуган / Bakugan Battle Brawlers

Год выпуска: 2007

Страна: Япония
Жанр: Приключения, фантастика, сёнэн
Продолжительность: 52 ~ 00:21:23
Перевод: Профессиональный (полное дублирование)
Русские субтитры: нет
Режиссер: Хасимото Мицуо
Описание: На американского подростка Дэна Кузо и других детей с неба посыпались волшебные карты. Дети собрали их и придумали стратегическую игру. В каждом шаре был монстр, который приобретает свои реальные рост и способности. В картах записаны способности и бонусы для монстров. Все это люди и назвали Бакуганом. Но до тех пор пока загадочный игрок по прозвищу Маска, не начал отправлять бакуганов своих противников в измерение Смерти в Вестройе (галактика, из которой пришли бакуганы). Дэн хорошо играл в бакуган и понял что это не просто игра, а нечто более важное. И Маска приобрёл нескольких лучших в мире игроков в бакуган, подчиняясь приказу бакугана Наги и человека Хелджи (дедушка Элис), которые с помощью этой игры решили захватить власть в Вестройе и на Земле.
Качество: DVDRip
Формат: 3GP
Видео кодек: Другой MPEG4
Аудио кодек: AAC
Видео: MPEG-4 Visual 350 Kbps 320 x 240 (4/3) at 24.972 fps
Аудио: AAC, 128kbps, 48000Hz, stereo
Общее
Полное имя : F:\мои раздачи\Bakugan Battle Brawlers [TV-1] 3GP\01 Бакуган - Битва начинается (Bakugan The Battle Begins).3gp
Формат : MPEG-4
Профиль формата : 3GPP Media Release 5
Идентификатор кодека : 3gp5
Размер файла : 73,4 Мбайт
Продолжительность : 21 м.
Режим общего битрейта : Переменный
Общий поток : 479 Кбит/сек
Дата кодирования : UTC 2013-03-22 03:47:54
Дата пометки : UTC 2013-03-22 03:47:54

Видео
Идентификатор : 1
Формат : MPEG-4 Visual
Профиль формата : Advanced [email protected]
Параметр BVOP формата : Нет
Параметр QPel формата : Нет
Параметр GMC формата : Без точки перехода
Параметр матрицы формата : Default (H.263)
Идентификатор кодека : 20
Продолжительность : 21 м.
Вид битрейта : Переменный
Битрейт : 349 Кбит/сек
Максимальный битрейт : 1621 Кбит/сек
Ширина : 320 пикселей
Высота : 240 пикселей
Соотношение сторон : 4:3
Режим частоты кадров : Переменный
Частота кадров : 24,972 кадров/сек
Частота кадров в оригинале : 25,000 кадров/сек
Минимальная частота кадров : 2,778 кадра/сек
Максимальная частота кадров : 25,000 кадров/сек
Цветовое пространство : YUV
Субдискретизация насыщенности : 4:2:0
Битовая глубина : 8 бит
Тип развёртки : Прогрессивная
Метод сжатия : С потерями
Бит/(Пиксели*Кадры) : 0.182
Размер потока : 53,4 Мбайт (73%)
Библиотека кодирования : XviD 1.2.1 (UTC 2008-12-04)
Дата кодирования : UTC 2013-03-22 03:47:54
Дата пометки : UTC 2013-03-22 03:47:56

Аудио
Идентификатор : 2
Формат : AAC
Формат/Информация : Advanced Audio Codec
Профиль формата : LC
Идентификатор кодека : 40
Продолжительность : 21 м.
Вид битрейта : Переменный
Битрейт : 128 Кбит/сек
Максимальный битрейт : 149 Кбит/сек
Каналы : 2 канала
Расположение каналов : Front: L R
Частота : 48,0 КГц
Метод сжатия : С потерями
Размер потока : 19,6 Мбайт (27%)
Дата кодирования : UTC 2013-03-22 03:47:55
Дата пометки : UTC 2013-03-22 03:47:56
01. Бакуган - Битва начинается (Bakugan The Battle Begins)
02. Появление Маски (The Masquerade Ball)
03. Ссора друзей (A Feud Between Friends)
04. Дэн и Драго (Dan and Drago)
05. Руно – круче всех (Runo Rules)
06. Сложная комбинация (A Combination Battle)
07. Музыкальная битва (Bakugan Idol)
08. Девчонки любят повеселиться (Girls Just Wanna Have Fun)
09. В полет или в битву! (Fight or Flight)
10. Идеальная пара (A Perfect Match)
11. Новый бакуган дедушки (Grandpa's Got a Brand New Bakugan)
12. Хранитель-бакуган (Bakugan Stall)
13. И немножко Шуна (Just for the Shun of It)
14. История Вестройи (The Story of Vestroia)
15. Дуэль в пустыне (Duel in the Desert)
16. В отчаянных поисках славы (No Guts, No Glory)
17. Лучшие друзья навеки (BFF - Best Friends Forever)
18. Революционная эволюция (Evolution Revolution)
19. Непростая схватка Джули (Julie Plays Hard Brawl)
20. Когда мои друзья со мной (A Little Help from My Friends)
21. Мой верный друг (My Good Friend)
22. Крутой Драго (Drago's on Fire)
23. Скажи, что это не так, Джо (Say it Ain't So Joe)
24. Секрет успеха (The Secrets of Success)
25. Верь мне (Trust Me)
26. Измерение смерти для всех (Doom Dimension or Bust)
27. В решающей схватке (Show Down)
28. Последняя попытка бойцов (The Brawler's Last Stand)
29. Кошмар в Думсвилле (Nightmare in Doomsville)
30. Я Маручо, услышь мой голос (I am Marucho Hear Me Roar)
31. Далеко от дома (A Place Far from Home)
32. Играй по правилам, Руно (Play Nice Runo)
33. Сдавайся, клоун (You're Going Down, Clown)
34. Дом, милый дом (Home Sweet Home)
35. Последняя попытка Дэна (Dan's Last Stand)
36. Покажи, на что способен (Show Me What You've Got)
37. Ты говорила, что ждешь эволюцию (You Say You Want an Evolution)
38. Кто скрывается под маской (Behind the Mask of Masquerade)
39. Маска без маски (Masquerade Unmasked)
40. Боевой урок Элис (Alice Gets Schooled)
41. Рыбка по имени Тейган (A Fish Called Taygen)
42. Гонка до Вестройи (The Race to Vestroia)
43. Следующая остановка – Нагавиль (Next Stop Naga-Ville)
44. Затяжной бой (It's a Long Shot)
45. Контроль осуществляет майор Дэн (Ground Control to Major Dan!)
46. Звезды одного хита (The One Hit Wonders)
47. Грязная битва (Here's Mud in Your Eye)
48. Месть Рабиди (R is for Revenge)
49. Заварушка в Уордингтоне (Showdown in Wardington)
50. Хорошие, плохие и бакуганы (The Good, the Bad and the Bakugan)
51. Последний бой (The Final Brawl)
52. Игра окончена (Game Over)


Трекер:  [ 02-Дек-2014 21:00 ]

  

Скачать .torrent

Размер .torrent файла 24 KB


Размер: 3.73 GB
Хэш (hash) релиза: 5e54310971971167b2ebd6b8423349f9b88fd502

Еще никто не оставлял запись к записи скачать торрент [ANIME] Отчаянные бойцы бакуган Bakugan Battle Brawlers . Будь первым!

!Обратная связь