LINE - общаемся бесплатно! | Реклама | Hotel Transilvânia 3: Férias Monstruosas Assistir Hotel Transilvânia 3: Férias Monstruosas 720p Dublado/Legendado Online Agora que Dennis, o neto de Drácula, é um completo vampiro, as coisas não poderiam estar melhores no Hotel transilvânia. Quando um milionário ganancioso ameaça destruir a propriedade para construir um resort, a família de Dráculo e os monstros precisam se unir para certificar que ele nunca complete os seus planos. Ver filme ...

Скачать через торрент [SERIAL] Викинги Vikings бесплатно русская версия torrent активатор

Статистика раздачи
Размер:  1.01 GB   |    Зарегистрирован:  3 года 7 месяцев   |    .torrent скачан:  39 раз   |   
Раздают:  1  
   
загрузка...
 
Автор Сообщение

Galfimbul

avatar Galfimbul


Викинги / Vikings

Год выпуска: 2013
Страна: Ирландия, Канада
Жанр: Боевик, драма, военный, история
Продолжительность: 00:44:09
Перевод: Профессиональный (многоголосый, закадровый) BaibaKo
Русские субтитры: нет
Режиссер: Киаран Доннелли, Йохан Ренк, Кен Джиротти
В ролях: Трэвис Фиммел, Клайв Стэнден, Кэтрин Уинник, Гэбриел Бирн, Джессалин Гилсиг, Густаф Скарсгард, Джефферсон Холл, Джордж Благден, Тадж Мерфи, Диармэйд Мурта

Описание: Сериал рассказывает об отряде викингов Рагнара. Он восстал, чтобы стать королём племён викингов. Норвежская легенда гласит, что он был прямым потомком Одина, бога войны и воинов.


Качество: WEB-DLRip
Формат: 3GP
Видео кодек: DivX
Аудио кодек: AAC
Видео: DivX, 320x176, (16:9), 300 kbps, 23.98 fps
Аудио: AAC, 64 kbps, 48.0 kHz, 2 ch
Перевод: Янина Галицкая
Озвучивание: Артемий Мирон, Сергей Корчак, Алексей Кузнецов, Елена Григорьева
1. Обряды посвящения / Rites of Passage
2. Гнев северян / Wrath of Northmen
3. Обездоленные / Dispossessed
4. Суд / Trail
5. Облава / Raid
6. Погребение усопших / Burial of the Dead
7. Королевский выкуп / A King's Ransom
8. Жертва / Sacrifice
9. Всё меняется / All Change
General
Format : MPEG-4
Format profile : 3GPP Media Release 5
Codec ID : 3gp5
File size : 116 MiB
Duration : 44mn 9s
Overall bit rate mode : Variable
Overall bit rate : 367 Kbps
Encoded date : UTC 2013-03-06 04:46:14
Tagged date : UTC 2013-03-06 04:46:14

Video #1
ID : 1
Format : MPEG-4 Visual
Format profile : [email protected]
Format settings, BVOP : No
Format settings, QPel : No
Format settings, GMC : No warppoints
Format settings, Matrix : Default (H.263)
Codec ID : 20
Duration : 44mn 9s
Bit rate mode : Variable
Bit rate : 300 Kbps
Maximum bit rate : 1 000 Kbps
Width : 320 pixels
Height : 176 pixels
Display aspect ratio : 16:9
Frame rate mode : Constant
Frame rate : 23.976 fps
Color space : YUV
Chroma subsampling : 4:2:0
Bit depth : 8 bits
Scan type : Progressive
Compression mode : Lossy
Bits/(Pixel*Frame) : 0.222
Stream size : 94.7 MiB (82%)
Writing library : Lavc52.108.0
Encoded date : UTC 2013-03-06 04:46:14
Tagged date : UTC 2013-03-06 04:46:26

Audio #2
ID : 2
Format : AAC
Format/Info : Advanced Audio Codec
Format profile : LC
Codec ID : 40
Duration : 44mn 9s
Bit rate mode : Variable
Bit rate : 64.0 Kbps
Maximum bit rate : 68.4 Kbps
Channel(s) : 2 channels
Channel positions : Front: L R
Sampling rate : 48.0 KHz
Compression mode : Lossy
Stream size : 20.2 MiB (17%)
Encoded date : UTC 2013-03-06 04:46:19
Tagged date : UTC 2013-03-06 04:46:26
Добавлен 9-ый эпизод!
Перекачайте торрент!

Трекер:  [ 02-Дек-2014 21:00 ]

  

Скачать .torrent

Размер .torrent файла 11 KB


Размер: 1.01 GB
Хэш (hash) релиза: 6ebff1992dd9a47c86650870ce049534fdb3da3a

Еще никто не оставлял запись к записи скачать торрент [SERIAL] Викинги Vikings . Будь первым!

!Обратная связь