English Den of Thieves 2018 HDrip AC3 X264-CMRG | Der Nebel | La famiglia Aubrey

Скачать через торрент [VIDEO] Дара О Бриэн — Вживую в Королевском театре Dara OBriain — Live at the Theatre Royal бесплатно русская версия torrent активатор

Статистика раздачи
Размер:  267 MB   |    Зарегистрирован:  3 года 7 месяцев   |    .torrent скачан:  32 раза   |   
Раздают:  1  
   
загрузка...
 
Автор Сообщение

Galfimbul

avatar Galfimbul


Дара О Бриэн — Вживую в Королевском театре / Dara O'Briain — Live at the Theatre Royal

Год выпуска: 2006
Страна: Великобритания
Жанр: stand-up комедия, монолог
Продолжительность: 01:29:33
Перевод: Любительcкий (одноголосый)
Русские субтитры: нет
Описание: Дара О Бриэн во всём своём великолепии: дурачества, работа с залом, критика невежества и море ирландского пузатого добродушия.

Доп. информация:
Озвучивание: Сергей Фадеев
Автор перевода: Семен Гальцев

Качество: HDRip
Формат: 3GP
Видео кодек: MPEG4 (H.263)
Аудио кодек: AAC
Видео: 320x180 (16:9) 25.00fps 348kbps
Аудио: 22050Hz stereo 63kbps
Theatre Royal (rus dub)\Dara O Briain - Live at the Theatre Royal (rus dub).3gp
Format : MPEG-4
Format profile : 3GPP Media Release 4
Codec ID : 3gp4
File size : 267 MiB
Duration : 1h 29mn
Overall bit rate : 416 Kbps
Video
ID : 1
Format : MPEG-4 Visual
Format profile : [email protected]
Format settings, BVOP : No
Format settings, QPel : No
Format settings, GMC : No warppoints
Format settings, Matrix : Default (H.263)
Codec ID : 20
Duration : 1h 29mn
Bit rate mode : Constant
Bit rate : 348 Kbps
Width : 320 pixels
Height : 180 pixels
Display aspect ratio : 16:9
Frame rate mode : Variable
Frame rate : 25.000 fps
Minimum frame rate : 8.333 fps
Maximum frame rate : 25.000 fps
Color space : YUV
Chroma subsampling : 4:2:0
Bit depth : 8 bits
Scan type : Progressive
Compression mode : Lossy
Bits/(Pixel*Frame) : 0.242
Stream size : 224 MiB (84%)
Writing library : Lavc54.92.100
Audio
ID : 2
Format : AAC
Format/Info : Advanced Audio Codec
Format profile : LC
Codec ID : 40
Duration : 1h 29mn
Duration_FirstFrame : 139ms
Bit rate mode : Constant
Bit rate : 63.0 Kbps
Channel(s) : 2 channels
Channel positions : Front: L R
Sampling rate : 22.05 KHz
Compression mode : Lossy
Stream size : 41.0 MiB (15%)


Трекер:  [ 02-Дек-2014 21:00 ]

  

Скачать .torrent

Размер .torrent файла 11 KB


Размер: 267 MB
Хэш (hash) релиза: 87304c938ada794d3fb2bf0ac8a7c90ce0fc96e1

Еще никто не оставлял запись к записи скачать торрент [VIDEO] Дара О Бриэн — Вживую в Королевском театре Dara OBriain — Live at the Theatre Royal . Будь первым!

!Обратная связь