Push The Feeling (Selekio In Da House Dub) (2).wav
The Fall

Скачать через торрент [VIDEO] Дара О Бриэн Шутит напролом Dara O Briain Talks Funny: Live in London бесплатно русская версия torrent активатор

Статистика раздачи
Размер:  275 MB   |    Зарегистрирован:  3 года 4 месяца   |    .torrent скачан:  21 раз   |   
Раздают:  1  
   
загрузка...
 
Автор Сообщение

Galfimbul

avatar Galfimbul


Дара О Бриэн Шутит напролом / Dara O Briain Talks Funny: Live in London

Год выпуска: 2008
Страна: Великобритания
Жанр: stand-up комедия, монолог
Продолжительность: 01:34:34
Перевод: Любительcкий (одноголосый), присутствует ненормативная лексика!
Русские субтитры: нет
Описание: Да́ра О Бри́эн (ирл. Dara Ó Briain) — ирландский комик и телеведущий, работавший в таких шоу, как The Panel и Mock the Week. Газета Irish Independent охарактеризовала его как «преемника Терри Вогана» и «самого любимого ирландца Великобритании». Журналист The Evening Standard Брюс Дессо писал, что "Если вы не смеётесь над шутками О Бриэна, проверьте свой пульс — скорее всего, вы мертвы".
В этом концерте Дара показывает небывалые вершины мастерства стэндап-комика, создавая шоу из "подручных материалов" - зрителей из первого ряда. Чудеса импровизации переплетаются с подготовленными шутками высочайшего качества. Обязательно к просмотру всем поклонникам жанра!

Доп. информация:
Озвучивание: Сергей Фадеев
Автор перевода: Семен Гальцев
Техническая обработка: Андрей Танасенко

Качество: HDRip
Формат: 3GP
Видео кодек: MPEG4 (H.263)
Аудио кодек: AAC
Видео: 320x180 25.00fps 340kbps
Аудио: 22050Hz stereo 64kbps
Dara O Briain - Talks Funny Live in London.3gp
Format : MPEG-4
Format profile : 3GPP Media Release 4
Codec ID : 3gp4
File size : 275 MiB
Duration : 1h 34mn
Overall bit rate : 407 Kbps

Video
ID : 1
Format : MPEG-4 Visual
Format profile : [email protected]
Format settings, BVOP : No
Format settings, QPel : No
Format settings, GMC : No warppoints
Format settings, Matrix : Default (H.263)
Codec ID : 20
Duration : 1h 34mn
Bit rate mode : Constant
Bit rate : 340 Kbps
Width : 320 pixels
Height : 180 pixels
Display aspect ratio : 16:9
Frame rate mode : Constant
Frame rate : 25.000 fps
Color space : YUV
Chroma subsampling : 4:2:0
Bit depth : 8 bits
Scan type : Progressive
Compression mode : Lossy
Bits/(Pixel*Frame) : 0.236
Stream size : 230 MiB (83%)
Writing library : Lavc54.92.100

Audio
ID : 2
Format : AAC
Format/Info : Advanced Audio Codec
Format profile : LC
Codec ID : 40
Duration : 1h 34mn
Duration_FirstFrame : 139ms
Bit rate mode : Constant
Bit rate : 63.9 Kbps
Channel(s) : 2 channels
Channel positions : Front: L R
Sampling rate : 22.05 KHz
Compression mode : Lossy
Stream size : 43.2 MiB (16%)


Трекер:  [ 02-Дек-2014 21:00 ]

  

Скачать .torrent

Размер .torrent файла 11 KB


Размер: 275 MB
Хэш (hash) релиза: eda7a123c1ec0b108bfbcf3f9f4d8b5ae0b1dbb2

Еще никто не оставлял запись к записи скачать торрент [VIDEO] Дара О Бриэн Шутит напролом Dara O Briain Talks Funny: Live in London . Будь первым!

!Обратная связь