Dave Davis | Mega W — Сборник манги Mega W [cen] [Mind Break, Ahegao, Full Color, Hairy Armpits, Ganguro, Bukkake, Nakadashi, Tattoo, Piercings, Drugs, Breasts Expansion, Body Modification, Slut Training, Prostitution, Big Tits] [eng] | The Walking Dead Temporada 3 BluRay 1080p

Скачать через торрент [MULT] Ишь ты, Масленица! бесплатно русская версия torrent активатор

Статистика раздачи
Размер:  25 MB   |    Зарегистрирован:  3 года 7 месяцев   |    .torrent скачан:  38 раз   |   
Раздают:  1  
   
загрузка...
 
Автор Сообщение

Galfimbul

avatar Galfimbul


Ишь ты, Масленица!

Год выпуска: 1985

Страна: СССР
Жанр: мультфильм, семейный
Продолжительность: 0:7:21
Перевод: Не требуется
Русские субтитры: нет
Режиссер: Роберт Саакянц
Описание: По мотивам сказки О. Туманяна «Барекендан» о бедняке, наказавшем богача за жадность.

Качество: SATRip
Формат: 3GP
Видео кодек: DivX
Аудио кодек: AAC
Видео: DivX, 320x240, 4:3, 352 kbps, 25 fps
Аудио: AAC, 128 kbps, 44,1 kHz, 2 ch
Слово «Складъ» написано в дореволюционной манере, с ером на конце. Однако при этом в барской усадьбе оказываются современный прожектор и красный пожарный кран;
Ринувшись в погоню за мальчиком, барин ударяется лицом о притолоку в воротах, явно травмируя нос и зубы. Но в следующем кадре он гонится не только с подвязанной нижней челюстью, но и с забинтованной головой, так как, видимо, ещё и стукнулся затылком об лёд при падении с лошади;
Немецкая овчарка, охраняющая склад, играет на губной гармошке мелодию «Ах, мой милый Августин». Это логично при том, что пёс сидит с пулемётом на вышке, за колючей проволокой.
Общее
Полное имя : D:\Мои видеозаписи\Ишь ты, Масленица!.3gp
Формат : MPEG-4
Профиль формата : 3GPP Media Release 5
Идентификатор кодека : 3gp5
Размер файла : 25,4 Мбайт
Продолжительность : 7 м. 21 с.
Режим общего битрейта : Переменный
Общий поток : 482 Кбит/сек
Дата кодирования : UTC 2013-09-20 06:38:16
Дата пометки : UTC 2013-09-20 06:38:16

Видео
Идентификатор : 1
Формат : MPEG-4 Visual
Профиль формата : [email protected]
Параметр BVOP формата : Нет
Параметр QPel формата : Нет
Параметр GMC формата : Без точки перехода
Параметр матрицы формата : Default (H.263)
Идентификатор кодека : 20
Продолжительность : 7 м. 21 с.
Вид битрейта : Переменный
Битрейт : 352 Кбит/сек
Максимальный битрейт : 927 Кбит/сек
Ширина : 320 пикселей
Высота : 240 пикселей
Соотношение сторон : 4:3
Режим частоты кадров : Постоянный
Частота кадров : 25,000 кадров/сек
Цветовое пространство : YUV
Субдискретизация насыщенности : 4:2:0
Битовая глубина : 8 бит
Тип развёртки : Прогрессивная
Метод сжатия : С потерями
Бит/(Пиксели*Кадры) : 0.183
Размер потока : 18,5 Мбайт (73%)
Библиотека кодирования : Lavc53.33.0
Дата кодирования : UTC 2013-09-20 06:38:16
Дата пометки : UTC 2013-09-20 06:38:16

Аудио
Идентификатор : 2
Формат : AAC
Формат/Информация : Advanced Audio Codec
Профиль формата : LC
Идентификатор кодека : 40
Продолжительность : 7 м. 21 с.
Вид битрейта : Переменный
Битрейт : 128 Кбит/сек
Максимальный битрейт : 136 Кбит/сек
Каналы : 2 канала
Расположение каналов : Front: L R
Частота : 44,1 КГц
Метод сжатия : С потерями
Размер потока : 6,73 Мбайт (27%)
Дата кодирования : UTC 2013-09-20 06:38:16
Дата пометки : UTC 2013-09-20 06:38:16


Трекер:  [ 02-Дек-2014 21:00 ]

  

Скачать .torrent

Размер .torrent файла 16 KB


Размер: 25 MB
Хэш (hash) релиза: 365a170635dbe22de73374bf6ed6969c0a0070ac

Еще никто не оставлял запись к записи скачать торрент [MULT] Ишь ты, Масленица! . Будь первым!

!Обратная связь