Maxwell Jenkins | Watch movie | Eps48 Teen Titans Go! - Season 4

Скачать через торрент [VIDEO] Побочный эффект Side Effects бесплатно русская версия torrent активатор

Статистика раздачи
Размер:  366 MB   |    Зарегистрирован:  3 года 7 месяцев   |    .torrent скачан:  28 раз   |   
Раздают:  1  
   
загрузка...
 
Автор Сообщение

Galfimbul

avatar Galfimbul


Побочный эффект / Side Effects

Год выпуска: 2013

Страна: США
Жанр: триллер, драма
Продолжительность: 1:46:00
Перевод: Профессиональный (полное дублирование)
Русские субтитры: нет
Режиссер: Стивен Содерберг / Steven Soderbergh

В ролях: Джуд Лоу, Ченнинг Татум, Руни Мара, Винесса Шоу, Кэтрин Зета-Джонс, Майкл Натансон, Питер Фридман, Андреа Богарт, Лайла Робинс, Дэвид Костабайл, Мэми Гаммер, Митчелл Мичалишин, Кармен Пелаес, Марин Айрлэнд, Полли Дрэйпер, Аральдо Альварес, Джеймс Мартинез, Владимир Версейл, Жаклин Антарамиан, Мишель Вергара Мур, Кэти Лоус, Виктор Круз, Элизабет Родригез, Элизабет Рич, Родерик Родригес, Скотт Шеперд

Описание: Жизнь главной героини Эмили Хоукинс пошла под откос, когда её мужа посадили в тюрьму. Вначале она пыталась спастись от депрессии своими силами, горстями глотая успокоительное. После того, как стало понятно, что это не поможет, Эмили не оставалось другого выхода кроме отправления в психиатрическую лечебницу к добрым и заботливым людям в белых халатах. Теперь главная героиня борется со своими внутренними демонами уже не одна — справиться с угнетённым состоянием ей помогают два лучших доктора клиники, а также экспериментальные препараты, обладающие довольно странными побочными эффектами. Не получится ли так, что все внутренние страхи Эмили вместо того, чтобы исчезнуть, вырвутся наружу?

Качество: HDRip [url=...4438566](исходник)[/url]
Формат: 3GP
Видео кодек: XviD
Аудио кодек: AAC
Видео: Xvid, 320x176, (16:9), 350 kbps, 23,976 fps
Аудио: AAC, 128 kbps, 48,0 kHz, 2 ch
Общее
Полное имя : E:\Мои видеозаписи\Побочный эффект.3gp
Формат : MPEG-4
Профиль формата : 3GPP Media Release 5
Идентификатор кодека : 3gp5
Размер файла : 366 Мбайт
Продолжительность : 1 ч. 46 м.
Режим общего битрейта : Переменный
Общий поток : 481 Кбит/сек
Дата кодирования : UTC 2013-09-20 13:20:53
Дата пометки : UTC 2013-09-20 13:20:53

Видео
Идентификатор : 1
Формат : MPEG-4 Visual
Профиль формата : S[email protected]
Параметр BVOP формата : Нет
Параметр QPel формата : Нет
Параметр GMC формата : Без точки перехода
Параметр матрицы формата : Default (H.263)
Идентификатор кодека : 20
Продолжительность : 1 ч. 46 м.
Вид битрейта : Переменный
Битрейт : 350 Кбит/сек
Максимальный битрейт : 1183 Кбит/сек
Ширина : 320 пикселей
Высота : 176 пикселей
Соотношение сторон : 16:9
Режим частоты кадров : Постоянный
Частота кадров : 23,976 кадра/сек
Цветовое пространство : YUV
Субдискретизация насыщенности : 4:2:0
Битовая глубина : 8 бит
Тип развёртки : Прогрессивная
Метод сжатия : С потерями
Бит/(Пиксели*Кадры) : 0.259
Размер потока : 266 Мбайт (73%)
Библиотека кодирования : Lavc53.33.0
Дата кодирования : UTC 2013-09-20 13:20:53
Дата пометки : UTC 2013-09-20 13:20:59

Аудио
Идентификатор : 2
Формат : AAC
Формат/Информация : Advanced Audio Codec
Профиль формата : LC
Идентификатор кодека : 40
Продолжительность : 1 ч. 46 м.
Вид битрейта : Переменный
Битрейт : 128 Кбит/сек
Максимальный битрейт : 180 Кбит/сек
Каналы : 2 канала
Расположение каналов : Front: L R
Частота : 48,0 КГц
Метод сжатия : С потерями
Размер потока : 97,2 Мбайт (27%)
Дата кодирования : UTC 2013-09-20 13:20:57
Дата пометки : UTC 2013-09-20 13:20:59


Трекер:  [ 02-Дек-2014 21:00 ]

  

Скачать .torrent

Размер .torrent файла 15 KB


Размер: 366 MB
Хэш (hash) релиза: 5a6409e120a2367dbd55f85480bdfb0035f681e0

Торренты, похожие на [VIDEO] Побочный эффект Side Effects скачать торрент

Форум Название Автор Размер S L Добавлен
Видео (Фильмы/Клипы) ·· [VIDEO] Побочный эффект / Side Effects (Стивен Содерберг / Steven Soderbergh) [2013, США, триллер, драма, криминал, HDRip][MP4, 640x] Galfimbul 965477703921 MB 0 0 1368282870

17:34

11-Май-13

Видео (Фильмы/Клипы) ·· [VIDEO] Побочный эффект / Side Effects (Стивен Содерберг / Steven Soderbergh) [2013, США, триллер, драма, криминал, HDRip][MP4, 480x] Galfimbul 512376270489 MB 0 0 1368282858

17:34

11-Май-13

Еще никто не оставлял запись к записи скачать торрент [VIDEO] Побочный эффект Side Effects . Будь первым!

!Обратная связь