4x06 Jane the Virgin | U Prince Series: ... | Peppa Pig

Скачать через торрент [MULT] Ух ты, говорящая рыба! бесплатно русская версия torrent активатор

Статистика раздачи
Размер:  26 MB   |    Зарегистрирован:  3 года 7 месяцев   |    .torrent скачан:  35 раз   |   
Раздают:  1  
   
загрузка...
 
Автор Сообщение

Galfimbul

avatar Galfimbul


Ух ты, говорящая рыба!

Год выпуска: 1983

Страна: СССР
Жанр: мультфильм, семейный
Продолжительность: 00:7:31
Перевод: Не требуется
Русские субтитры: нет
Режиссер: Роберт Саакянц

Описание: По мотивам сказки Ованеса Туманяна «Говорящая рыбка» — вариации сюжета о Золотой рыбке. Старик отпускает обратно в море пойманную говорящую рыбу, которая затем является им со старухой в облике юноши, спасающего их от козней коварного волшебника Ээха.

Качество: DVDRip [url=...2720759](Исходник)[/url]
Формат: 3GP
Видео кодек: XviD
Аудио кодек: AAC
Видео: XviD, 320:240, 4:3, 344 kbps, 25 fps
Аудио: AAC, 128 kbps, 48 kHz, 2 ch
Общее
Полное имя : D:\Раздачи\Ух ты, говорящая рыба!.3gp
Формат : MPEG-4
Профиль формата : 3GPP Media Release 5
Идентификатор кодека : 3gp5
Размер файла : 25,5 Мбайт
Продолжительность : 7 м. 31 с.
Режим общего битрейта : Переменный
Общий поток : 475 Кбит/сек
Дата кодирования : UTC 2013-09-25 09:41:10
Дата пометки : UTC 2013-09-25 09:41:10
Xtra : WM/MediaClassPrimaryID

Видео
Идентификатор : 1
Формат : MPEG-4 Visual
Профиль формата : Advanced [email protected]
Параметр BVOP формата : Нет
Параметр QPel формата : Нет
Параметр GMC формата : Без точки перехода
Параметр матрицы формата : Default (H.263)
Идентификатор кодека : 20
Продолжительность : 7 м. 31 с.
Duration_FirstFrame : 40 мс.
Вид битрейта : Переменный
Битрейт : 344 Кбит/сек
Максимальный битрейт : 938 Кбит/сек
Ширина : 320 пикселей
Высота : 240 пикселей
Соотношение сторон : 4:3
Режим частоты кадров : Постоянный
Частота кадров : 25,000 кадров/сек
Цветовое пространство : YUV
Субдискретизация насыщенности : 4:2:0
Битовая глубина : 8 бит
Тип развёртки : Прогрессивная
Метод сжатия : С потерями
Бит/(Пиксели*Кадры) : 0.179
Размер потока : 18,5 Мбайт (73%)
Библиотека кодирования : XviD 1.2.1 (UTC 2008-12-04)
Дата кодирования : UTC 2013-09-25 09:41:10
Дата пометки : UTC 2013-09-25 09:41:11

Аудио
Идентификатор : 2
Формат : AAC
Формат/Информация : Advanced Audio Codec
Профиль формата : LC
Идентификатор кодека : 40
Продолжительность : 7 м. 31 с.
Вид битрейта : Переменный
Битрейт : 128 Кбит/сек
Максимальный битрейт : 142 Кбит/сек
Каналы : 2 канала
Расположение каналов : Front: L R
Частота : 48,0 КГц
Метод сжатия : С потерями
Размер потока : 6,88 Мбайт (27%)
Дата кодирования : UTC 2013-09-25 09:41:11
Дата пометки : UTC 2013-09-25 09:41:11


Трекер:  [ 02-Дек-2014 21:00 ]

  

Скачать .torrent

Размер .torrent файла 16 KB


Размер: 26 MB
Хэш (hash) релиза: c0cbfc090e74b8ff95037667309b76b4ce672c63

Еще никто не оставлял запись к записи скачать торрент [MULT] Ух ты, говорящая рыба! . Будь первым!

!Обратная связь