Submerged (2015) Full Movie Watch Online Submerged Full Movie Online Movie: Submerged 2015 Directed by: Steven C. Miller Written by: Scott Milam Starring by: Rosa Salazar, Tim Daly, Talulah Riley Genres: Drama, Thriller Country: USA Language: English Release Date:  27 November 2015 Submerged Watch Online (Single Links – DVDRip) Watch Online - Openload Submerged (2015) Watch Online - Full Movie Watch Online - Nowvideo Submerged (2015) Watch Online - Full Movie Watch Online - Vodlocker Submerged (2015) Watch Online - Full Movie Watch ... | Watch movie | Papajones233

Скачать через торрент [MULT] В синем море, в белой пене… бесплатно русская версия torrent активатор

Статистика раздачи
Размер:  26 MB   |    Зарегистрирован:  3 года 7 месяцев   |    .torrent скачан:  50 раз   |   
Раздают:  1  
   
загрузка...
 
Автор Сообщение

Galfimbul

avatar Galfimbul


В синем море, в белой пене…

Год выпуска: 1984

Страна: СССР
Жанр: мультфильм, семейный
Продолжительность: 0:7:47
Перевод: Не требуется
Русские субтитры: нет
Режиссер: Роберт Саакянц

Описание: Мальчик со своим дедом ловят рыбу в море и вдруг достают из своих сетей запечатанный кувшин. Мальчик вскрывает кувшин, и оттуда появляется морской царь. Он насильно забирает юношу в подводное царство, чтобы сделать его своим учеником и наследником, женив на единственной дочери.

Доп. информация: Несмотря на древний сюжет, мультфильм изобилует намеками на современные реалии, фантасмагорично вплетенными в видеоряд: например, морской царь ныряет в море, превращаясь в ракету с надписью «No smoking!», дочь морского царя раскрывает зонт, рыбы крутят мясорубку (превращающую затонувшие корабли в сундуки с драгоценностями), одна из рыб (похожая на крокодила) плывет с синим проблесковым маячком на голове, сундук с пароходной трубой и спасательным кругом, на затонувших кораблях бортовые номера 007 и 747 (намек на инцидент с южнокорейским Боингом), вместе с золотыми сундуками в море тонет синий чемодан с надписью «Спорт», рыба плывёт с плавниками, в виде фортепианных клавиш.
В мультфильме звучат два «заклинания»: «айб бен гим» и «эрек ую чорс». Первое — названия первых трех букв армянского алфавита, а второе — неформальная команда старта (дословно «три и четыре», подобное русскому: «внимание! марш!»).

Качество: DVDRip [url=...2720759](Исходник)[/url]
Формат: 3GP
Видео кодек: XviD
Аудио кодек: AAC
Видео: XviD, 320x240, 4:3, 344 kbps, 25 fps
Аудио: AAC, 128 kbps, 48 kHz, 2 ch
Общее
Полное имя : D:\Раздачи\В синем море, в белой пене.3gp
Формат : MPEG-4
Профиль формата : 3GPP Media Release 5
Идентификатор кодека : 3gp5
Размер файла : 26,4 Мбайт
Продолжительность : 7 м. 47 с.
Режим общего битрейта : Переменный
Общий поток : 474 Кбит/сек
Дата кодирования : UTC 2013-09-25 09:51:52
Дата пометки : UTC 2013-09-25 09:51:52

Видео
Идентификатор : 1
Формат : MPEG-4 Visual
Профиль формата : Advanced [email protected]
Параметр BVOP формата : Нет
Параметр QPel формата : Нет
Параметр GMC формата : Без точки перехода
Параметр матрицы формата : Default (H.263)
Идентификатор кодека : 20
Продолжительность : 7 м. 47 с.
Duration_FirstFrame : 280 мс.
Вид битрейта : Переменный
Битрейт : 344 Кбит/сек
Максимальный битрейт : 869 Кбит/сек
Ширина : 320 пикселей
Высота : 240 пикселей
Соотношение сторон : 4:3
Режим частоты кадров : Постоянный
Частота кадров : 25,000 кадров/сек
Цветовое пространство : YUV
Субдискретизация насыщенности : 4:2:0
Битовая глубина : 8 бит
Тип развёртки : Прогрессивная
Метод сжатия : С потерями
Бит/(Пиксели*Кадры) : 0.179
Размер потока : 19,2 Мбайт (73%)
Библиотека кодирования : XviD 1.2.1 (UTC 2008-12-04)
Дата кодирования : UTC 2013-09-25 09:51:52
Дата пометки : UTC 2013-09-25 09:51:52

Аудио
Идентификатор : 2
Формат : AAC
Формат/Информация : Advanced Audio Codec
Профиль формата : LC
Идентификатор кодека : 40
Продолжительность : 7 м. 47 с.
Вид битрейта : Переменный
Битрейт : 128 Кбит/сек
Максимальный битрейт : 145 Кбит/сек
Каналы : 2 канала
Расположение каналов : Front: L R
Частота : 48,0 КГц
Метод сжатия : С потерями
Размер потока : 7,11 Мбайт (27%)
Дата кодирования : UTC 2013-09-25 09:51:52
Дата пометки : UTC 2013-09-25 09:51:52


Трекер:  [ 02-Дек-2014 21:00 ]

  

Скачать .torrent

Размер .torrent файла 17 KB


Размер: 26 MB
Хэш (hash) релиза: f942093b5244378b86d500ba6f7196203346bf06

Еще никто не оставлял запись к записи скачать торрент [MULT] В синем море, в белой пене… . Будь первым!

!Обратная связь