Télécharger Part 18 | Impulse S01E01 XviD-AFG 1 hour | Double Dare: Season ...

Скачать через торрент [MULT] Волк и телёнок бесплатно русская версия torrent активатор

Статистика раздачи
Размер:  33 MB   |    Зарегистрирован:  3 года 7 месяцев   |    .torrent скачан:  34 раза   |   
Раздают:  1  
   
загрузка...
 
Автор Сообщение

Galfimbul

avatar Galfimbul


Волк и телёнок

Год выпуска: 1984

Страна: СССР
Жанр: юмор, сказка
Продолжительность: 0:9:41
Перевод: Не требуется
Русские субтитры: нет
Режиссер: Михаил Каменецкий

Описание: Однажды Волк украл маленького Телёночка и принёс его домой, чтобы съесть. Но он пожалел несмышлёного Телёнка и решил его пока не кушать, а подождать, пока тот вырастет. Постепенно они настолько привыкли друг к другу, что стали жить, как папа и сынок.

Качество: DVDRip [url=...2814890](Исходник)[/url]
Формат: 3GP
Видео кодек: XviD
Аудио кодек: AAC
Видео: Xvid, 320x240, 4:3, 350 kbps, 25 fps
Аудио: AAC, 128 kbps, 48 kHz, 2 ch
Общее
Полное имя : D:\Раздачи\Волк и теленок.3gp
Формат : MPEG-4
Профиль формата : 3GPP Media Release 5
Идентификатор кодека : 3gp5
Размер файла : 33,3 Мбайт
Продолжительность : 9 м. 41 с.
Режим общего битрейта : Переменный
Общий поток : 481 Кбит/сек
Дата кодирования : UTC 2013-10-10 14:47:31
Дата пометки : UTC 2013-10-10 14:47:31
Xtra : WM/MediaClassPrimaryID

Видео
Идентификатор : 1
Формат : MPEG-4 Visual
Профиль формата : Advanced [email protected]
Параметр BVOP формата : Нет
Параметр QPel формата : Нет
Параметр GMC формата : Без точки перехода
Параметр матрицы формата : Default (H.263)
Идентификатор кодека : 20
Продолжительность : 9 м. 41 с.
Вид битрейта : Переменный
Битрейт : 350 Кбит/сек
Максимальный битрейт : 1121 Кбит/сек
Ширина : 320 пикселей
Высота : 240 пикселей
Соотношение сторон : 4:3
Режим частоты кадров : Переменный
Частота кадров : 25,000 кадров/сек
Минимальная частота кадров : 3,571 кадра/сек
Максимальная частота кадров : 25,000 кадров/сек
Цветовое пространство : YUV
Субдискретизация насыщенности : 4:2:0
Битовая глубина : 8 бит
Тип развёртки : Прогрессивная
Метод сжатия : С потерями
Бит/(Пиксели*Кадры) : 0.182
Размер потока : 24,3 Мбайт (73%)
Библиотека кодирования : XviD 1.2.1 (UTC 2008-12-04)
Дата кодирования : UTC 2013-10-10 14:47:31
Дата пометки : UTC 2013-10-10 14:47:32

Аудио
Идентификатор : 2
Формат : AAC
Формат/Информация : Advanced Audio Codec
Профиль формата : LC
Идентификатор кодека : 40
Продолжительность : 9 м. 40 с.
Вид битрейта : Переменный
Битрейт : 128 Кбит/сек
Максимальный битрейт : 148 Кбит/сек
Каналы : 2 канала
Расположение каналов : Front: L R
Частота : 48,0 КГц
Метод сжатия : С потерями
Размер потока : 8,86 Мбайт (27%)
Дата кодирования : UTC 2013-10-10 14:47:32
Дата пометки : UTC 2013-10-10 14:47:32


Трекер:  [ 02-Дек-2014 21:00 ]

  

Скачать .torrent

Размер .torrent файла 11 KB


Размер: 33 MB
Хэш (hash) релиза: b61fb38a36390b1bc634e47ae1ac7d7815a779fe

Еще никто не оставлял запись к записи скачать торрент [MULT] Волк и телёнок . Будь первым!

!Обратная связь