Juliet, Naked (2018) RATING 6.0 / 10 QUALITY | Verrückte Maschinen mit Adam und Jamie | Just for You

Скачать через торрент [SERIAL] Как я встретил вашу маму How I Met Your Mother бесплатно русская версия torrent активатор

Статистика раздачи
Размер:  690 MB   |    Зарегистрирован:  3 года 7 месяцев   |    .torrent скачан:  29 раз   |   
Раздают:  1  
   
загрузка...
 
Автор Сообщение

Galfimbul

avatar Galfimbul


Как я встретил вашу маму / How I Met Your Mother

Год выпуска: 2013

Страна: США
Жанр: мелодрама, комедия
Продолжительность: 00:25:00
Перевод: Профессиональный (одноголосый закадровый) |Кураж-Бамбей|
Cубтитры: нет

Режиссер: Картер Бэйс / Carter Bays, Памела Фрайман / Pamela Fryman, Крейг Томас / Craig Thomas

В ролях: Джош Рэднор, Джейсон Сигел, Коби Смолдерс, Нил Патрик Харрис, Элисон Хэннигэн

Описание: How I met your mother - комедия про Теда (Джош Рэднор) и про то, как он влюбился. Все неприятности начинаются с того, что лучший друг Теда, Маршалл (Джейсон Сегел) вдруг неожиданно сообщил, что он хочет сделать предложение своей давней подруге, Лили (Эллисон Хэнниган), воспитательнице детского сада. К тому времени Тед понимает, что ему нужно прилагать больше усилий, если он действительно надеется найти свою настоящую любовь. Помогает ему в этих поисках его друг Барни (Нил Патрик Хэррис), убежденный холостяк, вечно со своим, иногда чересчур, мнением на все происходящее, со склонностью к костюмам и верным способом познакомиться с девушками. Когда Тед встречает Робин (Коби Смалдерс), он решает, что это любовь с первого взгляда, но у судьбы в запасе есть кое-что еще. Сериал представлен в форме повествования в будущем.

Качество: WEB-DLRip
Формат: 3GP
Видео кодек: XviD
Аудио кодек: AAC
Видео: MPEG4 Video, 320x176, 23.976fps, 350 kbps
Аудио: Русский, AAC, 48000Hz stereo, 96 kbps
9x01 The Locket - 23 сентября 2013
9x02 Coming Back - 23 сентября 2013
9x03 Last Time in New York - 30 сентября 2013
9x04 The Broken Code - 7 октября 2013
9x05 The Poker Game - 14 октября 2013
9x06 Knight Vision - 21 октября 2013
9x07 No Questions Asked - 28 октября 2013
9x08 The Lighthouse - 4 ноября 2013
9x09 Platonish - 11 ноября 2013
9x10 Mom and Dad - 18 ноября 2013
9x11 Bedtime Stories - 25 ноября 2013
9x12 Bass Player Wanted - 2 декабря 2013
9x13 Rehearsal Dinner - 16 декабря 2013
9x14 Slapsgiving 3: Slappointment in Slapmarra - 13 января 2014
9x16 How Your Mother Met Me - ???
9x18 Sunrise - ???
9x20 Daisy - ???
9x21 The Lighthouse - ???
GeneralComplete name : F:\Phone\Video\320p\HIMYM_S09\himym_s09e01_kuraj_320.3gpFormat : MPEG-4Format profile : 3GPP Media Release 5Codec ID : 3gp5File size : 69.4 MiBDuration : 21mn 36sOverall bit rate mode : VariableOverall bit rate : 449 KbpsEncoded date : UTC 2013-09-28 18:36:39Tagged date : UTC 2013-09-28 18:36:39

VideoID : 1Format : MPEG-4 VisualFormat profile : Advanced [email protected] settings, BVOP : YesFormat settings, QPel : NoFormat settings, GMC : No warppointsFormat settings, Matrix : Default (MPEG)Codec ID : 20Duration : 21mn 36sBit rate mode : VariableBit rate : 349 KbpsMaximum bit rate : 991 KbpsWidth : 320 pixelsHeight : 176 pixelsDisplay aspect ratio : 16:9Frame rate mode : ConstantFrame rate : 23.976 fpsColor space : YUVChroma subsampling : 4:2:0Bit depth : 8 bitsScan type : ProgressiveCompression mode : LossyBits/(Pixel*Frame) : 0.259Stream size : 54.0 MiB (78%)Writing library : XviD 73Encoded date : UTC 2013-09-28 18:36:39Tagged date : UTC 2013-09-28 18:36:43

AudioID : 2Format : AACFormat/Info : Advanced Audio CodecFormat profile : LCCodec ID : 40Duration : 21mn 36sBit rate mode : VariableBit rate : 96.0 KbpsMaximum bit rate : 114 KbpsChannel count : 2 channelsChannel positions : Front: L RSampling rate : 48.0 KHzCompression mode : LossyDelay relative to video : 42msStream size : 14.8 MiB (21%)Encoded date : UTC 2013-09-28 18:36:43Tagged date : UTC 2013-09-28 18:36:43


Трекер:  [ 02-Дек-2014 21:00 ]

  

Скачать .torrent

Размер .torrent файла 14 KB


Размер: 690 MB
Хэш (hash) релиза: 0bc04b18f87bb95736e0cda8eeb3040c6c14bf31

Еще никто не оставлял запись к записи скачать торрент [SERIAL] Как я встретил вашу маму How I Met Your Mother . Будь первым!

!Обратная связь