Download | animal.kingdom.us.106.hdtv-lol[ettv].srt | Chapter 158.5

Скачать через торрент [MULT] Возвращение блудного попугая бесплатно русская версия torrent активатор

Статистика раздачи
Размер:  100 MB   |    Зарегистрирован:  3 года 7 месяцев   |    .torrent скачан:  27 раз   |   
Раздают:  1  
   
загрузка...
 
Автор Сообщение

Galfimbul

avatar Galfimbul


Возвращение блудного попугая

Год выпуска: 1984-1988
Страна: СССР
Жанр: мультфильм, семейный
Перевод: Не требуется
Русские субтитры: нет

Описание: Выпуск 1, режиссер - Валентин Караваев, 1984 г., 00:09:43
Первый фильм цикла о сварливом и капризном домашнем попугае, который все время попадал в переделки из-за своего характера

Выпуск 2, режиссер - Александр Давыдов, 1987 г., 00:09:46
Второй фильм мультипликационного сериала «Возвращение блудного попугая». Александр Курляндский пытается работать с новым режиссёром, признаваясь в одном из интервью, что Валентин Караваев, по его мнению, «охладел к Кеше». Данная серия получилась лучшей из трёх, о чём свидетельствует премия «Ника» и отзывы критиков.

Выпуск 3, режиссер - Валентин Караваев, 1988 г., 00:09:33
Третий фильм мультипликационного сериала «Возвращение блудного попугая». К работе вновь, после отсутствия в съёмках второго выпуска, подключается Валентин Караваев.

Качество: DVDRip [url=...181828](Исходник)[/url]
Формат: 3GP
Видео кодек: XviD
Аудио кодек: AAC
Видео: XviD, 320x240, 4:3, 350 kbps, 25 fps
Аудио: AAC, 128 kbps, 48 kHz, 2 ch
Общее
Полное имя : D:\Раздачи\Возвращение блудного попугая\01 Выпуск первый.3gp
Формат : MPEG-4
Профиль формата : 3GPP Media Release 5
Идентификатор кодека : 3gp5
Размер файла : 33,4 Мбайт
Продолжительность : 9 м. 43 с.
Режим общего битрейта : Переменный
Общий поток : 480 Кбит/сек
Дата кодирования : UTC 2013-10-11 09:53:44
Дата пометки : UTC 2013-10-11 09:53:44

Видео
Идентификатор : 1
Формат : MPEG-4 Visual
Профиль формата : Advanced [email protected]
Параметр BVOP формата : Нет
Параметр QPel формата : Нет
Параметр GMC формата : Без точки перехода
Параметр матрицы формата : Default (H.263)
Идентификатор кодека : 20
Продолжительность : 9 м. 42 с.
Вид битрейта : Переменный
Битрейт : 350 Кбит/сек
Максимальный битрейт : 971 Кбит/сек
Ширина : 320 пикселей
Высота : 240 пикселей
Соотношение сторон : 4:3
Режим частоты кадров : Переменный
Частота кадров : 24,739 кадров/сек
Частота кадров в оригинале : 25,000 кадров/сек
Минимальная частота кадров : 0,397 кадр/сек
Максимальная частота кадров : 25,000 кадров/сек
Цветовое пространство : YUV
Субдискретизация насыщенности : 4:2:0
Битовая глубина : 8 бит
Тип развёртки : Прогрессивная
Метод сжатия : С потерями
Бит/(Пиксели*Кадры) : 0.184
Размер потока : 24,3 Мбайт (73%)
Библиотека кодирования : XviD 1.2.1 (UTC 2008-12-04)
Дата кодирования : UTC 2013-10-11 09:53:44
Дата пометки : UTC 2013-10-11 09:53:45

Аудио
Идентификатор : 2
Формат : AAC
Формат/Информация : Advanced Audio Codec
Профиль формата : LC
Идентификатор кодека : 40
Продолжительность : 9 м. 43 с.
Вид битрейта : Переменный
Битрейт : 128 Кбит/сек
Максимальный битрейт : 252 Кбит/сек
Каналы : 2 канала
Расположение каналов : Front: L R
Частота : 48,0 КГц
Метод сжатия : С потерями
Размер потока : 8,90 Мбайт (27%)
Дата кодирования : UTC 2013-10-11 09:53:45
Дата пометки : UTC 2013-10-11 09:53:45


Трекер:  [ 02-Дек-2014 21:00 ]

  

Скачать .torrent

Размер .torrent файла 16 KB


Размер: 100 MB
Хэш (hash) релиза: d6dd1d7c9c4a01ff49d099885ed8ec8f90b4cc4e

Еще никто не оставлял запись к записи скачать торрент [MULT] Возвращение блудного попугая . Будь первым!

!Обратная связь