Super Star Academy | Regarder un film | Education Teaching

Скачать через торрент музыку Драконий Жемчуг Dragon Ball - 1994-2014 гг., FLAC бесплатно без регистрации torrent

Статистика раздачи
Размер:  16.21 GB   |    Зарегистрирован:  3 года 7 месяцев   |    .torrent скачан:  65 раз   |   
Раздают:  1  
   
загрузка...
 
Автор Сообщение

Galfimbul

avatar Galfimbul


Драконий Жемчуг / Dragon Ball



Год выпуска: 1994-2014 гг.
Страна: Япония, США
Аудио кодек: FLAC (*.flac)
Тип рипа: tracks+.cue
Битрейт аудио: lossless
Продолжительность: более 35 часов
Наличие сканов в содержимом раздачи: да
Страна: США
Год выпуска: 1995 г.
Лейбл: FUNimation Productions Inc., Super Tracks Music Group International
Продолжительность: 50:24
Треклист:
01. Main Title.flac (01:04)
02. The Game Begins.flac (01:32)
03. Bulma and Goku.flac (04:30)
04. Oolong The Terrible.flac (01:48)
05. Yamcha The Warrior.flac (05:41)
06. Disappearing Dragon Balls.flac (04:18)
07. Power of the Master.flac (04:09)
08. The Emperor's Prize.flac (08:30)
09. Awaken The Dragon.flac (04:32)
10. The Awakening Dragon.flac (07:36)
11. Goku's Curse.flac (04:58)
12. Victory.flac (01:14)
13. End Title.flac (00:32)
Exact Audio Copy V1.0 beta 1 from 15. November 2010

EAC extraction logfile from 16. May 2011, 17:21

Peter Berring and Brian Griffith / Dragon Ball

Used drive : TSSTcorpCDDVDW TS-L633P Adapter: 0 ID: 1

Read mode : SecureUtilize accurate stream : YesDefeat audio cache : YesMake use of C2 pointers : No

Read offset correction : 6Overread into Lead-In and Lead-Out : NoFill up missing offset samples with silence : YesDelete leading and trailing silent blocks : NoNull samples used in CRC calculations : YesUsed interface : Native Win32 interface for Win NT & 2000Gap handling : Appended to previous track

Used output format : User Defined EncoderSelected bitrate : 1024 kBit/sQuality : HighAdd ID3 tag : NoCommand line compressor : C:\Program Files\Exact Audio Copy\Flac\flac.exeAdditional command line options : -V -8 -T "artist=%a" -T "title=%t" -T "album=%g" -T "date=%y" -T "tracknumber=%n" -T "genre=%m" %s

TOC of the extracted CD

Track | Start | Length | Start sector | End sector --------------------------------------------------------- 1 | 0:00.00 | 1:04.06 | 0 | 4805 2 | 1:04.06 | 1:31.74 | 4806 | 11704 3 | 2:36.05 | 4:30.07 | 11705 | 31961 4 | 7:06.12 | 1:48.36 | 31962 | 40097 5 | 8:54.48 | 5:40.72 | 40098 | 65669 6 | 14:35.45 | 4:17.38 | 65670 | 84982 7 | 18:53.08 | 4:09.16 | 84983 | 103673 8 | 23:02.24 | 8:30.30 | 103674 | 141953 9 | 31:32.54 | 4:31.54 | 141954 | 162332 10 | 36:04.33 | 7:35.58 | 162333 | 196515 11 | 43:40.16 | 4:58.21 | 196516 | 218886 12 | 48:38.37 | 1:13.56 | 218887 | 224417 13 | 49:52.18 | 0:31.73 | 224418 | 226815 14 | 52:56.16 | 4:46.36 | 238216 | 259701

Track 1

Filename C:\EAC Rips\Peter Berring and Brian Griffith - Dragon Ball\01 - Main Title.wav

Pre-gap length 0:00:02.00

Peak level 83.2 % Extraction speed 0.5 X Track quality 99.8 % Test CRC 01A580C9 Copy CRC 01A580C9 Accurately ripped (confidence 1) [E20235F0] Copy OK

Track 2

Filename C:\EAC Rips\Peter Berring and Brian Griffith - Dragon Ball\02 - The Game Begins.wav

Pre-gap length 0:00:02.00

Peak level 37.4 % Extraction speed 0.6 X Track quality 99.8 % Test CRC E9D4D916 Copy CRC E9D4D916 Accurately ripped (confidence 1) [048A9E7B] Copy OK

Track 3

Filename C:\EAC Rips\Peter Berring and Brian Griffith - Dragon Ball\03 - Bulma and Goku.wav

Pre-gap length 0:00:02.00

Peak level 68.0 % Extraction speed 1.2 X Track quality 100.0 % Test CRC 8E3787CB Copy CRC 8E3787CB Accurately ripped (confidence 1) [FA920B2C] Copy OK

Track 4

Filename C:\EAC Rips\Peter Berring and Brian Griffith - Dragon Ball\04 - Oolong The Terrible.wav

Pre-gap length 0:00:02.00

Peak level 60.6 % Extraction speed 1.0 X Track quality 100.0 % Test CRC DF1DB897 Copy CRC DF1DB897 Accurately ripped (confidence 1) [B5F22231] Copy OK

Track 5

Filename C:\EAC Rips\Peter Berring and Brian Griffith - Dragon Ball\05 - Yamcha The Warrior.wav

Pre-gap length 0:00:02.00

Peak level 100.0 % Extraction speed 1.4 X Track quality 100.0 % Test CRC 78A12D15 Copy CRC 78A12D15 Accurately ripped (confidence 1) [1D658B57] Copy OK

Track 6

Filename C:\EAC Rips\Peter Berring and Brian Griffith - Dragon Ball\06 - Disappearing Dragon Balls.wav

Pre-gap length 0:00:02.00

Peak level 73.7 % Extraction speed 1.4 X Track quality 100.0 % Test CRC 054F22C5 Copy CRC 054F22C5 Accurately ripped (confidence 1) [9E920018] Copy OK

Track 7

Filename C:\EAC Rips\Peter Berring and Brian Griffith - Dragon Ball\07 - Power of the Master.wav

Pre-gap length 0:00:02.00

Peak level 67.5 % Extraction speed 1.5 X Track quality 100.0 % Test CRC 72040F9A Copy CRC 72040F9A Accurately ripped (confidence 1) [A7412DF2] Copy OK

Track 8

Filename C:\EAC Rips\Peter Berring and Brian Griffith - Dragon Ball\08 - The Emperor's Prize.wav

Pre-gap length 0:00:02.00

Peak level 65.5 % Extraction speed 1.8 X Track quality 100.0 % Test CRC 10775CA9 Copy CRC 10775CA9 Accurately ripped (confidence 1) [F0EC0F4B] Copy OK

Track 9

Filename C:\EAC Rips\Peter Berring and Brian Griffith - Dragon Ball\09 - Awaken The Dragon.wav

Pre-gap length 0:00:02.00

Peak level 63.3 % Extraction speed 1.8 X Track quality 100.0 % Test CRC 33AC366F Copy CRC 33AC366F Accurately ripped (confidence 1) [1E3960CA] Copy OK

Track 10

Filename C:\EAC Rips\Peter Berring and Brian Griffith - Dragon Ball\10 - The Awakening Dragon.wav

Pre-gap length 0:00:02.00

Peak level 62.3 % Extraction speed 2.0 X Track quality 100.0 % Test CRC FCA7A213 Copy CRC FCA7A213 Accurately ripped (confidence 1) [673913F6] Copy OK

Track 11

Filename C:\EAC Rips\Peter Berring and Brian Griffith - Dragon Ball\11 - Goku's Curse.wav

Pre-gap length 0:00:02.00

Peak level 70.8 % Extraction speed 2.0 X Track quality 100.0 % Test CRC 6A405C22 Copy CRC 6A405C22 Accurately ripped (confidence 1) [1F1B14FD] Copy OK

Track 12

Filename C:\EAC Rips\Peter Berring and Brian Griffith - Dragon Ball\12 - Victory.wav

Pre-gap length 0:00:02.00

Peak level 91.3 % Extraction speed 1.5 X Track quality 100.0 % Test CRC 6685FD55 Copy CRC 6685FD55 Accurately ripped (confidence 1) [79BA1422] Copy OK

Track 13

Filename C:\EAC Rips\Peter Berring and Brian Griffith - Dragon Ball\13 - End Title.wav

Pre-gap length 0:00:02.00

Peak level 69.8 % Extraction speed 1.0 X Track quality 100.0 % Test CRC 926FC46E Copy CRC 926FC46E Accurately ripped (confidence 1) [A7686CB3] Copy OK

All tracks accurately ripped

No errors occurred

End of status report

==== Log checksum 7F26C37434CF3885FF60A6DA8CEBC517F823E1926D0DD6214FE720947C9EA11D ====
REM GENRE SoundtrackREM DISCID D10D860EREM COMMENT "ExactAudioCopy v1.0b1"PERFORMER "Peter Berring and Brian Griffith"TITLE "Dragon Ball Original USA TV Soundtrack Recording"FILE "01. Main Title.wav" WAVE TRACK 01 AUDIO TITLE "Main Title" PERFORMER "Peter Berring and Brian Griffith" INDEX 01 00:00:00 TRACK 02 AUDIO TITLE "The Game Begins" PERFORMER "Peter Berring and Brian Griffith" INDEX 00 01:02:06FILE "02. The Game Begins.wav" WAVE INDEX 01 00:00:00 TRACK 03 AUDIO TITLE "Bulma and Goku" PERFORMER "Peter Berring and Brian Griffith" INDEX 00 01:29:74FILE "03. Bulma and Goku.wav" WAVE INDEX 01 00:00:00 TRACK 04 AUDIO TITLE "Oolong The Terrible" PERFORMER "Peter Berring and Brian Griffith" INDEX 00 04:28:07FILE "04. Oolong The Terrible.wav" WAVE INDEX 01 00:00:00 TRACK 05 AUDIO TITLE "Yamcha The Warrior" PERFORMER "Peter Berring and Brian Griffith" INDEX 00 01:46:36FILE "05. Yamcha The Warrior.wav" WAVE INDEX 01 00:00:00 TRACK 06 AUDIO TITLE "Disappearing Dragon Balls" PERFORMER "Peter Berring and Brian Griffith" INDEX 00 05:38:72FILE "06. Disappearing Dragon Balls.wav" WAVE INDEX 01 00:00:00 TRACK 07 AUDIO TITLE "Power of the Master" PERFORMER "Peter Berring and Brian Griffith" INDEX 00 04:15:38FILE "07. Power of the Master.wav" WAVE INDEX 01 00:00:00 TRACK 08 AUDIO TITLE "The Emperor's Prize" PERFORMER "Peter Berring and Brian Griffith" INDEX 00 04:07:16FILE "08. The Emperor's Prize.wav" WAVE INDEX 01 00:00:00 TRACK 09 AUDIO TITLE "Awaken The Dragon" PERFORMER "Peter Berring and Brian Griffith" INDEX 00 08:28:30FILE "09. Awaken The Dragon.wav" WAVE INDEX 01 00:00:00 TRACK 10 AUDIO TITLE "The Awakening Dragon" PERFORMER "Peter Berring and Brian Griffith" INDEX 00 04:29:54FILE "10. The Awakening Dragon.wav" WAVE INDEX 01 00:00:00 TRACK 11 AUDIO TITLE "Goku's Curse" PERFORMER "Peter Berring and Brian Griffith" INDEX 00 07:33:58FILE "11. Goku's Curse.wav" WAVE INDEX 01 00:00:00 TRACK 12 AUDIO TITLE "Victory" PERFORMER "Peter Berring and Brian Griffith" INDEX 00 04:56:21FILE "12. Victory.wav" WAVE INDEX 01 00:00:00 TRACK 13 AUDIO TITLE "End Title" PERFORMER "Peter Berring and Brian Griffith" INDEX 00 01:11:56FILE "13. End Title.wav" WAVE INDEX 01 00:00:00
Страна: США
Год выпуска: 1996
Лейбл: FUNimation Productions Inc., Super Tracks Music Group International
Продолжительность:01:00:53
Треклист:
01. Main Title.flac (01:04)
02. The Arrival Of Raditz.flac (09:57)
03. The World's Strongest Team.flac (04:19)
04. Gohan's Hidden Powers.flac (06:44)
05. Goku's Unusual Journey.flac (02:18)
06. Gohan's Metamorphosis.flac (03:30)
07. Gohan Makes A Friend.flac (07:43)
08. Trouble On Arlia.flac (02:55)
09. Home For Infinite Losers.flac (09:16)
10. Princess Snake's Hospitality.flac (02:44)
11. Escape From Piccolo.flac (09:57)
12. End Title.flac (00:26)
Exact Audio Copy V1.0 beta 3 from 29. August 2011

EAC extraction logfile from 3. September 2012, 21:33

Shuki Levy & Kussa Mahehi / Dragonball Z

Used drive : Optiarc DVD RW AD-7260S Adapter: 2 ID: 0

Read mode : SecureUtilize accurate stream : YesDefeat audio cache : YesMake use of C2 pointers : No

Read offset correction : 48Overread into Lead-In and Lead-Out : NoFill up missing offset samples with silence : YesDelete leading and trailing silent blocks : NoNull samples used in CRC calculations : YesUsed interface : Native Win32 interface for Win NT & 2000Gap handling : Not detected, thus appended to previous track

Used output format : User Defined EncoderSelected bitrate : 128 kBit/sQuality : HighAdd ID3 tag : NoCommand line compressor : C:\Program Files\Exact Audio Copy\Flac\flac.exeAdditional command line options : -V -8 -T "Date=%year%" -T "Genre=%genre%" %source%

TOC of the extracted CD

Track | Start | Length | Start sector | End sector --------------------------------------------------------- 1 | 0:00.30 | 1:03.70 | 30 | 4824 2 | 1:04.25 | 9:56.56 | 4825 | 49580 3 | 11:01.06 | 4:19.24 | 49581 | 69029 4 | 15:20.30 | 6:43.58 | 69030 | 99312 5 | 22:04.13 | 2:18.34 | 99313 | 109696 6 | 24:22.47 | 3:29.53 | 109697 | 125424 7 | 27:52.25 | 7:42.72 | 125425 | 160146 8 | 35:35.22 | 2:54.74 | 160147 | 173270 9 | 38:30.21 | 9:16.04 | 173271 | 214974 10 | 47:46.25 | 2:44.04 | 214975 | 227278 11 | 50:30.29 | 9:56.68 | 227279 | 272046 12 | 60:27.22 | 0:25.54 | 272047 | 273975

Track 1

Filename C:\Users\Пользователь\Desktop\Новая папка (3)\01. Main Title.wav

Peak level 86.2 % Extraction speed 1.6 X Track quality 100.0 % Test CRC 7EC5E3D0 Copy CRC 7EC5E3D0 Accurately ripped (confidence 4) [A5631730] (AR v1) Copy OK

Track 2

Filename C:\Users\Пользователь\Desktop\Новая папка (3)\02. The Arrival Of Raditz.wav

Peak level 82.1 % Extraction speed 2.8 X Track quality 100.0 % Test CRC E99F8089 Copy CRC E99F8089 Accurately ripped (confidence 4) [6D7B56EB] (AR v1) Copy OK

Track 3

Filename C:\Users\Пользователь\Desktop\Новая папка (3)\03. The World's Strongest Team.wav

Peak level 81.0 % Extraction speed 2.7 X Track quality 99.9 % Test CRC 08984CFB Copy CRC 08984CFB Accurately ripped (confidence 4) [3575BFF2] (AR v1) Copy OK

Track 4

Filename C:\Users\Пользователь\Desktop\Новая папка (3)\04. Gohan's Hidden Powers.wav

Peak level 81.9 % Extraction speed 3.5 X Track quality 100.0 % Test CRC AC6DC3D0 Copy CRC AC6DC3D0 Accurately ripped (confidence 4) [62B3E097] (AR v1) Copy OK

Track 5

Filename C:\Users\Пользователь\Desktop\Новая папка (3)\05. Goku's Unusual Journey.wav

Peak level 72.9 % Extraction speed 2.6 X Track quality 99.9 % Test CRC 18758DAF Copy CRC 18758DAF Accurately ripped (confidence 4) [7F2A4250] (AR v1) Copy OK

Track 6

Filename C:\Users\Пользователь\Desktop\Новая папка (3)\06. Gohan's Metamorphosis.wav

Peak level 94.8 % Extraction speed 3.6 X Track quality 100.0 % Test CRC 6D9BC79C Copy CRC 6D9BC79C Accurately ripped (confidence 4) [95086B4E] (AR v1) Copy OK

Track 7

Filename C:\Users\Пользователь\Desktop\Новая папка (3)\07. Gohan Makes A Friend.wav

Peak level 87.4 % Extraction speed 4.2 X Track quality 100.0 % Test CRC D6CCD154 Copy CRC D6CCD154 Accurately ripped (confidence 4) [5B6ABAAE] (AR v1) Copy OK

Track 8

Filename C:\Users\Пользователь\Desktop\Новая папка (3)\08. Trouble On Arlia.wav

Peak level 77.9 % Extraction speed 3.9 X Track quality 100.0 % Test CRC BDDBB1F6 Copy CRC BDDBB1F6 Accurately ripped (confidence 4) [F5E74059] (AR v1) Copy OK

Track 9

Filename C:\Users\Пользователь\Desktop\Новая папка (3)\09. Home For Infinite Losers.wav

Peak level 92.3 % Extraction speed 4.7 X Track quality 100.0 % Test CRC 1BCB631A Copy CRC 1BCB631A Accurately ripped (confidence 3) [0CEF958F] (AR v1) Copy OK

Track 10

Filename C:\Users\Пользователь\Desktop\Новая папка (3)\10. Princess Snake's Hospitality.wav

Peak level 97.1 % Extraction speed 4.3 X Track quality 100.0 % Test CRC A8DACEB7 Copy CRC A8DACEB7 Accurately ripped (confidence 4) [E74E199A] (AR v1) Copy OK

Track 11

Filename C:\Users\Пользователь\Desktop\Новая папка (3)\11. Escape From Piccolo.wav

Peak level 89.1 % Extraction speed 4.9 X Track quality 99.9 % Test CRC 8F4F4E3D Copy CRC 8F4F4E3D Accurately ripped (confidence 4) [AD62337E] (AR v1) Copy OK

Track 12

Filename C:\Users\Пользователь\Desktop\Новая папка (3)\12. End Title.wav

Peak level 67.6 % Extraction speed 2.3 X Track quality 100.0 % Test CRC C261EE67 Copy CRC C261EE67 Accurately ripped (confidence 4) [597E3160] (AR v1) Copy OK

All tracks accurately ripped

No errors occurred

End of status report

==== Log checksum 195ABEE5AC06B2610525E717C71C335EE35DB4D2D1036F780201DC89F32314B7 ====
REM GENRE SoundtrackREM DATE 1996REM DISCID A00E450CREM COMMENT "ExactAudioCopy v1.0b3"PERFORMER "Shuki Levy & Kussa Mahehi"TITLE "Dragon Ball Z Original USA TV Soundtrack"FILE "01. Main Title.wav" WAVE TRACK 01 AUDIO TITLE "Main Title" PERFORMER "Shuki Levy & Kussa Mahehi" PREGAP 00:00:30 INDEX 01 00:00:00FILE "02. The Arrival Of Raditz.wav" WAVE TRACK 02 AUDIO TITLE "The Arrival Of Raditz" PERFORMER "Shuki Levy & Kussa Mahehi" INDEX 01 00:00:00 TRACK 03 AUDIO TITLE "The World's Strongest Team" PERFORMER "Shuki Levy & Kussa Mahehi" INDEX 00 09:56:55FILE "03. The World's Strongest Team.wav" WAVE INDEX 01 00:00:00 TRACK 04 AUDIO TITLE "Gohan's Hidden Powers" PERFORMER "Shuki Levy & Kussa Mahehi" INDEX 00 04:19:23FILE "04. Gohan's Hidden Powers.wav" WAVE INDEX 01 00:00:00 TRACK 05 AUDIO TITLE "Goku's Unusual Journey" PERFORMER "Shuki Levy & Kussa Mahehi" INDEX 00 06:43:57FILE "05. Goku's Unusual Journey.wav" WAVE INDEX 01 00:00:00 TRACK 06 AUDIO TITLE "Gohan's Metamorphosis" PERFORMER "Shuki Levy & Kussa Mahehi" INDEX 00 02:18:33FILE "06. Gohan's Metamorphosis.wav" WAVE INDEX 01 00:00:00 TRACK 07 AUDIO TITLE "Gohan Makes A Friend" PERFORMER "Shuki Levy & Kussa Mahehi" INDEX 00 03:29:52FILE "07. Gohan Makes A Friend.wav" WAVE INDEX 01 00:00:00 TRACK 08 AUDIO TITLE "Trouble On Arlia" PERFORMER "Shuki Levy & Kussa Mahehi" INDEX 00 07:42:71FILE "08. Trouble On Arlia.wav" WAVE INDEX 01 00:00:00 TRACK 09 AUDIO TITLE "Home For Infinite Losers" PERFORMER "Shuki Levy & Kussa Mahehi" INDEX 00 02:54:73FILE "09. Home For Infinite Losers.wav" WAVE INDEX 01 00:00:00 TRACK 10 AUDIO TITLE "Princess Snake's Hospitality" PERFORMER "Shuki Levy & Kussa Mahehi" INDEX 00 09:16:03FILE "10. Princess Snake's Hospitality.wav" WAVE INDEX 01 00:00:00 TRACK 11 AUDIO TITLE "Escape From Piccolo" PERFORMER "Shuki Levy & Kussa Mahehi" INDEX 00 02:44:03FILE "11. Escape From Piccolo.wav" WAVE INDEX 01 00:00:00 TRACK 12 AUDIO TITLE "End Title" PERFORMER "Shuki Levy & Kussa Mahehi" INDEX 00 09:56:67FILE "12. End Title.wav" WAVE INDEX 01 00:00:00
Страна: США
Год выпуска: 2001-2005
Лейбл: Cake Mix Productions
[url=...60302129#60302129]Содержание дисков 1-6[/url]
[url=...60302208#60302208]Содержание дисков 7-9[/url]
Страна: Япония
Год выпуска: 1994
Лейбл: Columbia Records
Продолжительность:01:06:40
Треклист:
01. Makafushigi Adventure!.flac (03:53)
02. Mr. Dream o Sagase.flac (04:19)
03. Aoki Tabibito-tachi.flac (04:06)
04. Fushigi Wonderland.flac (04:06)
05. Muten Roshi no Oshie.flac (02:52)
06. Son Goku Song.flac (03:34)
07. Wolf Hurricane.flac (03:46)
08. Kaze o Kanjite.flac (03:58)
09. Mezase Tenkaichi.flac (03:43)
10. Yume o Oshiete.flac (04:03)
11. Red Ribbon Army.flac (04:01)
12. Hatsukoi wa Kumo ni Notte.flac (04:29)
13. Moeru Hato de~Red Ribbon Gun o Yattsukero.flac (04:03)
14. Goku no GOKIGEN Jani.flac (03:09)
15. Dragon Ball Densetsu.flac (04:00)
16. Romantic Ageru Yo.flac (03:51)
17. Makafushigi Adventure! (New Remix Long Version).flac (04:47)
Exact Audio Copy V1.0 beta 3 from 29. August 2011

EAC extraction logfile from 6. October 2012, 18:58

Various Artists / Dragon Ball Great Complete Collection Disc 1

Used drive : Optiarc DVD RW AD-7260S Adapter: 2 ID: 0

Read mode : SecureUtilize accurate stream : YesDefeat audio cache : YesMake use of C2 pointers : No

Read offset correction : 48Overread into Lead-In and Lead-Out : NoFill up missing offset samples with silence : YesDelete leading and trailing silent blocks : NoNull samples used in CRC calculations : YesUsed interface : Native Win32 interface for Win NT & 2000Gap handling : Appended to previous track

Used output format : User Defined EncoderSelected bitrate : 128 kBit/sQuality : HighAdd ID3 tag : NoCommand line compressor : C:\Program Files\Exact Audio Copy\Flac\flac.exeAdditional command line options : -V -8 -T "Date=%year%" -T "Genre=%genre%" %source%

TOC of the extracted CD

Track | Start | Length | Start sector | End sector --------------------------------------------------------- 1 | 0:00.00 | 3:53.25 | 0 | 17499 2 | 3:53.25 | 4:19.32 | 17500 | 36956 3 | 8:12.57 | 4:06.18 | 36957 | 55424 4 | 12:19.00 | 4:06.10 | 55425 | 73884 5 | 16:25.10 | 2:51.52 | 73885 | 86761 6 | 19:16.62 | 3:34.30 | 86762 | 102841 7 | 22:51.17 | 3:45.45 | 102842 | 119761 8 | 26:36.62 | 3:58.35 | 119762 | 137646 9 | 30:35.22 | 3:42.68 | 137647 | 154364 10 | 34:18.15 | 4:03.15 | 154365 | 172604 11 | 38:21.30 | 4:01.17 | 172605 | 190696 12 | 42:22.47 | 4:28.63 | 190697 | 210859 13 | 46:51.35 | 4:03.05 | 210860 | 229089 14 | 50:54.40 | 3:09.37 | 229090 | 243301 15 | 54:04.02 | 3:59.38 | 243302 | 261264 16 | 58:03.40 | 3:51.05 | 261265 | 278594 17 | 61:54.45 | 4:46.70 | 278595 | 300114

Track 1

Filename G:\1\01. Makafushigi Adobencha!.wav

Pre-gap length 0:00:02.00

Peak level 100.0 % Extraction speed 2.4 X Track quality 100.0 % Test CRC 17ECD839 Copy CRC 17ECD839 Accurately ripped (confidence 1) [6C63CE7C] (AR v1) Copy OK

Track 2

Filename G:\1\02. Mr. Dorimu o Sagase.wav

Pre-gap length 0:00:02.05

Peak level 88.3 % Extraction speed 2.7 X Track quality 100.0 % Test CRC 863575BA Copy CRC 863575BA Accurately ripped (confidence 1) [FDCF8979] (AR v1) Copy OK

Track 3

Filename G:\1\03. Aoki Tabibito-tachi.wav

Pre-gap length 0:00:00.40

Peak level 99.0 % Extraction speed 2.9 X Track quality 100.0 % Test CRC 91A4BB5B Copy CRC 91A4BB5B Accurately ripped (confidence 1) [6B14D586] (AR v1) Copy OK

Track 4

Filename G:\1\04. Fushigi Wandarando.wav

Pre-gap length 0:00:01.35

Peak level 98.3 % Extraction speed 3.2 X Track quality 100.0 % Test CRC 90CFF924 Copy CRC 90CFF924 Accurately ripped (confidence 1) [CB9B6D7D] (AR v1) Copy OK

Track 5

Filename G:\1\05. Muten Roshi no Oshie.wav

Pre-gap length 0:00:00.25

Peak level 99.0 % Extraction speed 3.2 X Track quality 100.0 % Test CRC 50CB1AA9 Copy CRC 50CB1AA9 Accurately ripped (confidence 1) [221AC25B] (AR v1) Copy OK

Track 6

Filename G:\1\06. Son Goku Songu.wav

Pre-gap length 0:00:01.05

Peak level 99.0 % Extraction speed 3.4 X Track quality 100.0 % Test CRC 05B35510 Copy CRC 05B35510 Accurately ripped (confidence 1) [7BFC7779] (AR v1) Copy OK

Track 7

Filename G:\1\07. Urufu Hariken.wav

Pre-gap length 0:00:01.42

Peak level 99.0 % Extraction speed 3.7 X Track quality 100.0 % Test CRC 5D597B2F Copy CRC 5D597B2F Accurately ripped (confidence 1) [D8E2986D] (AR v1) Copy OK

Track 8

Filename G:\1\08. Kaze o Kanjite.wav

Pre-gap length 0:00:01.60

Peak level 98.9 % Extraction speed 3.9 X Track quality 100.0 % Test CRC DE20931D Copy CRC DE20931D Accurately ripped (confidence 1) [D6EAC951] (AR v1) Copy OK

Track 9

Filename G:\1\09. Mezase Tenkaichi.wav

Pre-gap length 0:00:01.32

Peak level 99.0 % Extraction speed 4.0 X Track quality 100.0 % Test CRC 9993F692 Copy CRC 9993F692 Accurately ripped (confidence 1) [861F41E4] (AR v1) Copy OK

Track 10

Filename G:\1\10. Yume o Oshiete.wav

Pre-gap length 0:00:01.47

Peak level 99.0 % Extraction speed 4.2 X Track quality 100.0 % Test CRC CEE154BC Copy CRC CEE154BC Accurately ripped (confidence 1) [95789727] (AR v1) Copy OK

Track 11

Filename G:\1\11. Reddo Ribon Ami.wav

Pre-gap length 0:00:01.02

Peak level 99.0 % Extraction speed 4.3 X Track quality 100.0 % Test CRC B2DD470D Copy CRC B2DD470D Accurately ripped (confidence 1) [276702C1] (AR v1) Copy OK

Track 12

Filename G:\1\12. Hatsukoi wa Kumo ni Notte.wav

Pre-gap length 0:00:01.10

Peak level 99.0 % Extraction speed 4.5 X Track quality 100.0 % Test CRC 4B456ACF Copy CRC 4B456ACF Accurately ripped (confidence 1) [C3881386] (AR v1) Copy OK

Track 13

Filename G:\1\13. Moeru Hato de~Reddo Ribon Gun o Yattsukero.wav

Pre-gap length 0:00:00.50

Peak level 100.0 % Extraction speed 4.6 X Track quality 100.0 % Test CRC C4E0AE93 Copy CRC C4E0AE93 Accurately ripped (confidence 1) [979FDDFE] (AR v1) Copy OK

Track 14

Filename G:\1\14. Goku no GOKIGEN Jani.wav

Pre-gap length 0:00:01.57

Peak level 99.0 % Extraction speed 4.5 X Track quality 100.0 % Test CRC 70B99B1C Copy CRC 70B99B1C Accurately ripped (confidence 1) [023F02A5] (AR v1) Copy OK

Track 15

Filename G:\1\15. Doragon Boru Densetsu.wav

Pre-gap length 0:00:01.22

Peak level 99.0 % Extraction speed 4.9 X Track quality 100.0 % Test CRC 7240A1A8 Copy CRC 7240A1A8 Accurately ripped (confidence 1) [FCC6F753] (AR v1) Copy OK

Track 16

Filename G:\1\16. Romantikku Ageru Yo.wav

Pre-gap length 0:00:01.72

Peak level 99.0 % Extraction speed 4.3 X Track quality 99.9 % Test CRC 73E1503C Copy CRC 73E1503C Accurately ripped (confidence 1) [554FCD10] (AR v1) Copy OK

Track 17

Filename G:\1\17. Makafushigi Adobencha! (New Remix Long Version).wav

Pre-gap length 0:00:03.17

Peak level 95.2 % Extraction speed 5.3 X Track quality 100.0 % Test CRC 67C5D4E3 Copy CRC 67C5D4E3 Accurately ripped (confidence 1) [72293305] (AR v1) Copy OK

All tracks accurately ripped

No errors occurred

End of status report

==== Log checksum 833A978590BBD6164D77D4D995336074E7FE049E7C6683A8A0DA0339038CDBB9 ====
REM GENRE AnimeREM DATE 1994REM DISCID F70FA111REM COMMENT "ExactAudioCopy v1.0b3"CATALOG 4988001492771PERFORMER "Various Artists"TITLE "Dragon Ball Great Complete Collection Disc 1"FILE "01. Makafushigi Adventure!.wav" WAVE TRACK 01 AUDIO TITLE "Makafushigi Adventure!" PERFORMER "Hiroki Takahashi" ISRC JPCO08601710 INDEX 01 00:00:00 TRACK 02 AUDIO TITLE "Mr. Dream o Sagase" PERFORMER "Ushio Hashimoto" ISRC JPCO08612890 INDEX 00 03:51:20FILE "02. Mr. Dream o Sagase.wav" WAVE INDEX 01 00:00:00 TRACK 03 AUDIO TITLE "Aoki Tabibito-tachi" PERFORMER "Hiroki Takahashi" ISRC JPCO08612900 INDEX 00 04:18:67FILE "03. Aoki Tabibito-tachi.wav" WAVE INDEX 01 00:00:00 TRACK 04 AUDIO TITLE "Fushigi Wonderland" PERFORMER "Wonderland Gang" ISRC JPCO08612920 INDEX 00 04:04:58FILE "04. Fushigi Wonderland.wav" WAVE INDEX 01 00:00:00 TRACK 05 AUDIO TITLE "Muten Roshi no Oshie" PERFORMER "Kohei Miyauchi (Kamesennin)" ISRC JPCO08612930 INDEX 00 04:05:60FILE "05. Muten Roshi no Oshie.wav" WAVE INDEX 01 00:00:00 TRACK 06 AUDIO TITLE "Son Goku Song" PERFORMER "Masako Nozawa (Son Goku)" ISRC JPCO08612940 INDEX 00 02:50:47FILE "06. Son Goku Song.wav" WAVE INDEX 01 00:00:00 TRACK 07 AUDIO TITLE "Wolf Hurricane" PERFORMER "Toru Furuya (Yamcha)" ISRC JPCO08612950 INDEX 00 03:32:63FILE "07. Wolf Hurricane.wav" WAVE INDEX 01 00:00:00 TRACK 08 AUDIO TITLE "Kaze o Kanjite" PERFORMER "Wonderland Gang" ISRC JPCO08612980 INDEX 00 03:43:60FILE "08. Kaze o Kanjite.wav" WAVE INDEX 01 00:00:00 TRACK 09 AUDIO TITLE "Mezase Tenkaichi" PERFORMER "Hiroki Takahashi" ISRC JPCO08612870 INDEX 00 03:57:03FILE "09. Mezase Tenkaichi.wav" WAVE INDEX 01 00:00:00 TRACK 10 AUDIO TITLE "Yume o Oshiete" PERFORMER "Ushio Hashimoto" ISRC JPCO08623950 INDEX 00 03:41:21FILE "10. Yume o Oshiete.wav" WAVE INDEX 01 00:00:00 TRACK 11 AUDIO TITLE "Red Ribbon Army" PERFORMER "Wonderland Gang" ISRC JPCO08623970 INDEX 00 04:02:13FILE "11. Red Ribbon Army.wav" WAVE INDEX 01 00:00:00 TRACK 12 AUDIO TITLE "Hatsukoi wa Kumo ni Notte" PERFORMER "Satoko Yamano" ISRC JPCO08623960 INDEX 00 04:00:07FILE "12. Hatsukoi wa Kumo ni Notte.wav" WAVE INDEX 01 00:00:00 TRACK 13 AUDIO TITLE "Moeru Hato de~Red Ribbon Gun o Yattsukero" PERFORMER "Wonderland Gang" ISRC JPCO08705610 INDEX 00 04:28:13FILE "13. Moeru Hato de~Red Ribbon Gun o Yattsukero.wav" WAVE INDEX 01 00:00:00 TRACK 14 AUDIO TITLE "Goku no GOKIGEN Jani" PERFORMER "Masako Nozawa (Son Goku)" ISRC JPCO08705620 INDEX 00 04:01:23FILE "14. Goku no GOKIGEN Jani.wav" WAVE INDEX 01 00:00:00 TRACK 15 AUDIO TITLE "Dragon Ball Densetsu" PERFORMER "Hiroki Takahashi" ISRC JPCO08612880 INDEX 00 03:08:15FILE "15. Dragon Ball Densetsu.wav" WAVE INDEX 01 00:00:00 TRACK 16 AUDIO TITLE "Romantic Ageru Yo" PERFORMER "Ushio Hashimoto" ISRC JPCO08601720 INDEX 00 03:57:41FILE "16. Romantic Ageru Yo.wav" WAVE INDEX 01 00:00:00 TRACK 17 AUDIO TITLE "Makafushigi Adventure! (New Remix Long Version)" PERFORMER "Hiroki Takahashi" ISRC JPCO09052760 INDEX 00 03:47:63FILE "17. Makafushigi Adventure! (New Remix Long Version).wav" WAVE INDEX 01 00:00:00
Продолжительность:01:16:12
Треклист:
01. Makafushigi Adventure! (TV size).flac (01:50)
02. Tabidachi.flac (02:22)
03. Makafushigi Adventure! (Instrumental).flac (02:23)
04. Sexy Girl Bulma.flac (02:46)
05. Dragon Ball no Nazo.flac (02:34)
06. Funky Kamesennin.flac (02:20)
07. Dai-Koya.flac (03:04)
08. Youkai Shotsubotsu.flac (03:12)
09. Yashin.flac (02:42)
10. Kiken ga Ippai.flac (02:50)
11. Sheng Long Shutsugen.flac (02:25)
12. Pilaf to Sono Buka.flac (02:04)
13. Yasei no Shonen.flac (02:23)
14. Kame-Sen Ryo no Kibishii Shugyou.flac (01:37)
15. Dai-Nijuikkai Tenkaichi Budokai.flac (02:15)
16. Akai Ribbon.flac (04:38)
17. Hikaru Blue no Me.flac (02:11)
18. Koroshiya Tao Paipai.flac (02:13)
19. Karin-To no Karin-sama.flac (03:47)
20. Dai-Nijunikai Tenkaichi Budokai.flac (02:21)
21. Piccolo Daimao no Kyofu.flac (03:21)
22. Kamesennin Saigo no Mafuba.flac (03:12)
23. Son Goku no Gyakushu.flac (05:13)
24. Haran no Tenkaichi Budokai.flac (04:18)
25. Innen no taiketsu! Goku to Piccolo.flac (03:51)
26. Dragon Ball no Okurimono.flac (02:41)
27. Romantic Ageru Yo (TV Size).flac (01:39)
Exact Audio Copy V1.0 beta 3 from 29. August 2011

EAC extraction logfile from 6. October 2012, 20:07

Various Artists / Dragon Ball Great Complete Collection Disc 2

Used drive : Optiarc DVD RW AD-7260S Adapter: 2 ID: 0

Read mode : SecureUtilize accurate stream : YesDefeat audio cache : YesMake use of C2 pointers : No

Read offset correction : 48Overread into Lead-In and Lead-Out : NoFill up missing offset samples with silence : YesDelete leading and trailing silent blocks : NoNull samples used in CRC calculations : YesUsed interface : Native Win32 interface for Win NT & 2000Gap handling : Appended to previous track

Used output format : User Defined EncoderSelected bitrate : 128 kBit/sQuality : HighAdd ID3 tag : NoCommand line compressor : C:\Program Files\Exact Audio Copy\Flac\flac.exeAdditional command line options : -V -8 -T "Date=%year%" -T "Genre=%genre%" %source%

TOC of the extracted CD

Track | Start | Length | Start sector | End sector --------------------------------------------------------- 1 | 0:00.00 | 1:50.02 | 0 | 8251 2 | 1:50.02 | 2:21.53 | 8252 | 18879 3 | 4:11.55 | 2:23.02 | 18880 | 29606 4 | 6:34.57 | 2:45.68 | 29607 | 42049 5 | 9:20.50 | 2:34.20 | 42050 | 53619 6 | 11:54.70 | 2:20.00 | 53620 | 64119 7 | 14:14.70 | 3:04.30 | 64120 | 77949 8 | 17:19.25 | 3:12.00 | 77950 | 92349 9 | 20:31.25 | 2:41.60 | 92350 | 104484 10 | 23:13.10 | 2:49.70 | 104485 | 117229 11 | 26:03.05 | 2:25.12 | 117230 | 128116 12 | 28:28.17 | 2:04.10 | 128117 | 137426 13 | 30:32.27 | 2:23.10 | 137427 | 148161 14 | 32:55.37 | 1:36.43 | 148162 | 155404 15 | 34:32.05 | 2:14.72 | 155405 | 165526 16 | 36:47.02 | 4:37.55 | 165527 | 186356 17 | 41:24.57 | 2:11.20 | 186357 | 196201 18 | 43:36.02 | 2:12.43 | 196202 | 206144 19 | 45:48.45 | 3:46.60 | 206145 | 223154 20 | 49:35.30 | 2:21.37 | 223155 | 233766 21 | 51:56.67 | 3:21.28 | 233767 | 248869 22 | 55:18.20 | 3:11.65 | 248870 | 263259 23 | 58:30.10 | 5:12.70 | 263260 | 286729 24 | 63:43.05 | 4:18.30 | 286730 | 306109 25 | 68:01.35 | 3:50.70 | 306110 | 323429 26 | 71:52.30 | 2:40.72 | 323430 | 335501 27 | 74:33.27 | 1:38.40 | 335502 | 342891

Track 1

Filename G:\2\01. Makafushigi Adventure! (TV size).wav

Pre-gap length 0:00:02.00

Peak level 100.0 % Extraction speed 2.2 X Track quality 100.0 % Test CRC 98123B45 Copy CRC 98123B45 Accurately ripped (confidence 1) [2B03CA71] (AR v1) Copy OK

Track 2

Filename G:\2\02. Tabidachi.wav

Peak level 92.1 % Extraction speed 2.4 X Track quality 100.0 % Test CRC 86B43FD7 Copy CRC 86B43FD7 Accurately ripped (confidence 1) [0C83F15B] (AR v1) Copy OK

Track 3

Filename G:\2\03. Makafushigi Adventure! (Instrumental).wav

Peak level 100.0 % Extraction speed 2.5 X Track quality 100.0 % Test CRC BB4DA880 Copy CRC BB4DA880 Accurately ripped (confidence 1) [502E60E1] (AR v1) Copy OK

Track 4

Filename G:\2\04. Sexy Girl Bulma.wav

Peak level 67.1 % Extraction speed 2.7 X Track quality 100.0 % Test CRC 3811D138 Copy CRC 3811D138 Accurately ripped (confidence 1) [9F4305E5] (AR v1) Copy OK

Track 5

Filename G:\2\05. Dragon Ball no nazo.wav

Pre-gap length 0:00:00.30

Peak level 99.0 % Extraction speed 2.8 X Track quality 100.0 % Test CRC 2B543367 Copy CRC 2B543367 Accurately ripped (confidence 1) [E02972FD] (AR v1) Copy OK

Track 6

Filename G:\2\06. Funky Kamesennin.wav

Peak level 92.7 % Extraction speed 2.8 X Track quality 100.0 % Test CRC B551509B Copy CRC B551509B Accurately ripped (confidence 1) [2CEE4C31] (AR v1) Copy OK

Track 7

Filename G:\2\07. Dai-Koya.wav

Peak level 71.3 % Extraction speed 3.2 X Track quality 100.0 % Test CRC 4EADB977 Copy CRC 4EADB977 Accurately ripped (confidence 1) [4EA66FDE] (AR v1) Copy OK

Track 8

Filename G:\2\08. Youkai Shotsubotsu.wav

Peak level 98.6 % Extraction speed 3.4 X Track quality 100.0 % Test CRC 982B6115 Copy CRC 982B6115 Accurately ripped (confidence 1) [77C29377] (AR v1) Copy OK

Track 9

Filename G:\2\09. Yashin.wav

Peak level 91.4 % Extraction speed 3.4 X Track quality 100.0 % Test CRC 97CA2819 Copy CRC 97CA2819 Accurately ripped (confidence 1) [D4F859C1] (AR v1) Copy OK

Track 10

Filename G:\2\10. Kiken ga Ippai.wav

Peak level 96.3 % Extraction speed 3.5 X Track quality 100.0 % Test CRC 4B5D646E Copy CRC 4B5D646E Accurately ripped (confidence 1) [0CEFAC3F] (AR v1) Copy OK

Track 11

Filename G:\2\11. Sheng Long Shutsugen.wav

Pre-gap length 0:00:00.62

Peak level 98.6 % Extraction speed 3.5 X Track quality 100.0 % Test CRC A5DEF738 Copy CRC A5DEF738 Accurately ripped (confidence 1) [2B394A01] (AR v1) Copy OK

Track 12

Filename G:\2\12. Pilaf to Sono Buka.wav

Peak level 99.0 % Extraction speed 2.8 X Track quality 99.9 % Test CRC B3992515 Copy CRC B3992515 Accurately ripped (confidence 1) [F2406B66] (AR v1) Copy OK

Track 13

Filename G:\2\13. Yasei no Shonen.wav

Pre-gap length 0:00:00.30

Peak level 91.9 % Extraction speed 3.7 X Track quality 100.0 % Test CRC C18BED62 Copy CRC C18BED62 Accurately ripped (confidence 1) [F11E32A7] (AR v1) Copy OK

Track 14

Filename G:\2\14. Kame-Sen Ryo no Kibishii Shugyou.wav

Pre-gap length 0:00:02.40

Peak level 84.6 % Extraction speed 2.6 X Track quality 99.8 % Test CRC 1F83A665 Copy CRC 1F83A665 Accurately ripped (confidence 1) [507D501F] (AR v1) Copy OK

Track 15

Filename G:\2\15. Dai-Nijuikkai Tenkaichi Budokai.wav

Pre-gap length 0:00:00.57

Peak level 94.9 % Extraction speed 3.7 X Track quality 100.0 % Test CRC 48D6D985 Copy CRC 48D6D985 Accurately ripped (confidence 1) [B7BD217C] (AR v1) Copy OK

Track 16

Filename G:\2\16. Akai Ribbon.wav

Peak level 93.9 % Extraction speed 4.4 X Track quality 100.0 % Test CRC ABD8E55A Copy CRC ABD8E55A Accurately ripped (confidence 1) [A6F58D27] (AR v1) Copy OK

Track 17

Filename G:\2\17. Hikaru Blue no Me.wav

Peak level 93.9 % Extraction speed 4.0 X Track quality 100.0 % Test CRC D838F738 Copy CRC D838F738 Accurately ripped (confidence 1) [2B48DF0F] (AR v1) Copy OK

Track 18

Filename G:\2\18. Koroshiya Tao Paipai.wav

Pre-gap length 0:00:00.27

Peak level 93.2 % Extraction speed 4.1 X Track quality 100.0 % Test CRC 87A59593 Copy CRC 87A59593 Accurately ripped (confidence 1) [DDFB08AF] (AR v1) Copy OK

Track 19

Filename G:\2\19. Karin-To no Karin-sama.wav

Peak level 78.1 % Extraction speed 4.6 X Track quality 100.0 % Test CRC E8A9B23E Copy CRC E8A9B23E Accurately ripped (confidence 1) [4C7DE5F7] (AR v1) Copy OK

Track 20

Filename G:\2\20. Dai-Nijunikai Tenkaichi Budokai.wav

Peak level 89.1 % Extraction speed 4.3 X Track quality 100.0 % Test CRC 3D18DB8A Copy CRC 3D18DB8A Accurately ripped (confidence 1) [36973FDB] (AR v1) Copy OK

Track 21

Filename G:\2\21. Piccolo Daimao no Kyofu.wav

Peak level 73.2 % Extraction speed 4.6 X Track quality 100.0 % Test CRC C0192DF4 Copy CRC C0192DF4 Accurately ripped (confidence 1) [60462466] (AR v1) Copy OK

Track 22

Filename G:\2\22. Kamesennin Saigo no Mafuba.wav

Peak level 76.2 % Extraction speed 4.1 X Track quality 99.9 % Test CRC 07DA0D20 Copy CRC 07DA0D20 Accurately ripped (confidence 1) [9C1C8347] (AR v1) Copy OK

Track 23

Filename G:\2\23. Son Goku no Gyakushu.wav

Pre-gap length 0:00:00.25

Peak level 92.2 % Extraction speed 5.2 X Track quality 100.0 % Test CRC CE229D5C Copy CRC CE229D5C Accurately ripped (confidence 1) [7D289648] (AR v1) Copy OK

Track 24

Filename G:\2\24. Haran no Tenkaichi Budokai.wav

Pre-gap length 0:00:00.32

Peak level 83.0 % Extraction speed 5.3 X Track quality 100.0 % Test CRC BBF81C4C Copy CRC BBF81C4C Accurately ripped (confidence 1) [3EAEC8EC] (AR v1) Copy OK

Track 25

Filename G:\2\25. Innen no taiketsu! Goku to Piccolo.wav

Pre-gap length 0:00:00.35

Peak level 86.7 % Extraction speed 5.2 X Track quality 100.0 % Test CRC 2021964C Copy CRC 2021964C Accurately ripped (confidence 1) [37747556] (AR v1) Copy OK

Track 26

Filename G:\2\26. Dragon Ball no Okurimono.wav

Pre-gap length 0:00:00.37

Peak level 95.8 % Extraction speed 5.0 X Track quality 100.0 % Test CRC 65B047C1 Copy CRC 65B047C1 Accurately ripped (confidence 1) [FADA825B] (AR v1) Copy OK

Track 27

Filename G:\2\27. Romantic Ageru Yo (TV Size).wav

Pre-gap length 0:00:02.02

Peak level 89.4 % Extraction speed 4.6 X Track quality 100.0 % Test CRC 0CE74628 Copy CRC 0CE74628 Accurately ripped (confidence 1) [08CD5172] (AR v1) Copy OK

All tracks accurately ripped

No errors occurred

End of status report

==== Log checksum 68199A5FD16E6DACF192DE259D842300DD2D08A19C70476F8CF8858BDA3C520A ====
REM GENRE AnimeREM DATE 1994REM DISCID 7B11DB1BREM COMMENT "ExactAudioCopy v1.0b3"CATALOG 4988001492771PERFORMER "Various Artists"TITLE "Dragon Ball Great Complete Collection Disc 2"FILE "01. Makafushigi Adventure! (TV size).wav" WAVE TRACK 01 AUDIO TITLE "Makafushigi Adventure! (TV size)" PERFORMER "Hiroki Takahashi" ISRC JPCO00000000 INDEX 01 00:00:00FILE "02. Tabidachi.wav" WAVE TRACK 02 AUDIO TITLE "Tabidachi" PERFORMER "Shunsuke Kikuchi" ISRC JPCO08605980 INDEX 01 00:00:00FILE "03. Makafushigi Adventure! (Instrumental).wav" WAVE TRACK 03 AUDIO TITLE "Makafushigi Adventure! (Instrumental)" PERFORMER "Yuriko Mori" ISRC JPCO08605990 INDEX 01 00:00:00FILE "04. Sexy Girl Bulma.wav" WAVE TRACK 04 AUDIO TITLE "Sexy Girl Bulma" PERFORMER "Shunsuke Kikuchi" ISRC JPCO08606000 INDEX 01 00:00:00 TRACK 05 AUDIO TITLE "Dragon Ball no Nazo" PERFORMER "Shunsuke Kikuchi" ISRC JPCO08606010 INDEX 00 02:45:38FILE "05. Dragon Ball no Nazo.wav" WAVE INDEX 01 00:00:00FILE "06. Funky Kamesennin.wav" WAVE TRACK 06 AUDIO TITLE "Funky Kamesennin" PERFORMER "Shunsuke Kikuchi" ISRC JPCO08606020 INDEX 01 00:00:00FILE "07. Dai-Koya.wav" WAVE TRACK 07 AUDIO TITLE "Dai-Koya" PERFORMER "Shunsuke Kikuchi" ISRC JPCO08606030 INDEX 01 00:00:00FILE "08. Youkai Shotsubotsu.wav" WAVE TRACK 08 AUDIO TITLE "Youkai Shotsubotsu" PERFORMER "Shunsuke Kikuchi" ISRC JPCO08606040 INDEX 01 00:00:00FILE "09. Yashin.wav" WAVE TRACK 09 AUDIO TITLE "Yashin" PERFORMER "Shunsuke Kikuchi" ISRC JPCO08606050 INDEX 01 00:00:00FILE "10. Kiken ga Ippai.wav" WAVE TRACK 10 AUDIO TITLE "Kiken ga Ippai" PERFORMER "Shunsuke Kikuchi" ISRC JPCO08606060 INDEX 01 00:00:00 TRACK 11 AUDIO TITLE "Sheng Long Shutsugen" PERFORMER "Shunsuke Kikuchi" ISRC JPCO08606070 INDEX 00 02:49:08FILE "11. Sheng Long Shutsugen.wav" WAVE INDEX 01 00:00:00FILE "12. Pilaf to Sono Buka.wav" WAVE TRACK 12 AUDIO TITLE "Pilaf to Sono Buka" PERFORMER "Shunsuke Kikuchi" ISRC JPCO08606080 INDEX 01 00:00:00 TRACK 13 AUDIO TITLE "Yasei no Shonen" PERFORMER "Shunsuke Kikuchi" ISRC JPCO08606090 INDEX 00 02:03:55FILE "13. Yasei no Shonen.wav" WAVE INDEX 01 00:00:00 TRACK 14 AUDIO TITLE "Kame-Sen Ryo no Kibishii Shugyou" PERFORMER "Shunsuke Kikuchi" ISRC JPCO08606800 INDEX 00 02:20:45FILE "14. Kame-Sen Ryo no Kibishii Shugyou.wav" WAVE INDEX 01 00:00:00 TRACK 15 AUDIO TITLE "Dai-Nijuikkai Tenkaichi Budokai" PERFORMER "Shunsuke Kikuchi" ISRC JPCO08606810 INDEX 00 01:35:61FILE "15. Dai-Nijuikkai Tenkaichi Budokai.wav" WAVE INDEX 01 00:00:00FILE "16. Akai Ribbon.wav" WAVE TRACK 16 AUDIO TITLE "Akai Ribbon" PERFORMER "Shunsuke Kikuchi" ISRC JPCO08606820 INDEX 01 00:00:00FILE "17. Hikaru Blue no Me.wav" WAVE TRACK 17 AUDIO TITLE "Hikaru Blue no Me" PERFORMER "Shunsuke Kikuchi" ISRC JPCO08606830 INDEX 01 00:00:00 TRACK 18 AUDIO TITLE "Koroshiya Tao Paipai" PERFORMER "Shunsuke Kikuchi" ISRC JPCO08606840 INDEX 00 02:10:68FILE "18. Koroshiya Tao Paipai.wav" WAVE INDEX 01 00:00:00FILE "19. Karin-To no Karin-sama.wav" WAVE TRACK 19 AUDIO TITLE "Karin-To no Karin-sama" PERFORMER "Shunsuke Kikuchi" ISRC JPCO08606850 INDEX 01 00:00:00FILE "20. Dai-Nijunikai Tenkaichi Budokai.wav" WAVE TRACK 20 AUDIO TITLE "Dai-Nijunikai Tenkaichi Budokai" PERFORMER "Shunsuke Kikuchi" ISRC JPCO08606860 INDEX 01 00:00:00FILE "21. Piccolo Daimao no Kyofu.wav" WAVE TRACK 21 AUDIO TITLE "Piccolo Daimao no Kyofu" PERFORMER "Shunsuke Kikuchi" ISRC JPCO08606870 INDEX 01 00:00:00FILE "22. Kamesennin Saigo no Mafuba.wav" WAVE TRACK 22 AUDIO TITLE "Kamesennin Saigo no Mafuba" PERFORMER "Shunsuke Kikuchi" ISRC JPCO08606880 INDEX 01 00:00:00 TRACK 23 AUDIO TITLE "Son Goku no Gyakushu" PERFORMER "Shunsuke Kikuchi" ISRC JPCO08606890 INDEX 00 03:11:40FILE "23. Son Goku no Gyakushu.wav" WAVE INDEX 01 00:00:00 TRACK 24 AUDIO TITLE "Haran no Tenkaichi Budokai" PERFORMER "Shunsuke Kikuchi" ISRC JPCO08606900 INDEX 00 05:12:38FILE "24. Haran no Tenkaichi Budokai.wav" WAVE INDEX 01 00:00:00 TRACK 25 AUDIO TITLE "Innen no taiketsu! Goku to Piccolo" PERFORMER "Shunsuke Kikuchi" ISRC JPCO08606910 INDEX 00 04:17:70FILE "25. Innen no taiketsu! Goku to Piccolo.wav" WAVE INDEX 01 00:00:00 TRACK 26 AUDIO TITLE "Dragon Ball no Okurimono" PERFORMER "Shunsuke Kikuchi" ISRC JPCO08606920 INDEX 00 03:50:33FILE "26. Dragon Ball no Okurimono.wav" WAVE INDEX 01 00:00:00 TRACK 27 AUDIO TITLE "Romantic Ageru Yo (TV Size)" PERFORMER "Ushio Hashimoto" ISRC JPCO00000000 INDEX 00 02:38:70FILE "27. Romantic Ageru Yo (TV Size).wav" WAVE INDEX 01 00:00:00
Продолжительность:01:11:31
Треклист:
01. CHA-LA HEAD-CHA-LA.flac (03:21)
02. Aitsu wa Son Goku.flac (04:35)
03. Moero! Dragon Soldier!.flac (03:17)
04. Tenkaichi Gohan.flac (03:56)
05. Piccolo-san Da~isuki.flac (03:33)
06. Ikusa (I-KU-SA).flac (03:57)
07. Marugoto.flac (04:06)
08. Solid State Scouter.flac (04:41)
09. Hikari no Tabi.flac (06:15)
10. Ya na Koto ni wa Genki-Dama!!.flac (03:56)
11. Tobikkiri no Saikyo Tai Saikyo.flac (03:48)
12. HERO (Kimi ga Hiro).flac (04:11)
13. GIRIGIRI ~Sekai Kyokugen.flac (03:25)
14. Aoi Kaze no HOPE.flac (03:45)
15. Burning Fight~Nessen-Ressen-Chogekisen.flac (03:20)
16. Detekoi Tobikiri ZENKAI Power!.flac (03:33)
17. WE GOTTA POWER.flac (04:00)
18. Boku-tachi wa Tenshi Datta.flac (03:52)
Exact Audio Copy V1.0 beta 3 from 29. August 2011

EAC extraction logfile from 6. October 2012, 21:05

Various Artists / Dragon Ball Great Complete Collection Disc 3

Used drive : Optiarc DVD RW AD-7260S Adapter: 2 ID: 0

Read mode : SecureUtilize accurate stream : YesDefeat audio cache : YesMake use of C2 pointers : No

Read offset correction : 48Overread into Lead-In and Lead-Out : NoFill up missing offset samples with silence : YesDelete leading and trailing silent blocks : NoNull samples used in CRC calculations : YesUsed interface : Native Win32 interface for Win NT & 2000Gap handling : Appended to previous track

Used output format : User Defined EncoderSelected bitrate : 128 kBit/sQuality : HighAdd ID3 tag : NoCommand line compressor : C:\Program Files\Exact Audio Copy\Flac\flac.exeAdditional command line options : -V -8 -T "Date=%year%" -T "Genre=%genre%" %source%

TOC of the extracted CD

Track | Start | Length | Start sector | End sector --------------------------------------------------------- 1 | 0:00.00 | 3:20.65 | 0 | 15064 2 | 3:20.65 | 4:34.40 | 15065 | 35654 3 | 7:55.30 | 3:17.25 | 35655 | 50454 4 | 11:12.55 | 3:55.70 | 50455 | 68149 5 | 15:08.50 | 3:32.42 | 68150 | 84091 6 | 18:41.17 | 3:57.08 | 84092 | 101874 7 | 22:38.25 | 4:06.25 | 101875 | 120349 8 | 26:44.50 | 4:41.15 | 120350 | 141439 9 | 31:25.65 | 6:14.50 | 141440 | 169539 10 | 37:40.40 | 3:55.45 | 169540 | 187209 11 | 41:36.10 | 3:47.40 | 187210 | 204274 12 | 45:23.50 | 4:11.37 | 204275 | 223136 13 | 49:35.12 | 3:25.18 | 223137 | 238529 14 | 53:00.30 | 3:44.40 | 238530 | 255369 15 | 56:44.70 | 3:20.20 | 255370 | 270389 16 | 60:05.15 | 3:33.25 | 270390 | 286389 17 | 63:38.40 | 3:59.45 | 286390 | 304359 18 | 67:38.10 | 3:52.20 | 304360 | 321779

Track 1

Filename G:\3\01. CHA-LA HEAD-CHA-LA.wav

Pre-gap length 0:00:02.00

Peak level 99.0 % Extraction speed 2.1 X Track quality 99.9 % Test CRC EEC715F2 Copy CRC EEC715F2 Accurately ripped (confidence 1) [F37DAF63] (AR v1) Copy OK

Track 2

Filename G:\3\02. Aitsu wa Son Goku.wav

Pre-gap length 0:00:01.45

Peak level 99.0 % Extraction speed 2.5 X Track quality 99.9 % Test CRC 3E620926 Copy CRC 3E620926 Accurately ripped (confidence 1) [775F207C] (AR v1) Copy OK

Track 3

Filename G:\3\03. Moero! Dragon Soldier!.wav

Pre-gap length 0:00:01.35

Peak level 99.0 % Extraction speed 2.9 X Track quality 100.0 % Test CRC CC72160C Copy CRC CC72160C Accurately ripped (confidence 1) [DC4964E4] (AR v1) Copy OK

Track 4

Filename G:\3\04. Tenkaichi Gohan.wav

Pre-gap length 0:00:01.45

Peak level 99.0 % Extraction speed 3.1 X Track quality 100.0 % Test CRC FD522A6C Copy CRC FD522A6C Track not present in AccurateRip database Copy OK

Track 5

Filename G:\3\05. Piccolo-san Da~isuki.wav

Pre-gap length 0:00:01.22

Peak level 99.0 % Extraction speed 3.3 X Track quality 100.0 % Test CRC 3C9C8883 Copy CRC 3C9C8883 Track not present in AccurateRip database Copy OK

Track 6

Filename G:\3\06. Ikusa (I-KU-SA).wav

Pre-gap length 0:00:01.20

Peak level 99.0 % Extraction speed 3.5 X Track quality 100.0 % Test CRC 91B4505D Copy CRC 91B4505D Cannot be verified as accurate (confidence 1) [A099302B], AccurateRip returned [E6AC54DB] (AR v2) Copy OK

Track 7

Filename G:\3\07. Marugoto.wav

Pre-gap length 0:00:01.02

Peak level 99.3 % Extraction speed 3.3 X Track quality 99.9 % Test CRC 53DFEB50 Copy CRC 53DFEB50 Accurately ripped (confidence 1) [B901B28A] (AR v1) Copy OK

Track 8

Filename G:\3\08. Solid State Scouter.wav

Pre-gap length 0:00:01.60

Peak level 100.0 % Extraction speed 3.5 X Track quality 99.9 % Test CRC E1B0DCF2 Copy CRC E1B0DCF2 Accurately ripped (confidence 1) [C4C741A3] (AR v1) Copy OK

Track 9

Filename G:\3\09. Hikari no Tabi.wav

Pre-gap length 0:00:02.47

Peak level 98.0 % Extraction speed 4.3 X Track quality 100.0 % Test CRC 07A5C2A1 Copy CRC 07A5C2A1 Accurately ripped (confidence 1) [95A24DFF] (AR v1) Copy OK

Track 10

Filename G:\3\10. Ya na Koto ni wa Genki-Dama!!.wav

Pre-gap length 0:00:01.47

Peak level 99.0 % Extraction speed 4.3 X Track quality 100.0 % Test CRC 336E1543 Copy CRC 336E1543 Cannot be verified as accurate (confidence 1) [C76034E2], AccurateRip returned [E039EED3] (AR v2) Copy OK

Track 11

Filename G:\3\11. Tobikkiri no Saikyo Tai Saikyo.wav

Pre-gap length 0:00:01.65

Peak level 99.0 % Extraction speed 4.4 X Track quality 100.0 % Test CRC 30A59D3A Copy CRC 30A59D3A Accurately ripped (confidence 1) [BB65A036] (AR v1) Copy OK

Track 12

Filename G:\3\12. HERO (Kimi ga Hiro).wav

Pre-gap length 0:00:02.00

Peak level 99.0 % Extraction speed 4.6 X Track quality 100.0 % Test CRC 0138F716 Copy CRC 0138F716 Accurately ripped (confidence 1) [565AAD9A] (AR v1) Copy OK

Track 13

Filename G:\3\13. GIRIGIRI ~Sekai Kyokugen.wav

Pre-gap length 0:00:01.22

Peak level 100.0 % Extraction speed 4.6 X Track quality 100.0 % Test CRC AC137C5E Copy CRC AC137C5E Accurately ripped (confidence 1) [3C2C0A22] (AR v1) Copy OK

Track 14

Filename G:\3\14. Aoi Kaze no HOPE.wav

Pre-gap length 0:00:02.25

Peak level 99.1 % Extraction speed 4.8 X Track quality 100.0 % Test CRC D8BC973A Copy CRC D8BC973A Accurately ripped (confidence 1) [241317CB] (AR v1) Copy OK

Track 15

Filename G:\3\15. Burning Fight~Nessen-Ressen-Chogekisen.wav

Pre-gap length 0:00:02.22

Peak level 99.5 % Extraction speed 4.8 X Track quality 100.0 % Test CRC 738C9EAD Copy CRC 738C9EAD Cannot be verified as accurate (confidence 1) [8BDE2D5D], AccurateRip returned [5D9D3363] (AR v2) Copy OK

Track 16

Filename G:\3\16. Detekoi Tobikiri ZENKAI Power!.wav

Pre-gap length 0:00:02.02

Peak level 99.0 % Extraction speed 4.9 X Track quality 100.0 % Test CRC 15637CE2 Copy CRC 15637CE2 Accurately ripped (confidence 1) [CF0980C1] (AR v1) Copy OK

Track 17

Filename G:\3\17. WE GOTTA POWER.wav

Pre-gap length 0:00:02.32

Peak level 98.9 % Extraction speed 5.1 X Track quality 100.0 % Test CRC 4C7F51BC Copy CRC 4C7F51BC Accurately ripped (confidence 1) [73DE265E] (AR v1) Copy OK

Track 18

Filename G:\3\18. Boku-tachi wa Tenshi Datta.wav

Pre-gap length 0:00:01.00

Peak level 99.0 % Extraction speed 5.3 X Track quality 100.0 % Test CRC 736A422B Copy CRC 736A422B Accurately ripped (confidence 1) [0D95DB7B] (AR v1) Copy OK

13 трек(и) скопированы точно 3 трек(и) не удалось проверить на точность 2 трек(и) не содержатся в базе AccurateRip

Some tracks could not be verified as accurate

No errors occurred

End of status report

==== Log checksum B21C7289BEBC2E6A1261797E7E593DD6B024A65FE2DFE38EB75ABBA56EF43E00 ====
REM GENRE AnimeREM DATE 1994REM DISCID F710C212REM COMMENT "ExactAudioCopy v1.0b3"CATALOG 4988001492771PERFORMER "Various Artists"TITLE "Dragon Ball Great Complete Collection Disc 3"FILE "01. CHA-LA HEAD-CHA-LA.wav" WAVE TRACK 01 AUDIO TITLE "CHA-LA HEAD-CHA-LA" PERFORMER "Hironobu Kageyama" ISRC JPCO08965040 INDEX 01 00:00:00 TRACK 02 AUDIO TITLE "Aitsu wa Son Goku" PERFORMER "Hironobu Kageyama & Waffle" ISRC JPCO08921850 INDEX 00 03:19:20FILE "02. Aitsu wa Son Goku.wav" WAVE INDEX 01 00:00:00 TRACK 03 AUDIO TITLE "Moero! Dragon Soldier!" PERFORMER "Junichiro Oda" ISRC JPCO08919160 INDEX 00 04:33:05FILE "03. Moero! Dragon Soldier!.wav" WAVE INDEX 01 00:00:00 TRACK 04 AUDIO TITLE "Tenkaichi Gohan" PERFORMER "Masako Nozawa (Son Gohan)" ISRC JPCO08921880 INDEX 00 03:15:55FILE "04. Tenkaichi Gohan.wav" WAVE INDEX 01 00:00:00 TRACK 05 AUDIO TITLE "Piccolo-san Da~isuki" PERFORMER "Masako Nozawa (Son Gohan)" ISRC JPCO09001330 INDEX 00 03:54:48FILE "05. Piccolo-san Da~isuki.wav" WAVE INDEX 01 00:00:00 TRACK 06 AUDIO TITLE "Ikusa (I-KU-SA)" PERFORMER "Hironobu Kageyama" ISRC JPCO09001320 INDEX 00 03:31:22FILE "06. Ikusa (I-KU-SA).wav" WAVE INDEX 01 00:00:00 TRACK 07 AUDIO TITLE "Marugoto" PERFORMER "Hironobu Kageyama & Ammy" ISRC JPCO09052820 INDEX 00 03:56:06FILE "07. Marugoto.wav" WAVE INDEX 01 00:00:00 TRACK 08 AUDIO TITLE "Solid State Scouter" PERFORMER "Dragon Magic Orchestra; Spoken Lines: Tokio" ISRC JPCO09034420 INDEX 00 04:04:40FILE "08. Solid State Scouter.wav" WAVE INDEX 01 00:00:00 TRACK 09 AUDIO TITLE "Hikari no Tabi" PERFORMER "Hironobu Kageyama & Kuko (Waffle)" ISRC JPCO09052860 INDEX 00 04:38:43FILE "09. Hikari no Tabi.wav" WAVE INDEX 01 00:00:00 TRACK 10 AUDIO TITLE "Ya na Koto ni wa Genki-Dama!!" PERFORMER "Hironobu Kageyama" ISRC JPCO09106110 INDEX 00 06:13:03FILE "10. Ya na Koto ni wa Genki-Dama!!.wav" WAVE INDEX 01 00:00:00 TRACK 11 AUDIO TITLE "Tobikkiri no Saikyo Tai Saikyo" PERFORMER "Hironobu Kageyama & Ammy" ISRC JPCO09123220 INDEX 00 03:53:55FILE "11. Tobikkiri no Saikyo Tai Saikyo.wav" WAVE INDEX 01 00:00:00 TRACK 12 AUDIO TITLE "HERO (Kimi ga Hiro)" PERFORMER "Hironobu Kageyama & Yuka" ISRC JPCO09205550 INDEX 00 03:45:40FILE "12. HERO (Kimi ga Hiro).wav" WAVE INDEX 01 00:00:00 TRACK 13 AUDIO TITLE "GIRIGIRI ~Sekai Kyokugen" PERFORMER "Hironobu Kageyama & Yuka" ISRC JPCO09220550 INDEX 00 04:10:15FILE "13. GIRIGIRI ~Sekai Kyokugen.wav" WAVE INDEX 01 00:00:00 TRACK 14 AUDIO TITLE "Aoi Kaze no HOPE" PERFORMER "Hironobu Kageyama" ISRC JPCO09248880 INDEX 00 03:22:68FILE "14. Aoi Kaze no HOPE.wav" WAVE INDEX 01 00:00:00 TRACK 15 AUDIO TITLE "Burning Fight~Nessen-Ressen-Chogekisen" PERFORMER "Hironobu Kageyama & Yuka" ISRC JPCO09304660 INDEX 00 03:42:18FILE "15. Burning Fight~Nessen-Ressen-Chogekisen.wav" WAVE INDEX 01 00:00:00 TRACK 16 AUDIO TITLE "Detekoi Tobikiri ZENKAI Power!" PERFORMER "MANNA" ISRC JPCO08965050 INDEX 00 03:18:18FILE "16. Detekoi Tobikiri ZENKAI Power!.wav" WAVE INDEX 01 00:00:00 TRACK 17 AUDIO TITLE "WE GOTTA POWER" PERFORMER "Hironobu Kageyama" ISRC JPCO09345350 INDEX 00 03:30:68FILE "17. WE GOTTA POWER.wav" WAVE INDEX 01 00:00:00 TRACK 18 AUDIO TITLE "Boku-tachi wa Tenshi Datta" PERFORMER "Hironobu Kageyama" ISRC JPCO09345360 INDEX 00 03:58:45FILE "18. Boku-tachi wa Tenshi Datta.wav" WAVE INDEX 01 00:00:00
Продолжительность:01:06:02
Треклист:
01. CHA-LA HEAD-CHA-LA (TV Size).flac (01:50)
02. Prologue & Subtitle I.flac (01:14)
03. Katsute Nai Kyoufu.flac (01:12)
04. Ano Yo de Fight!.flac (02:37)
05. Son Gohan to Piccolo Daimao.flac (01:34)
06. Saiyajin Kitaru!!.flac (02:21)
07. Tenka-Wakeme Cho-Kessen.flac (02:31)
08. Anun Uzumaku Namekkusei.flac (01:27)
09. Ma ni ae!! Nanatsu no Dragon Ball.flac (02:45)
10. Kyoufu no Ginyu Tokusentai.flac (02:01)
11. Kaibutsu Freeza VS Densetsu no Super Saiyajin.flac (04:56)
12. Kieru Namekkusei to Kibo.flac (01:42)
13. Mirai Kara Kita Shonen.flac (01:35)
14. Jinzoningen Machi e....flac (04:40)
15. Soshi Se Yo! Cell no Kanzentai.flac (04:47)
16. Shi o Yobu Cell Game.flac (06:01)
17. Daidanen~Mo Hitotsu no Ketsumatsu.flac (02:37)
18. Sayonara Senshi-tachi.flac (02:12)
19. Detekoi Tobikiri ZENKAI Power! (TV Size).flac (01:37)
20. WE GOTTA POWER (TV Size).flac (01:51)
21. Prologue & Subtitle II.flac (01:19)
22. New Hero Tojo.flac (02:12)
23. Angel.flac (03:16)
24. Saikai! Tenkaichi Budokai.flac (02:39)
25. Seigi o Ai Suru Mono!.flac (03:28)
26. Boku-tachi wa Tenshi Datta (TV Size).flac (01:38)
Exact Audio Copy V1.0 beta 3 from 29. August 2011

EAC extraction logfile from 5. October 2012, 14:43

Various Artists / Dragon Ball Great Complete Collection Disc 4

Used drive : Optiarc DVD RW AD-7260S Adapter: 2 ID: 0

Read mode : SecureUtilize accurate stream : YesDefeat audio cache : YesMake use of C2 pointers : No

Read offset correction : 48Overread into Lead-In and Lead-Out : NoFill up missing offset samples with silence : YesDelete leading and trailing silent blocks : NoNull samples used in CRC calculations : YesUsed interface : Native Win32 interface for Win NT & 2000Gap handling : Appended to previous track

Used output format : User Defined EncoderSelected bitrate : 128 kBit/sQuality : HighAdd ID3 tag : NoCommand line compressor : C:\Program Files\Exact Audio Copy\Flac\flac.exeAdditional command line options : -V -8 -T "Date=%year%" -T "Genre=%genre%" %source%

TOC of the extracted CD

Track | Start | Length | Start sector | End sector --------------------------------------------------------- 1 | 0:00.00 | 1:50.30 | 0 | 8279 2 | 1:50.30 | 1:14.05 | 8280 | 13834 3 | 3:04.35 | 1:12.25 | 13835 | 19259 4 | 4:16.60 | 2:37.25 | 19260 | 31059 5 | 6:54.10 | 1:34.18 | 31060 | 38127 6 | 8:28.28 | 2:21.10 | 38128 | 48712 7 | 10:49.38 | 2:30.72 | 48713 | 60034 8 | 13:20.35 | 1:27.30 | 60035 | 66589 9 | 14:47.65 | 2:45.30 | 66590 | 78994 10 | 17:33.20 | 2:01.35 | 78995 | 88104 11 | 19:34.55 | 4:56.15 | 88105 | 110319 12 | 24:30.70 | 1:42.18 | 110320 | 117987 13 | 26:13.13 | 1:34.40 | 117988 | 125077 14 | 27:47.53 | 4:39.60 | 125078 | 146062 15 | 32:27.38 | 4:46.62 | 146063 | 167574 16 | 37:14.25 | 6:01.08 | 167575 | 194657 17 | 43:15.33 | 2:37.35 | 194658 | 206467 18 | 45:52.68 | 2:12.22 | 206468 | 216389 19 | 48:05.15 | 1:37.00 | 216390 | 223664 20 | 49:42.15 | 1:50.50 | 223665 | 231964 21 | 51:32.65 | 1:18.73 | 231965 | 237887 22 | 52:51.63 | 2:12.30 | 237888 | 247817 23 | 55:04.18 | 3:16.37 | 247818 | 262554 24 | 58:20.55 | 2:39.23 | 262555 | 274502 25 | 61:00.03 | 3:28.22 | 274503 | 290124 26 | 64:28.25 | 1:38.25 | 290125 | 297499

Track 1

Filename G:\Коля\мои раздачи\музыка\4\01. CHA-LA HEAD-CHA-LA (TV Size).wav

Pre-gap length 0:00:02.00

Peak level 99.8 % Extraction speed 2.1 X Track quality 100.0 % Test CRC 299B4752 Copy CRC 299B4752 Accurately ripped (confidence 1) [5293B092] (AR v1) Copy OK

Track 2

Filename G:\Коля\мои раздачи\музыка\4\02. Prologue & Subtitle I.wav

Pre-gap length 0:00:00.31

Peak level 100.0 % Extraction speed 1.9 X Track quality 100.0 % Test CRC 255114D2 Copy CRC 255114D2 Accurately ripped (confidence 1) [C819C501] (AR v1) Copy OK

Track 3

Filename G:\Коля\мои раздачи\музыка\4\03. Kattenai kyoufu.wav

Pre-gap length 0:00:00.25

Peak level 100.0 % Extraction speed 1.9 X Track quality 100.0 % Test CRC 28185A2D Copy CRC 28185A2D Accurately ripped (confidence 1) [CD912CE4] (AR v1) Copy OK

Track 4

Filename G:\Коля\мои раздачи\музыка\4\04. Ano yo de Fight!.wav

Pre-gap length 0:00:00.30

Peak level 94.7 % Extraction speed 2.1 X Track quality 99.9 % Test CRC 5D386DF5 Copy CRC 5D386DF5 Accurately ripped (confidence 1) [7A498379] (AR v1) Copy OK

Track 5

Filename G:\Коля\мои раздачи\музыка\4\05. Son Gohan to Piccolo Daimaoh.wav

Pre-gap length 0:00:00.50

Peak level 97.4 % Extraction speed 1.8 X Track quality 99.8 % Test CRC 29C52C07 Copy CRC 29C52C07 Accurately ripped (confidence 1) [BCD55D07] (AR v1) Copy OK

Track 6

Filename G:\Коля\мои раздачи\музыка\4\06. Saiyajin Kitaru!!.wav

Pre-gap length 0:00:00.35

Peak level 96.5 % Extraction speed 2.7 X Track quality 100.0 % Test CRC 965F8A5B Copy CRC 965F8A5B Accurately ripped (confidence 1) [12EB05A6] (AR v1) Copy OK

Track 7

Filename G:\Коля\мои раздачи\музыка\4\07. Tenkai wakeme choukessen.wav

Peak level 100.0 % Extraction speed 2.8 X Track quality 100.0 % Test CRC 625E35A1 Copy CRC 625E35A1 Accurately ripped (confidence 1) [09963A25] (AR v1) Copy OK

Track 8

Filename G:\Коля\мои раздачи\музыка\4\08. An'un uzumaku Namekusei.wav

Pre-gap length 0:00:00.35

Peak level 64.4 % Extraction speed 2.5 X Track quality 100.0 % Test CRC D55E979A Copy CRC D55E979A Accurately ripped (confidence 1) [1BA2E6F6] (AR v1) Copy OK

Track 9

Filename G:\Коля\мои раздачи\музыка\4\09. Ma ni ae!! Nanatsu no Dragon Ball.wav

Pre-gap length 0:00:00.40

Peak level 92.4 % Extraction speed 3.1 X Track quality 100.0 % Test CRC 6AFACE4F Copy CRC 6AFACE4F Accurately ripped (confidence 1) [7D4242F4] (AR v1) Copy OK

Track 10

Filename G:\Коля\мои раздачи\музыка\4\10. Kyoufu no Ginyuu Tokusentai.wav

Pre-gap length 0:00:00.17

Peak level 100.0 % Extraction speed 2.4 X Track quality 99.9 % Test CRC EF435B0D Copy CRC EF435B0D Accurately ripped (confidence 1) [61AF1CC7] (AR v1) Copy OK

Track 11

Filename G:\Коля\мои раздачи\музыка\4\11. Kaibutsu Freeza VS Densetsu no Super Saiyajin.wav

Pre-gap length 0:00:00.35

Peak level 98.0 % Extraction speed 3.7 X Track quality 100.0 % Test CRC CA423BA3 Copy CRC CA423BA3 Accurately ripped (confidence 1) [ABD5EAD9] (AR v1) Copy OK

Track 12

Filename G:\Коля\мои раздачи\музыка\4\12. Kieru Namekkusei to kibou.wav

Pre-gap length 0:00:00.60

Peak level 89.6 % Extraction speed 2.4 X Track quality 99.8 % Test CRC 37187979 Copy CRC 37187979 Accurately ripped (confidence 1) [817C5869] (AR v1) Copy OK

Track 13

Filename G:\Коля\мои раздачи\музыка\4\13. Mirai kara kita shounen.wav

Pre-gap length 0:00:00.60

Peak level 89.3 % Extraction speed 3.0 X Track quality 100.0 % Test CRC 8FE529A6 Copy CRC 8FE529A6 Accurately ripped (confidence 1) [A81B6C74] (AR v1) Copy OK

Track 14

Filename G:\Коля\мои раздачи\музыка\4\14. Jinzouningen machi e....wav

Pre-gap length 0:00:00.48

Peak level 96.6 % Extraction speed 3.9 X Track quality 100.0 % Test CRC 004A7DCA Copy CRC 004A7DCA Accurately ripped (confidence 1) [3800DB9D] (AR v1) Copy OK

Track 15

Filename G:\Коля\мои раздачи\музыка\4\15. Soshi se yo! Cell no kanzentai.wav

Pre-gap length 0:00:00.30

Peak level 96.9 % Extraction speed 3.7 X Track quality 99.9 % Test CRC 271FE6C2 Copy CRC 271FE6C2 Accurately ripped (confidence 1) [329A5F87] (AR v1) Copy OK

Track 16

Filename G:\Коля\мои раздачи\музыка\4\16. Shi wo Yobu Cell Game.wav

Pre-gap length 0:00:00.37

Peak level 92.2 % Extraction speed 4.5 X Track quality 100.0 % Test CRC 4CD423C0 Copy CRC 4CD423C0 Accurately ripped (confidence 1) [884B465B] (AR v1) Copy OK

Track 17

Filename G:\Коля\мои раздачи\музыка\4\17. ...mou hitotsu no ketsumatsu.wav

Pre-gap length 0:00:01.45

Peak level 98.4 % Extraction speed 4.2 X Track quality 100.0 % Test CRC 81EAA04B Copy CRC 81EAA04B Accurately ripped (confidence 1) [EAAEA1C4] (AR v1) Copy OK

Track 18

Filename G:\Коля\мои раздачи\музыка\4\18. Sayounara Senshi tachi.wav

Pre-gap length 0:00:00.35

Peak level 99.7 % Extraction speed 4.1 X Track quality 100.0 % Test CRC 10C452F4 Copy CRC 10C452F4 Accurately ripped (confidence 1) [D7628E85] (AR v1) Copy OK

Track 19

Filename G:\Коля\мои раздачи\музыка\4\19. Detekoi tobikiri ZENKAI Power! (TV Size).wav

Pre-gap length 0:00:00.55

Peak level 98.8 % Extraction speed 3.8 X Track quality 100.0 % Test CRC B807E7B2 Copy CRC B807E7B2 Accurately ripped (confidence 1) [B72361E7] (AR v1) Copy OK

Track 20

Filename G:\Коля\мои раздачи\музыка\4\20. WE GOTTA POWER (TV Size).wav

Pre-gap length 0:00:00.25

Peak level 98.7 % Extraction speed 4.1 X Track quality 100.0 % Test CRC 8FE98F46 Copy CRC 8FE98F46 Accurately ripped (confidence 1) [2DA1F872] (AR v1) Copy OK

Track 21

Filename G:\Коля\мои раздачи\музыка\4\21. Prologue & Subtitle II.wav

Peak level 81.0 % Extraction speed 3.6 X Track quality 100.0 % Test CRC 03250FE2 Copy CRC 03250FE2 Accurately ripped (confidence 1) [A358F779] (AR v1) Copy OK

Track 22

Filename G:\Коля\мои раздачи\музыка\4\22. New Hero toujou.wav

Pre-gap length 0:00:01.00

Peak level 94.3 % Extraction speed 4.3 X Track quality 100.0 % Test CRC AEAD79BD Copy CRC AEAD79BD Accurately ripped (confidence 1) [F25BA791] (AR v1) Copy OK

Track 23

Filename G:\Коля\мои раздачи\музыка\4\23. Angel.wav

Pre-gap length 0:00:00.33

Peak level 98.9 % Extraction speed 4.7 X Track quality 100.0 % Test CRC B2E9BD1C Copy CRC B2E9BD1C Accurately ripped (confidence 1) [77F4F9FF] (AR v1) Copy OK

Track 24

Filename G:\Коля\мои раздачи\музыка\4\24. Saikai! Tenkaichi Budoukai.wav

Pre-gap length 0:00:01.07

Peak level 90.2 % Extraction speed 4.6 X Track quality 100.0 % Test CRC 2C97490D Copy CRC 2C97490D Accurately ripped (confidence 1) [4ADE8946] (AR v1) Copy OK

Track 25

Filename G:\Коля\мои раздачи\музыка\4\25. Seigi wo Aisuru mono!.wav

Pre-gap length 0:00:00.23

Peak level 97.0 % Extraction speed 5.0 X Track quality 100.0 % Test CRC A297A40F Copy CRC A297A40F Accurately ripped (confidence 1) [224D6900] (AR v1) Copy OK

Track 26

Filename G:\Коля\мои раздачи\музыка\4\26. Boku tachi wa Tenshi datta (TV Size).wav

Pre-gap length 0:00:00.25

Peak level 98.9 % Extraction speed 4.4 X Track quality 100.0 % Test CRC 655E4C94 Copy CRC 655E4C94 Accurately ripped (confidence 1) [90752167] (AR v1) Copy OK

All tracks accurately ripped

No errors occurred

End of status report

==== Log checksum 0554F44B8BCADCC7FC6EEF69EB1FAC198ECE780A94C246AF3378102599DED8FE ====
REM GENRE AnimeREM DATE 1994REM DISCID 890F7E1AREM COMMENT "ExactAudioCopy v1.0b3"CATALOG 4988001492771PERFORMER "Various Artists"TITLE "Dragon Ball Great Complete Collection Disc 4"FILE "01. CHA-LA HEAD-CHA-LA (TV Size).wav" WAVE TRACK 01 AUDIO TITLE "CHA-LA HEAD-CHA-LA (TV Size)" PERFORMER "Hironobu Kageyama" ISRC 000000000000 INDEX 01 00:00:00 TRACK 02 AUDIO TITLE "Prologue & Subtitle I" PERFORMER "Shunsuke Kikuchi" ISRC JPCO09406930 INDEX 00 01:49:74FILE "02. Prologue & Subtitle I.wav" WAVE INDEX 01 00:00:00 TRACK 03 AUDIO TITLE "Katsute Nai Kyoufu" PERFORMER "Shunsuke Kikuchi" ISRC JPCO09406940 INDEX 00 01:13:55FILE "03. Katsute Nai Kyoufu.wav" WAVE INDEX 01 00:00:00 TRACK 04 AUDIO TITLE "Ano Yo de Fight!" PERFORMER "Shunsuke Kikuchi" ISRC JPCO09406950 INDEX 00 01:11:70FILE "04. Ano Yo de Fight!.wav" WAVE INDEX 01 00:00:00 TRACK 05 AUDIO TITLE "Son Gohan to Piccolo Daimao" PERFORMER "Shunsuke Kikuchi" ISRC JPCO09406960 INDEX 00 02:36:50FILE "05. Son Gohan to Piccolo Daimao.wav" WAVE INDEX 01 00:00:00 TRACK 06 AUDIO TITLE "Saiyajin Kitaru!!" PERFORMER "Shunsuke Kikuchi" ISRC JPCO09406970 INDEX 00 01:33:58FILE "06. Saiyajin Kitaru!!.wav" WAVE INDEX 01 00:00:00FILE "07. Tenka-Wakeme Cho-Kessen.wav" WAVE TRACK 07 AUDIO TITLE "Tenka-Wakeme Cho-Kessen" PERFORMER "Shunsuke Kikuchi" ISRC JPCO09406980 INDEX 01 00:00:00 TRACK 08 AUDIO TITLE "Anun Uzumaku Namekkusei" PERFORMER "Shunsuke Kikuchi" ISRC JPCO09406990 INDEX 00 02:30:37FILE "08. Anun Uzumaku Namekkusei.wav" WAVE INDEX 01 00:00:00 TRACK 09 AUDIO TITLE "Ma ni ae!! Nanatsu no Dragon Ball" PERFORMER "Shunsuke Kikuchi" ISRC JPCO09407000 INDEX 00 01:26:65FILE "09. Ma ni ae!! Nanatsu no Dragon Ball.wav" WAVE INDEX 01 00:00:00 TRACK 10 AUDIO TITLE "Kyoufu no Ginyu Tokusentai" PERFORMER "Shunsuke Kikuchi" ISRC JPCO09407010 INDEX 00 02:45:13FILE "10. Kyoufu no Ginyu Tokusentai.wav" WAVE INDEX 01 00:00:00 TRACK 11 AUDIO TITLE "Kaibutsu Freeza VS Densetsu no Super Saiyajin" PERFORMER "Shunsuke Kikuchi" ISRC JPCO09407020 INDEX 00 02:01:00FILE "11. Kaibutsu Freeza VS Densetsu no Super Saiyajin.wav" WAVE INDEX 01 00:00:00 TRACK 12 AUDIO TITLE "Kieru Namekkusei to Kibo" PERFORMER "Shunsuke Kikuchi" ISRC JPCO09407030 INDEX 00 04:55:30FILE "12. Kieru Namekkusei to Kibo.wav" WAVE INDEX 01 00:00:00 TRACK 13 AUDIO TITLE "Mirai Kara Kita Shonen" PERFORMER "Shunsuke Kikuchi" ISRC JPCO09407040 INDEX 00 01:41:33FILE "13. Mirai Kara Kita Shonen.wav" WAVE INDEX 01 00:00:00 TRACK 14 AUDIO TITLE "Jinzoningen Machi e..." PERFORMER "Shunsuke Kikuchi" ISRC JPCO09407050 INDEX 00 01:33:67FILE "14. Jinzoningen Machi e....wav" WAVE INDEX 01 00:00:00 TRACK 15 AUDIO TITLE "Soshi Se Yo! Cell no Kanzentai" PERFORMER "Shunsuke Kikuchi" ISRC JPCO09407060 INDEX 00 04:39:30FILE "15. Soshi Se Yo! Cell no Kanzentai.wav" WAVE INDEX 01 00:00:00 TRACK 16 AUDIO TITLE "Shi o Yobu Cell Game" PERFORMER "Shunsuke Kikuchi" ISRC JPCO09407070 INDEX 00 04:46:25FILE "16. Shi o Yobu Cell Game.wav" WAVE INDEX 01 00:00:00 TRACK 17 AUDIO TITLE "Daidanen~Mo Hitotsu no Ketsumatsu" PERFORMER "Shunsuke Kikuchi" ISRC JPCO09407080 INDEX 00 05:59:38FILE "17. Daidanen~Mo Hitotsu no Ketsumatsu.wav" WAVE INDEX 01 00:00:00 TRACK 18 AUDIO TITLE "Sayonara Senshi-tachi" PERFORMER "Shunsuke Kikuchi" ISRC JPCO09407090 INDEX 00 02:37:00FILE "18. Sayonara Senshi-tachi.wav" WAVE INDEX 01 00:00:00 TRACK 19 AUDIO TITLE "Detekoi Tobikiri ZENKAI Power! (TV Size)" PERFORMER "MANNA" ISRC 000000000000 INDEX 00 02:11:42FILE "19. Detekoi Tobikiri ZENKAI Power! (TV Size).wav" WAVE INDEX 01 00:00:00 TRACK 20 AUDIO TITLE "WE GOTTA POWER (TV Size)" PERFORMER "Hironobu Kageyama" ISRC JPCO09345370 INDEX 00 01:36:50FILE "20. WE GOTTA POWER (TV Size).wav" WAVE INDEX 01 00:00:00FILE "21. Prologue & Subtitle II.wav" WAVE TRACK 21 AUDIO TITLE "Prologue & Subtitle II" PERFORMER "Shunsuke Kikuchi" ISRC JPCO09407100 INDEX 01 00:00:00 TRACK 22 AUDIO TITLE "New Hero tojo" PERFORMER "Shunsuke Kikuchi" ISRC JPCO09407110 INDEX 00 01:17:73FILE "22. New Hero tojo.wav" WAVE INDEX 01 00:00:00 TRACK 23 AUDIO TITLE "Angel" PERFORMER "Shunsuke Kikuchi" ISRC JPCO09407120 INDEX 00 02:11:72FILE "23. Angel.wav" WAVE INDEX 01 00:00:00 TRACK 24 AUDIO TITLE "Saikai! Tenkaichi Budokai" PERFORMER "Shunsuke Kikuchi" ISRC JPCO09407130 INDEX 00 03:15:30FILE "24. Saikai! Tenkaichi Budokai.wav" WAVE INDEX 01 00:00:00 TRACK 25 AUDIO TITLE "Seigi o Ai Suru Mono!" PERFORMER "Shunsuke Kikuchi" ISRC JPCO09407140 INDEX 00 02:39:00FILE "25. Seigi o Ai Suru Mono!.wav" WAVE INDEX 01 00:00:00 TRACK 26 AUDIO TITLE "Boku-tachi wa Tenshi Datta (TV Size)" PERFORMER "Hironobu Kageyama" ISRC JPCO09345380 INDEX 00 03:27:72FILE "26. Boku-tachi wa Tenshi Datta (TV Size).wav" WAVE INDEX 01 00:00:00
Продолжительность:01:15:59
Треклист:
01. Makafushigi Adventure! (TV size Instrumental).flac (01:50)
02. Sheng Long no Densetsu.flac (05:14)
03. Majin-Jo no Nemuri Hime.flac (05:39)
04. Makafushigi Dai-Boken.flac (03:19)
05. Romantic Ageru Yo (TV size Instrumental).flac (01:39)
06. CHA-LA HEAD CHA-LA (Instrumental).flac (03:19)
07. Dragon Ball Z.flac (07:27)
08. Kono Yo de Ichiban Tsuyoi Yatsu.flac (04:31)
09. Chikyu Marugoto Cho-Kessen.flac (03:46)
10. Super Saiyajin da Son Goku.flac (05:36)
11. Tobikkiri no Saikyo tai Saikyo.flac (05:13)
12. Gekitotsu!! 100-oku Power no Senchi-tachi.flac (03:43)
13. Kyokugen Battle!! San Dai Super Saiyajin.flac (07:38)
14. Moetsukiro!! Nessen-Ressen-Chogekisen.flac (04:48)
15. Ginga Giri-Giri!! Bucchigiri no Sugoi Yatsu.flac (08:15)
16. Ginga o Koete Rising High.flac (04:02)
Exact Audio Copy V1.0 beta 3 from 29. August 2011

EAC extraction logfile from 5. October 2012, 15:29

Various Artists / Dragon Ball Great Complete Collection Disc 5

Used drive : Optiarc DVD RW AD-7260S Adapter: 2 ID: 0

Read mode : SecureUtilize accurate stream : YesDefeat audio cache : YesMake use of C2 pointers : No

Read offset correction : 48Overread into Lead-In and Lead-Out : NoFill up missing offset samples with silence : YesDelete leading and trailing silent blocks : NoNull samples used in CRC calculations : YesUsed interface : Native Win32 interface for Win NT & 2000Gap handling : Appended to previous track

Used output format : User Defined EncoderSelected bitrate : 128 kBit/sQuality : HighAdd ID3 tag : NoCommand line compressor : C:\Program Files\Exact Audio Copy\Flac\flac.exeAdditional command line options : -V -8 -T "Date=%year%" -T "Genre=%genre%" %source%

TOC of the extracted CD

Track | Start | Length | Start sector | End sector --------------------------------------------------------- 1 | 0:00.00 | 1:49.67 | 0 | 8241 2 | 1:49.67 | 5:13.48 | 8242 | 31764 3 | 7:03.40 | 5:39.02 | 31765 | 57191 4 | 12:42.42 | 3:18.40 | 57192 | 72081 5 | 16:01.07 | 1:38.55 | 72082 | 79486 6 | 17:39.62 | 3:18.65 | 79487 | 94401 7 | 20:58.52 | 7:26.58 | 94402 | 127909 8 | 28:25.35 | 4:30.62 | 127910 | 148221 9 | 32:56.22 | 3:45.73 | 148222 | 165169 10 | 36:42.20 | 5:36.20 | 165170 | 190389 11 | 42:18.40 | 5:13.10 | 190390 | 213874 12 | 47:31.50 | 3:42.50 | 213875 | 230574 13 | 51:14.25 | 7:37.60 | 230575 | 264909 14 | 58:52.10 | 4:48.00 | 264910 | 286509 15 | 63:40.10 | 8:15.05 | 286510 | 323639 16 | 71:55.15 | 4:02.10 | 323640 | 341799

Track 1

Filename G:\Коля\мои раздачи\музыка\5\01. Maka Fushigi Adventure! (TV size Instrumental).wav

Pre-gap length 0:00:02.00

Peak level 99.0 % Extraction speed 1.7 X Track quality 99.9 % Test CRC 644E7806 Copy CRC 644E7806 Accurately ripped (confidence 1) [D7CA46AC] (AR v1) Copy OK

Track 2

Filename G:\Коля\мои раздачи\музыка\5\02. Sheng Long no Densetsu.wav

Pre-gap length 0:00:00.57

Peak level 97.9 % Extraction speed 2.7 X Track quality 100.0 % Test CRC F08FE9FB Copy CRC F08FE9FB Accurately ripped (confidence 1) [AB719BA7] (AR v1) Copy OK

Track 3

Filename G:\Коля\мои раздачи\музыка\5\03. Majinjou no Nemuri Hime.wav

Pre-gap length 0:00:00.27

Peak level 93.4 % Extraction speed 3.1 X Track quality 100.0 % Test CRC 7C9B8940 Copy CRC 7C9B8940 Accurately ripped (confidence 1) [6E2E36D3] (AR v1) Copy OK

Track 4

Filename G:\Коля\мои раздачи\музыка\5\04. Maka Fushigi Daibouken.wav

Pre-gap length 0:00:01.25

Peak level 93.4 % Extraction speed 2.7 X Track quality 99.9 % Test CRC 5FE8EFD2 Copy CRC 5FE8EFD2 Accurately ripped (confidence 1) [C5866953] (AR v1) Copy OK

Track 5

Filename G:\Коля\мои раздачи\музыка\5\05. Romantic Ageruyo (TV size Instrumental).wav

Pre-gap length 0:00:01.05

Peak level 94.4 % Extraction speed 2.8 X Track quality 100.0 % Test CRC 097DBD0E Copy CRC 097DBD0E Accurately ripped (confidence 1) [B6BF6B43] (AR v1) Copy OK

Track 6

Filename G:\Коля\мои раздачи\музыка\5\06. CHA-LA HEAD CHA-LA (Instrumental).wav

Pre-gap length 0:00:00.30

Peak level 99.0 % Extraction speed 2.9 X Track quality 99.9 % Test CRC 121EBA68 Copy CRC 121EBA68 Accurately ripped (confidence 1) [057B7505] (AR v1) Copy OK

Track 7

Filename G:\Коля\мои раздачи\музыка\5\07. Dragon Ball Z.wav

Pre-gap length 0:00:00.55

Peak level 99.7 % Extraction speed 3.9 X Track quality 100.0 % Test CRC 3FE7AC2A Copy CRC 3FE7AC2A Accurately ripped (confidence 1) [258EACE5] (AR v1) Copy OK

Track 8

Filename G:\Коля\мои раздачи\музыка\5\08. Kono yo de Ichiban Tsuyoi Yatsu.wav

Pre-gap length 0:00:00.20

Peak level 97.9 % Extraction speed 4.0 X Track quality 100.0 % Test CRC 2C396034 Copy CRC 2C396034 Accurately ripped (confidence 1) [887DFD32] (AR v1) Copy OK

Track 9

Filename G:\Коля\мои раздачи\музыка\5\09. Chikyuu Marugoto Choukessen.wav

Pre-gap length 0:00:00.35

Peak level 90.8 % Extraction speed 4.0 X Track quality 100.0 % Test CRC B902DA59 Copy CRC B902DA59 Accurately ripped (confidence 1) [C078737B] (AR v1) Copy OK

Track 10

Filename G:\Коля\мои раздачи\музыка\5\10. Super Saiyajin da Son Goku.wav

Pre-gap length 0:00:00.37

Peak level 86.7 % Extraction speed 4.4 X Track quality 100.0 % Test CRC 8124164D Copy CRC 8124164D Accurately ripped (confidence 1) [A20334E3] (AR v1) Copy OK

Track 11

Filename G:\Коля\мои раздачи\музыка\5\11. Tobikkiri no saikyou tai saikyou.wav

Pre-gap length 0:00:00.35

Peak level 94.9 % Extraction speed 4.6 X Track quality 100.0 % Test CRC CD56717B Copy CRC CD56717B Accurately ripped (confidence 1) [F3FCBE44] (AR v1) Copy OK

Track 12

Filename G:\Коля\мои раздачи\музыка\5\12. Gekitotsu!! 100 oku pawaa no senchitachi.wav

Pre-gap length 0:00:00.30

Peak level 93.6 % Extraction speed 4.5 X Track quality 100.0 % Test CRC 93ECAC67 Copy CRC 93ECAC67 Accurately ripped (confidence 1) [A3945F11] (AR v1) Copy OK

Track 13

Filename G:\Коля\мои раздачи\музыка\5\13. Kyokugen batoru!! Sandai Super Saiyajin.wav

Pre-gap length 0:00:00.12

Peak level 98.3 % Extraction speed 4.8 X Track quality 99.9 % Test CRC 8B469EFB Copy CRC 8B469EFB Accurately ripped (confidence 1) [92F603ED] (AR v1) Copy OK

Track 14

Filename G:\Коля\мои раздачи\музыка\5\14. Moetsukiro!! Nessen.Ressen.Chougekisen.wav

Pre-gap length 0:00:00.62

Peak level 97.9 % Extraction speed 5.2 X Track quality 100.0 % Test CRC 789D906C Copy CRC 789D906C Accurately ripped (confidence 1) [C68F3D18] (AR v1) Copy OK

Track 15

Filename G:\Коля\мои раздачи\музыка\5\15. Ginga girigiri!! Bucchigiri sugoi yatsu.wav

Pre-gap length 0:00:00.30

Peak level 97.4 % Extraction speed 5.7 X Track quality 100.0 % Test CRC 61D1D351 Copy CRC 61D1D351 Accurately ripped (confidence 1) [20BB744A] (AR v1) Copy OK

Track 16

Filename G:\Коля\мои раздачи\музыка\5\16. Ginga wo koete Rising High.wav

Pre-gap length 0:00:00.65

Peak level 98.9 % Extraction speed 5.4 X Track quality 100.0 % Test CRC 04D5BBBB Copy CRC 04D5BBBB Accurately ripped (confidence 1) [B8D028E8] (AR v1) Copy OK

All tracks accurately ripped

No errors occurred

End of status report

==== Log checksum B49E4D13AA91C28DC493AD94101A393BBB02EC032B11E300A20E6736DFFE7445 ====
REM GENRE AnimeREM DATE 1994REM DISCID CE11CD10REM COMMENT "ExactAudioCopy v1.0b3"CATALOG 4988001492771PERFORMER "Various Artists"TITLE "Dragon Ball Great Complete Collection Disc 5"FILE "01. Makafushigi Adventure! (TV size Instrumental).wav" WAVE TRACK 01 AUDIO TITLE "Makafushigi Adventure! (TV size Instrumental)" PERFORMER "Takeshi Ike" ISRC 000000000000 INDEX 01 00:00:00 TRACK 02 AUDIO TITLE "Sheng Long no Densetsu" PERFORMER "Shunsuke Kikuchi" ISRC JPCO09407150 INDEX 00 01:49:10FILE "02. Sheng Long no Densetsu.wav" WAVE INDEX 01 00:00:00 TRACK 03 AUDIO TITLE "Majin-Jo no Nemuri Hime" PERFORMER "Shunsuke Kikuchi" ISRC JPCO09407160 INDEX 00 05:13:21FILE "03. Majin-Jo no Nemuri Hime.wav" WAVE INDEX 01 00:00:00 TRACK 04 AUDIO TITLE "Makafushigi Dai-Boken" PERFORMER "Shunsuke Kikuchi" ISRC JPCO09407170 INDEX 00 05:37:52FILE "04. Makafushigi Dai-Boken.wav" WAVE INDEX 01 00:00:00 TRACK 05 AUDIO TITLE "Romantic Ageru Yo (TV size Instrumental)" PERFORMER "Takeshi Ike" ISRC 000000000000 INDEX 00 03:17:35FILE "05. Romantic Ageru Yo (TV size Instrumental).wav" WAVE INDEX 01 00:00:00 TRACK 06 AUDIO TITLE "CHA-LA HEAD CHA-LA (Instrumental)" PERFORMER "Chiho Kiyoka" ISRC 000000000000 INDEX 00 01:38:25FILE "06. CHA-LA HEAD CHA-LA (Instrumental).wav" WAVE INDEX 01 00:00:00 TRACK 07 AUDIO TITLE "Dragon Ball Z" PERFORMER "Shunsuke Kikuchi" ISRC JPCO09228590 INDEX 00 03:18:10FILE "07. Dragon Ball Z.wav" WAVE INDEX 01 00:00:00 TRACK 08 AUDIO TITLE "Kono Yo de Ichiban Tsuyoi Yatsu" PERFORMER "Shunsuke Kikuchi" ISRC JPCO09228600 INDEX 00 07:26:38FILE "08. Kono Yo de Ichiban Tsuyoi Yatsu.wav" WAVE INDEX 01 00:00:00 TRACK 09 AUDIO TITLE "Chikyu Marugoto Cho-Kessen" PERFORMER "Shunsuke Kikuchi" ISRC JPCO09228610 INDEX 00 04:30:27FILE "09. Chikyu Marugoto Cho-Kessen.wav" WAVE INDEX 01 00:00:00 TRACK 10 AUDIO TITLE "Super Saiyajin da Son Goku" PERFORMER "Shunsuke Kikuchi" ISRC JPCO09228620 INDEX 00 03:45:36FILE "10. Super Saiyajin da Son Goku.wav" WAVE INDEX 01 00:00:00 TRACK 11 AUDIO TITLE "Tobikkiri no Saikyo tai Saikyo" PERFORMER "Shunsuke Kikuchi" ISRC JPCO09228640 INDEX 00 05:35:60FILE "11. Tobikkiri no Saikyo tai Saikyo.wav" WAVE INDEX 01 00:00:00 TRACK 12 AUDIO TITLE "Gekitotsu!! 100-oku Power no Senchi-tachi" PERFORMER "Shunsuke Kikuchi" ISRC JPCO09228650 INDEX 00 05:12:55FILE "12. Gekitotsu!! 100-oku Power no Senchi-tachi.wav" WAVE INDEX 01 00:00:00 TRACK 13 AUDIO TITLE "Kyokugen Battle!! San Dai Super Saiyajin" PERFORMER "Shunsuke Kikuchi" ISRC JPCO09228660 INDEX 00 03:42:38FILE "13. Kyokugen Battle!! San Dai Super Saiyajin.wav" WAVE INDEX 01 00:00:00 TRACK 14 AUDIO TITLE "Moetsukiro!! Nessen-Ressen-Chogekisen" PERFORMER "Shunsuke Kikuchi" ISRC JPCO09407180 INDEX 00 07:36:73FILE "14. Moetsukiro!! Nessen-Ressen-Chogekisen.wav" WAVE INDEX 01 00:00:00 TRACK 15 AUDIO TITLE "Ginga Giri-Giri!! Bucchigiri no Sugoi Yatsu" PERFORMER "Shunsuke Kikuchi" ISRC JPCO09407190 INDEX 00 04:47:45FILE "15. Ginga Giri-Giri!! Bucchigiri no Sugoi Yatsu.wav" WAVE INDEX 01 00:00:00 TRACK 16 AUDIO TITLE "Ginga o Koete Rising High" PERFORMER "Hironobu Kageyama" ISRC JPCO09324360 INDEX 00 08:14:15FILE "16. Ginga o Koete Rising High.wav" WAVE INDEX 01 00:00:00
Страна: Япония
Год выпуска: 2008
Лейбл: Columbia Records

[url=...58991380#58991380]Содержание дисков 1-8[/url]
[url=...58991476#58991476]Содержание дисков 9-13[/url]
[url=...66013045#66013045]Содержание диска[/url]
[url=...60625978#60625978]Содержание диска[/url]
[url=...60625978#60625978]Содержание диска[/url]
[url=...60625978#60625978]Содержание диска[/url]
[url=...60625978#60625978]Содержание диска[/url]
[url=...60625978#60625978]Содержание диска[/url]
[url=...60626077#60626077]Содержание диска[/url]
[url=...60626077#60626077]Содержание диска[/url]
[url=...66013045#66013045]Содержание диска[/url]
[url=...66013045#66013045]Содержание диска[/url]
[url=...66013045#66013045]Содержание диска[/url]
[url=...66013045#66013045]Содержание диска[/url]
[url=...66013045#66013045]Содержание диска[/url]
[url=...66013045#66013045]Содержание диска[/url]
Доп. информация:
1. Рипы, помеченные "*" сделаны лично мной. В связи с этим, настоятельная просьба: при желании выложить мои рипы где-то еще связаться со мной через ЛС. Не хочется, чтобы эксклюзив нашего трекера валялся на варезных сайтах и прочей помойке рунета (я прекрасно понимаю, что полностью избежать этого нельзя, я лишь хочу исключить человеческий фактор). При невыполнении данного условия выкладывать другие альбомы не буду. Раздавать буду только тем, кто отображается в списке пиров. Спасибо за понимание.
2. Оформление раздачи и структура папок рассчитана на добавление новых альбомов в будущем.
3. Новые рипы будут выкладываться по мере пополнения моей коллекции и в случае соблюдения п.1
4. Для каждого альбома есть Compliant cue для воспроизведения, например, в фубаре.
5. Никаких бутлегов! Все рипы, выложенные в данной раздаче, сняты с оригинальных дисков!

23.04.13 Добавлены 13 альбомов Dragon Ball Z Complete Song Collection Box! Просьба перекачать торрент-файл.

31.07.13 Добавлены 9 альбомов Bruce Faulconer's American Soundtracks! Просьба перекачать торрент-файл. За рипы и разрешение на их размещение огромное спасибо иностранному другу под ником Vegeta

26.08.13 Добавлены 6 альбомов саундтреков к мувикам (в том числе Battle of Gods!) и сингл к последнему мувику! Просьба перекачать торрент-файл.

29.11.14 Добавлены синглы и коллекция песен Dragon Ball Kai, сборник Dragon Ball Z BGM Collection, а также буклеты к пяти- и трех- дисковым изданиям! Просьба перекачать торрент-файл.

Трекер:  [ 29-Ноя-2014 18:00 ]

  

Скачать .torrent

Размер .torrent файла 290 KB


Размер: 16.21 GB
Хэш (hash) релиза: 20d42a92c33c63b6f837d2fc2665008489260810

Еще никто не оставлял запись к записи скачать торрент Драконий Жемчуг Dragon Ball - 1994-2014 гг., FLAC . Будь первым!

!Обратная связь