Mawaru Penguindrum | Kang's Kitchen - 신서유기 외전-강식당Kang's Kitchen | Stream Link 1

Скачать через торрент музыку Love Live! School Idol Project бесплатно без регистрации torrent

Статистика раздачи
Размер:  5.65 GB   |    Зарегистрирован:  3 года 7 месяцев   |    .torrent скачан:  57 раз   |   
Раздают:  1  
   
загрузка...
 
Автор Сообщение

Galfimbul

avatar Galfimbul


Love Live! School Idol Project / ラブライブ! School idol project
Год выпуска: 2013 г.
Страна: Япония
Продолжительность: 8.52.04
Аудио кодек: FLAC (*.flac)
Тип рипа: image+.cue
Описание: раздача музыки, связанной с аниме Love Live!.
Обновляться будет по мере появления дисков в сети.
[spoiler="[AR] Love Live! OP Single - Bokura wa Ima no Naka de"]
Дата выпуска: 23 января 2013 г.
Каталог: LACM-14053
Тип рипа: image+.cue
Продолжительность: 17.57
Наличие сканов в содержимом раздачи: да
Треклист:
1) Bokura wa Ima no Naka de;
2) WILD STARS;
3) Bokura wa Ima no Naka de (Off Vocal);
4) WILD STARS (Off Vocal).
Exact Audio Copy V0.99 prebeta 5 from 4. May 2009

EAC 取り込みログファイル 日付 : 31. 1月 2013, 9:49

- / 僕らは今のなかで

使用ドライブ : PIONEER BD-RW BDR-205 Adapter: 0 ID: 1

読み込みモード : セキュアモードドライブが正確なデータ転送能力を持つ : はいオーディオキャッシュを使用できる : はいC2エラー情報を検出する : いいえ

読み込みサンプルオフセット訂正値 : 637リードイン・リードアウトをオーバーリードする : いいえ欠落したオフセットサンプルを無音で補完する : はい曲の先頭と末端の無音領域を削除する : いいえCRC計算で無音のサンプルを使用するか : はい使用インターフェース : Win NT & 2000用のクラスドライバ

使用出力モード : 内蔵WAV出力ルーチンサンプルフォーマット : 44.100 Hz; 16 Bit; ステレオ

TOC情報を抜き出します

トラック | スタート | 長さ | 始めのセクター | 最終セクター ---------------------------------------------------------------- 1 | 0:00.00 | 4:36.60 | 0 | 20759 2 | 4:36.60 | 4:22.43 | 20760 | 40452 3 | 8:59.28 | 4:36.47 | 40453 | 61199 4 | 13:36.00 | 4:20.57 | 61200 | 80756

範囲取り込みステータス & エラー

選択された範囲

ファイル名 F:\EAC\ラブライブ!_僕らは今のなかで/μ’s (tak+iso)\僕らは今のなかで.wav

ピークレベル 100.0 % 範囲取り込み品質 100.0 % コピーCRC 0976E2A4 コピー OK

エラーは発生しませんでした

ステータス報告完了
Video Attributes:
Video compression mode: MPEG-2
TV system: 525/60 (NTSC)
Aspect Ratio: 16:9
Display Mode: Both Pan&scan and Letterbox
Source picture resolution: 720x480 (525/60)
Frame Rate: 30.00
Source picture letterboxed: Not letterboxed
Bitrate: 4.21Mbps

Audio Attributes:
Audio Coding mode: LPCM
Sampling Rate: 48kHz
Audio application mode: Not Specified
Number of Audio channels: 2.0
Bitrate: 1536 Kbps
Number of Audio streams: 1
[/spoiler]
[spoiler="[AR] Love Live! ED Single - Kitto Seishun ga Kikoeru"]
Дата выпуска: 6 февраля 2013 г.
Каталог: LACM-14054
Тип рипа: image+.cue
Продолжительность: 17.26
Наличие сканов в содержимом раздачи: да
Треклист:
1) Kitto Seishun ga Kikoeru;
2) Kaguya no Shiro de Odoritai;
3) Kitto Seishun ga Kikoeru (Off Vocal);
4) Kaguya no Shiro de Odoritai (Off Vocal).
Exact Audio Copy V1.0 beta 3 from 29. August 2011

EAC extraction logfile from 7. February 2013, 21:10

μ's / きっと青春が聞こえる

Used drive : ASUS DRW-24D1ST a Adapter: 0 ID: 1

Read mode : SecureUtilize accurate stream : YesDefeat audio cache : YesMake use of C2 pointers : No

Read offset correction : 6Overread into Lead-In and Lead-Out : NoFill up missing offset samples with silence : YesDelete leading and trailing silent blocks : NoNull samples used in CRC calculations : YesUsed interface : Native Win32 interface for Win NT & 2000

Used output format : Internal WAV RoutinesSample format : 44.100 Hz; 16 Bit; Stereo

TOC of the extracted CD

Track | Start | Length | Start sector | End sector --------------------------------------------------------- 1 | 0:00.00 | 4:09.28 | 0 | 18702 2 | 4:09.28 | 4:34.44 | 18703 | 39296 3 | 8:43.72 | 4:09.13 | 39297 | 57984 4 | 12:53.10 | 4:32.72 | 57985 | 78456

Range status and errors

Selected range

Filename C:\Users\Home\Documents\μ's - きっと青春が聞こえる\μ's - きっと青春が聞こえる.wav

Peak level 100.0 % Extraction speed 2.3 X Range quality 100.0 % Copy CRC 7A725301 Copy OK

No errors occurred

AccurateRip summary

Track 1 not present in databaseTrack 2 not present in databaseTrack 3 not present in databaseTrack 4 not present in database

None of the tracks are present in the AccurateRip database

End of status report

---- CUETools DB Plugin V2.1.3

[CTDB TOCID: ZpcppjPjSFK7eqHnqL747q8OhzI-] found, Submit result: ZpcppjPjSFK7eqHnqL747q8OhzI- has been confirmed[ab8a8c99] (2/2) Accurately ripped

==== Log checksum B83F36341FCEC535EA729423287EA4B26C73D6C16E36AADE186D92003E82EA0C ====
[/spoiler]
[spoiler="[AR] Love Live! - Susume Tomorrow, START DASH!!"]
Дата выпуска: 20 февраля 2013 г.
Каталог: LACM-14055
Тип рипа: image+.cue
Продолжительность: 17.50
Наличие сканов в содержимом раздачи: да
Треклист:
1) Susume Tomorrow;
2) START:DASH!!;
3) Susume Tomorrow (Off Vocal);
4) START:DASH!! (Off Vocal).
Exact Audio Copy V1.0 beta 3 from 29. August 2011

EAC extraction logfile from 26. February 2013, 22:43

高坂穂乃果(CV.新田恵海)、南ことり(CV.内田 彩)、園田海未(CV.三森すずこ) / ススメ→トゥモロウ/START:DASH!!

Used drive : ASUS DRW-24D1ST a Adapter: 0 ID: 1

Read mode : SecureUtilize accurate stream : YesDefeat audio cache : YesMake use of C2 pointers : No

Read offset correction : 6Overread into Lead-In and Lead-Out : NoFill up missing offset samples with silence : YesDelete leading and trailing silent blocks : NoNull samples used in CRC calculations : YesUsed interface : Native Win32 interface for Win NT & 2000

Used output format : Internal WAV RoutinesSample format : 44.100 Hz; 16 Bit; Stereo

TOC of the extracted CD

Track | Start | Length | Start sector | End sector --------------------------------------------------------- 1 | 0:00.00 | 4:36.55 | 0 | 20754 2 | 4:36.55 | 4:19.27 | 20755 | 40206 3 | 8:56.07 | 4:36.45 | 40207 | 60951 4 | 13:32.52 | 4:17.53 | 60952 | 80279

Range status and errors

Selected range

Filename C:\Users\Home\Documents\ススメ→トゥモロウ/START-DASH!!\高坂穂乃果(CV.新田恵海)、南ことり(CV.内田 彩)、園田海未(CV.三森すずこ) - ススメ→トゥモロウ/START-DASH!!.wav

Peak level 100.0 % Extraction speed 5.7 X Range quality 100.0 % Copy CRC F6BA47A1 Copy OK

No errors occurred

AccurateRip summary

Track 1 not present in databaseTrack 2 not present in databaseTrack 3 not present in databaseTrack 4 not present in database

None of the tracks are present in the AccurateRip database

End of status report

---- CUETools DB Plugin V2.1.3

[CTDB TOCID: MD5WONn9b1uVZlfSrKtS1qcnLJM-] found, Submit result: MD5WONn9b1uVZlfSrKtS1qcnLJM- has been confirmed[b3b78911] (8/8) Accurately ripped

==== Log checksum 0CC2F17736A848AE11B94A1E75A39BA968033B6B37A357148AA5D59724084110 ====
[/spoiler]
[spoiler="[AR] Love Live! - Kore kara no Someday, Wonder zone"]
Дата выпуска: 6 марта 2013 г.
Каталог: LACM-14064
Тип рипа: image+.cue
Продолжительность: 16.55
Наличие сканов в содержимом раздачи: да
Треклист:
1) Kore kara no Someday;
2) Wonder zone;
3) Kore kara no Someday (Off Vocal);
4) Wonder zone (Off Vocal).
Exact Audio Copy V0.99 prebeta 5 from 4. May 2009

EAC extraction logfile from 7. March 2013, 21:58

Various / これからのSomeday/Wonder zone

Used drive : PIONEER DVD-RW DVR-111 Adapter: 5 ID: 0

Read mode : SecureUtilize accurate stream : YesDefeat audio cache : YesMake use of C2 pointers : No

Read offset correction : 48Overread into Lead-In and Lead-Out : NoFill up missing offset samples with silence : YesDelete leading and trailing silent blocks : NoNull samples used in CRC calculations : YesUsed interface : Native Win32 interface for Win NT & 2000

Used output format : Internal WAV RoutinesSample format : 44.100 Hz; 16 Bit; Stereo

TOC of the extracted CD

Track | Start | Length | Start sector | End sector --------------------------------------------------------- 1 | 0:00.00 | 4:28.33 | 0 | 20132 2 | 4:28.33 | 4:00.02 | 20133 | 38134 3 | 8:28.35 | 4:28.20 | 38135 | 58254 4 | 12:56.55 | 3:58.38 | 58255 | 76142

Range status and errors

Selected range

Filename G:\LACM-14064.wav

Peak level 100.0 % Range quality 100.0 % Copy CRC 2F683A80 Copy OK

No errors occurred

End of status report
[/spoiler]
[spoiler="[AR] Love Live! - No Brand girls, START DASH!!"]
Дата выпуска: 3 апреля 2013 г.
Каталог: LACM-14069
Тип рипа: image+.cue
Продолжительность: 16.59
Наличие сканов в содержимом раздачи: да
Треклист:
1) No brand girls;
2) START: DASH!!;
3) No brand girls (Off Vocal);
4) START:DASH!! (Off Vocal).
Exact Audio Copy V1.0 beta 3 from 29. August 2011

EAC extraction logfile from 2. April 2013, 20:15

μ's / No brand girls / START: DASH!!

Used drive : HL-DT-STDVDRAM GH24NS90 Adapter: 1 ID: 0

Read mode : SecureUtilize accurate stream : YesDefeat audio cache : YesMake use of C2 pointers : No

Read offset correction : 6Overread into Lead-In and Lead-Out : NoFill up missing offset samples with silence : YesDelete leading and trailing silent blocks : NoNull samples used in CRC calculations : YesUsed interface : Native Win32 interface for Win NT & 2000

Used output format : Internal WAV RoutinesSample format : 44.100 Hz; 16 Bit; Stereo

TOC of the extracted CD

Track | Start | Length | Start sector | End sector --------------------------------------------------------- 1 | 0:00.00 | 4:07.42 | 0 | 18566 2 | 4:07.42 | 4:19.63 | 18567 | 38054 3 | 8:27.30 | 4:07.30 | 38055 | 56609 4 | 12:34.60 | 4:18.07 | 56610 | 75966

Range status and errors

Selected range

Filename C:\Users\FK\Documents\新增資料夾\μ's - No brand girls , START- DASH!!.wav

Peak level 100.0 % Extraction speed 1.3 X Range quality 100.0 % Test CRC 9E39EA5D Copy CRC 9E39EA5D Copy OK

No errors occurred

End of status report

---- CUETools DB Plugin V2.1.3

[CTDB TOCID: wMiNIIEXEjOb7nivXpBvCEPjxP0-] disk not present in database, Submit result: wMiNIIEXEjOb7nivXpBvCEPjxP0- has been uploaded

==== Log checksum 541FAE584590628E94EB154614C3614F12005CA14E0810F9031B05B147BB6B16 ====
[/spoiler]
Дата выпуска: 10 апреля 2013 г.
Каталог: LACA-9281~2
Тип рипа: image+.cue
Продолжительность: 2.25.06
Наличие сканов в содержимом раздачи: да
Продолжительность: 1.14.01
Треклист:
1) 始まりの朝;
2) (絶望);
3) 僕らは今のなかで(TVサイズ)[オープニングテーマ];
4) ルンルン↑どんより;
5) ゆったりお昼休み;
6) ん???;
7) 過ぎ去りし日々;
8) 朝練;
9) Private Wars;
10) 理事長への談判;
11) 愛してるばんざーい!;
12) 幼き日の夕陽;
13) ススメ→トゥモロウ(TVサイズ);
14) 前回のラブライブ!;
15) チグハグ;
16) 気まずい空気;
17) 作戦会議;
18) チェイス;
19) きらめき;
20) 憂いの夕暮れ;
21) 桜並木の通学路;
22) 真剣な眼差し;
23) START:DASH!!(Prepro Piano Mix)[第2話挿入歌];
24) きっと青春が聞こえる(TVサイズ・ことほのうみ)[第2話エンディングテーマ];
25) トホホ…;
26) 友情;
27) 作戦開始;
28) 誰もいない;
29) START:DASH!!(TVサイズ)[第3話挿入歌];
30) 悲しみの夜;
31) 軽やかな昼下がり;
32) 花陽の決意;
33) 楽しい部活;
34) きっと青春が聞こえる(TVサイズ・まきりんぱな)[第4話エンディングテーマ].
Exact Audio Copy V1.0 beta 3 from 29. August 2011

EAC extraction logfile from 21. April 2013, 2:13

Unknown Artist / Unknown Title

Used drive : PIONEER DVD-RW DVR-220L Adapter: 2 ID: 0

Read mode : SecureUtilize accurate stream : YesDefeat audio cache : YesMake use of C2 pointers : No

Read offset correction : 667Overread into Lead-In and Lead-Out : NoFill up missing offset samples with silence : YesDelete leading and trailing silent blocks : NoNull samples used in CRC calculations : YesUsed interface : Native Win32 interface for Win NT & 2000

Used output format : Internal WAV RoutinesSample format : 44.100 Hz; 16 Bit; Stereo

TOC of the extracted CD

Track | Start | Length | Start sector | End sector --------------------------------------------------------- 1 | 0:00.00 | 1:57.14 | 0 | 8788 2 | 1:57.14 | 1:47.67 | 8789 | 16880 3 | 3:45.06 | 1:33.57 | 16881 | 23912 4 | 5:18.63 | 1:40.39 | 23913 | 31451 5 | 6:59.27 | 2:05.08 | 31452 | 40834 6 | 9:04.35 | 1:45.47 | 40835 | 48756 7 | 10:50.07 | 1:59.44 | 48757 | 57725 8 | 12:49.51 | 2:27.72 | 57726 | 68822 9 | 15:17.48 | 3:26.28 | 68823 | 84300 10 | 18:44.01 | 2:29.13 | 84301 | 95488 11 | 21:13.14 | 1:55.60 | 95489 | 104173 12 | 23:08.74 | 2:57.16 | 104174 | 117464 13 | 26:06.15 | 2:03.64 | 117465 | 126753 14 | 28:10.04 | 0:30.56 | 126754 | 129059 15 | 28:40.60 | 1:49.55 | 129060 | 137289 16 | 30:30.40 | 1:45.59 | 137290 | 145223 17 | 32:16.24 | 2:06.50 | 145224 | 154723 18 | 34:22.74 | 2:17.24 | 154724 | 165022 19 | 36:40.23 | 1:47.27 | 165023 | 173074 20 | 38:27.50 | 2:42.08 | 173075 | 185232 21 | 41:09.58 | 2:04.62 | 185233 | 194594 22 | 43:14.45 | 2:08.70 | 194595 | 204264 23 | 45:23.40 | 1:56.30 | 204265 | 212994 24 | 47:19.70 | 1:42.40 | 212995 | 220684 25 | 49:02.35 | 2:26.53 | 220685 | 231687 26 | 51:29.13 | 2:28.21 | 231688 | 242808 27 | 53:57.34 | 2:13.62 | 242809 | 252845 28 | 56:11.21 | 2:44.59 | 252846 | 265204 29 | 58:56.05 | 3:06.73 | 265205 | 279227 30 | 62:03.03 | 2:34.14 | 279228 | 290791 31 | 64:37.17 | 2:54.31 | 290792 | 303872 32 | 67:31.48 | 3:02.53 | 303873 | 317575 33 | 70:34.26 | 1:42.45 | 317576 | 325270 34 | 72:16.71 | 1:43.70 | 325271 | 333065

Range status and errors

Selected range

Filename C:\Users\Administrator\Desktop\Unknown Artist - Unknown Title.wav

Peak level 96.6 % Extraction speed 8.2 X Range quality 99.9 % Test CRC 8AC3C7E3 Copy CRC 8AC3C7E3 Copy OK

No errors occurred

End of status report

==== Log checksum 9EBFA49190DF3EB860283CB42E6F2775388C540D2EDA5D634545C1CC4AC8E38E ====
Продолжительность: 1.11.05
Треклист:
1) 不審者、にこ;
2) >ω</;
3) 説明しましょう!;
4) 強き者;
5) にこの過去;
6) きっと青春が聞こえる(TVサイズ・にこソロ)[第5話エンディングテーマ];
7) これからのSomeday(TVサイズ)[第6話挿入歌];
8) きっと青春が聞こえる(TVサイズ・にこりんぱなまきことほのうみ)[第6話エンディングテーマ];
9) ラブライブ!開催!!;
10) 亜里沙;
11) きっと青春が聞こえる(TVサイズ・えりのぞ)[第7話挿入歌];
12) 明日の勝利のために;
13) 絵里のやりたいこと;
14) μ'sのはじまり;
15) 僕らのLIVE 君とのLIFE(TVサイズ)[第8話挿入歌];
16) メイド喫茶;
17) ミナリンスキー;
18) 大切なもの;
19) Wonder zone(TVサイズ)[第9話挿入歌];
20) きっと青春が聞こえる(TVサイズ・ことりソロ)[第9話エンディングテーマ];
21) アブないMermaid festa;
22) ドタバタコメディ;
23) 逆境からのスタート;
24) No brand girls(TVサイズ)[第11話挿入歌];
25) 嵐の予感;
26) 未練;
27) はなればなれ;
28) きっと青春が聞こえる(TVサイズ・穂乃果ソロ)[第12話挿入歌];
29) 新しい場所へ;
30) アキバ探訪;
31) アキバの日常;
32) Dance! Dance! Dance!;
33) START:DASH!!(TVサイズ)[第13話挿入歌];
34) きっと青春が聞こえる(TVサイズ)[第3・8・10・11・13話エンディングテーマ].
Exact Audio Copy V1.0 beta 3 from 29. August 2011

EAC extraction logfile from 21. April 2013, 11:09

Unknown Artist / Unknown Title

Used drive : PIONEER DVD-RW DVR-220L Adapter: 2 ID: 0

Read mode : SecureUtilize accurate stream : YesDefeat audio cache : YesMake use of C2 pointers : No

Read offset correction : 667Overread into Lead-In and Lead-Out : NoFill up missing offset samples with silence : YesDelete leading and trailing silent blocks : NoNull samples used in CRC calculations : YesUsed interface : Native Win32 interface for Win NT & 2000

Used output format : Internal WAV RoutinesSample format : 44.100 Hz; 16 Bit; Stereo

TOC of the extracted CD

Track | Start | Length | Start sector | End sector --------------------------------------------------------- 1 | 0:00.00 | 2:09.24 | 0 | 9698 2 | 2:09.24 | 1:46.15 | 9699 | 17663 3 | 3:55.39 | 1:47.64 | 17664 | 25752 4 | 5:43.28 | 1:51.35 | 25753 | 34112 5 | 7:34.63 | 2:40.58 | 34113 | 46170 6 | 10:15.46 | 1:41.62 | 46171 | 53807 7 | 11:57.33 | 1:44.64 | 53808 | 61671 8 | 13:42.22 | 1:42.14 | 61672 | 69335 9 | 15:24.36 | 2:07.21 | 69336 | 78881 10 | 17:31.57 | 2:10.71 | 78882 | 88702 11 | 19:42.53 | 1:41.46 | 88703 | 96323 12 | 21:24.24 | 1:45.44 | 96324 | 104242 13 | 23:09.68 | 2:32.54 | 104243 | 115696 14 | 25:42.47 | 2:02.48 | 115697 | 124894 15 | 27:45.20 | 2:27.14 | 124895 | 135933 16 | 30:12.34 | 1:46.13 | 135934 | 143896 17 | 31:58.47 | 2:01.45 | 143897 | 153016 18 | 34:00.17 | 2:23.13 | 153017 | 163754 19 | 36:23.30 | 1:59.04 | 163755 | 172683 20 | 38:22.34 | 1:42.38 | 172684 | 180371 21 | 40:04.72 | 2:05.03 | 180372 | 189749 22 | 42:10.00 | 2:18.68 | 189750 | 200167 23 | 44:28.68 | 2:19.37 | 200168 | 210629 24 | 46:48.30 | 1:41.17 | 210630 | 218221 25 | 48:29.47 | 1:44.17 | 218222 | 226038 26 | 50:13.64 | 2:18.44 | 226039 | 236432 27 | 52:32.33 | 3:12.34 | 236433 | 250866 28 | 55:44.67 | 1:43.44 | 250867 | 258635 29 | 57:28.36 | 3:05.50 | 258636 | 272560 30 | 60:34.11 | 2:03.20 | 272561 | 281805 31 | 62:37.31 | 2:01.31 | 281806 | 290911 32 | 64:38.62 | 1:36.04 | 290912 | 298115 33 | 66:14.66 | 3:05.13 | 298116 | 312003 34 | 69:20.04 | 1:44.43 | 312004 | 319846

Range status and errors

Selected range

Filename C:\Users\Administrator\Desktop\Unknown Artist - Unknown Title.wav

Peak level 96.6 % Extraction speed 8.2 X Range quality 100.0 % Test CRC 008CB95B Copy CRC 008CB95B Copy OK

No errors occurred

End of status report

==== Log checksum F20C2CF5C0352ABBA4CB6A916C4E574990902516525B54A28629241FD65DB703 ====
[spoiler="[AR] Love Live! - M's Best Album Best Live! Collection"]
Дата выпуска: 09 января 2013 г.
Каталог: LACA-39262~3
Тип рипа: image+.cue
Продолжительность: 2.15.01
Наличие сканов в содержимом раздачи: да
Продолжительность: 1.02.23
Треклист:
1) 僕らのLIVE 君とのLIFE;
2) 友情ノーチェンジ;
3) Snow halation;
4) baby maybe 恋のボタン;
5) Love marginal;
6) sweet&sweet holiday;
7) ダイヤモンドプリンセスの憂鬱;
8) ラブノベルス;
9) 知らないLove*教えてLove;
10) あ・の・ね・が・ん・ば・れ!;
11) 夏色えがおで1,2,Jump!;
12) Mermaid festa vol.1;
13) もぎゅっと''love''で接近中!;
14) 愛してるばんざーい!.
Exact Audio Copy V0.99 prebeta 5 from 4. May 2009

EAC 取り込みログファイル 日付 : 15. 1月 2013, 23:50

- / Disc1

使用ドライブ : PIONEER BD-RW BDR-205 Adapter: 0 ID: 1

読み込みモード : セキュアモードドライブが正確なデータ転送能力を持つ : はいオーディオキャッシュを使用できる : はいC2エラー情報を検出する : いいえ

読み込みサンプルオフセット訂正値 : 637リードイン・リードアウトをオーバーリードする : いいえ欠落したオフセットサンプルを無音で補完する : はい曲の先頭と末端の無音領域を削除する : いいえCRC計算で無音のサンプルを使用するか : はい使用インターフェース : Win NT & 2000用のクラスドライバ

使用出力モード : 内蔵WAV出力ルーチンサンプルフォーマット : 44.100 Hz; 16 Bit; ステレオ

TOC情報を抜き出します

トラック | スタート | 長さ | 始めのセクター | 最終セクター ---------------------------------------------------------------- 1 | 0:00.00 | 5:24.25 | 0 | 24324 2 | 5:24.25 | 4:16.23 | 24325 | 43547 3 | 9:40.48 | 4:20.20 | 43548 | 63067 4 | 14:00.68 | 4:30.62 | 63068 | 83379 5 | 18:31.55 | 4:35.25 | 83380 | 104029 6 | 23:07.05 | 4:17.13 | 104030 | 123317 7 | 27:24.18 | 3:54.40 | 123318 | 140907 8 | 31:18.58 | 3:40.52 | 140908 | 157459 9 | 34:59.35 | 4:00.57 | 157460 | 175516 10 | 39:00.17 | 4:17.26 | 175517 | 194817 11 | 43:17.43 | 4:29.00 | 194818 | 214992 12 | 47:46.43 | 3:59.42 | 214993 | 232959 13 | 51:46.10 | 5:44.43 | 232960 | 258802 14 | 57:30.53 | 4:52.43 | 258803 | 280745

範囲取り込みステータス & エラー

選択された範囲

ファイル名 F:\EAC\ラブライブ! - μ’s ベストアルバム (2tak+BDMV)\Disc1.wav

ピークレベル 100.0 % 範囲取り込み品質 100.0 % コピーCRC 4F6AE618 コピー OK

エラーは発生しませんでした

ステータス報告完了
Продолжительность: 1.12.38
Треклист:
1) Wonderful Rush;
2) Oh,Love&Peace!;
3) Mermaid festa vol.2 ~Passionate~;
4) Someday of my life;
5) 恋のシグナルRin rin rin!;
6) 乙女式れんあい塾;
7) まほうつかいはじめました!;
8) 純愛レンズ;
9) 告白日和、です!;
10) ぶる~べりぃ とれいん;
11) 孤独なHeaven;
12) soldier game;
13) Daring!!;
14) 勇気のReason;
15) ありふれた悲しみの果て;
16) Listen to my heart!!;
17) after school NAVIGATORS.
Exact Audio Copy V0.99 prebeta 5 from 4. May 2009

EAC 取り込みログファイル 日付 : 16. 1月 2013, 0:02

- / Disc2

使用ドライブ : PIONEER BD-RW BDR-205 Adapter: 0 ID: 1

読み込みモード : セキュアモードドライブが正確なデータ転送能力を持つ : はいオーディオキャッシュを使用できる : はいC2エラー情報を検出する : いいえ

読み込みサンプルオフセット訂正値 : 637リードイン・リードアウトをオーバーリードする : いいえ欠落したオフセットサンプルを無音で補完する : はい曲の先頭と末端の無音領域を削除する : いいえCRC計算で無音のサンプルを使用するか : はい使用インターフェース : Win NT & 2000用のクラスドライバ

使用出力モード : 内蔵WAV出力ルーチンサンプルフォーマット : 44.100 Hz; 16 Bit; ステレオ

TOC情報を抜き出します

トラック | スタート | 長さ | 始めのセクター | 最終セクター ---------------------------------------------------------------- 1 | 0:00.00 | 4:44.15 | 0 | 21314 2 | 4:44.15 | 5:00.25 | 21315 | 43839 3 | 9:44.40 | 5:25.15 | 43840 | 68229 4 | 15:09.55 | 4:28.15 | 68230 | 88344 5 | 19:37.70 | 4:23.00 | 88345 | 108069 6 | 24:00.70 | 3:21.45 | 108070 | 123189 7 | 27:22.40 | 4:03.65 | 123190 | 141479 8 | 31:26.30 | 4:34.67 | 141480 | 162096 9 | 36:01.22 | 3:38.40 | 162097 | 178486 10 | 39:39.62 | 3:51.21 | 178487 | 195832 11 | 43:31.08 | 4:38.72 | 195833 | 216754 12 | 48:10.05 | 3:42.03 | 216755 | 233407 13 | 51:52.08 | 3:32.52 | 233408 | 249359 14 | 55:24.60 | 3:52.60 | 249360 | 266819 15 | 59:17.45 | 4:03.45 | 266820 | 285089 16 | 63:21.15 | 4:28.55 | 285090 | 305244 17 | 67:49.70 | 4:48.10 | 305245 | 326854

範囲取り込みステータス & エラー

選択された範囲

ファイル名 F:\EAC\ラブライブ! - μ’s ベストアルバム (2tak+BDMV)\Disc2.wav

ピークレベル 100.0 % 範囲取り込み品質 100.0 % コピーCRC 56951E77 コピー OK

エラーは発生しませんでした

ステータス報告完了
[/spoiler]
Дата выпуска: 22 марта 2013 г.
Каталог: BCXA-0697
Тип рипа: image+.cue
Продолжительность: 08.11
Наличие сканов в содержимом раздачи: да
Треклист:
1) Yume Naki Yume wa Yume Janai;
2) Yume Naki Yume wa Yume Janai (Off Vocal).
-----------------------

DON'T MODIFY THIS FILE

-----------------------

PERFORMER: auCDtect Task Manager, ver. 1.5.1RC6 build 1.5.1.7Copyright (c) 2008-2010 y-soft. All rights reservedhttp://y-soft.org

ANALYZER: auCDtect: CD records authenticity detector, version 0.8.2Copyright (c) 2004 Oleg Berngardt. All rights reserved.Copyright (c) 2004 Alexander Djourik. All rights reserved.

FILE: Yume Naki Yume wa Yume Janai.flac Size: 70162140 Hash: E7992CE63A1E2FBC5689CE43986CC12E Accuracy: -m0 Conclusion: MPEG 79% Signature: E615369EB9DA7B99934DAD396B50428C3084F566
Дата выпуска: 24 апреля 2013 г.
Каталог: BCXA-0698
Тип рипа: image+.cue
Продолжительность: 07.35
Наличие сканов в содержимом раздачи: да
Треклист:
1) Anemone heart;
2) Anemone heart (Off Vocal).
-----------------------

DON'T MODIFY THIS FILE

-----------------------

PERFORMER: auCDtect Task Manager, ver. 1.5.1RC6 build 1.5.1.7Copyright (c) 2008-2010 y-soft. All rights reservedhttp://y-soft.org

ANALYZER: auCDtect: CD records authenticity detector, version 0.8.2Copyright (c) 2004 Oleg Berngardt. All rights reserved.Copyright (c) 2004 Alexander Djourik. All rights reserved.

FILE: Anemone heart.flac Size: 64447443 Hash: 02F71724DDC6ACEAA4DC71542560E400 Accuracy: -m0 Conclusion: CDDA 100% Signature: CFD3F721D22593DA2A7F9016345B75EA750BFC3C
Дата выпуска: 28 мая 2013 г.
Каталог: BCXA-0699
Тип рипа: image+.cue
Продолжительность: 12.04
Наличие сканов в содержимом раздачи: да
Треклист:
1) なわとび;
2) なわとび (Off Vocal).
Exact Audio Copy V0.99 prebeta 5 from 4. May 2009

EAC extraction logfile from 29. May 2013, 13:02

- / μ'sオリジナルソング(3)

Used drive : TSSTcorpDVD-RW SH-216AB Adapter: 0 ID: 1

Read mode : SecureUtilize accurate stream : YesDefeat audio cache : YesMake use of C2 pointers : No

Read offset correction : 6Overread into Lead-In and Lead-Out : NoFill up missing offset samples with silence : YesDelete leading and trailing silent blocks : NoNull samples used in CRC calculations : NoUsed interface : Native Win32 interface for Win NT & 2000

Used output format : Internal WAV RoutinesSample format : 44.100 Hz; 16 Bit; Stereo

TOC of the extracted CD

Track | Start | Length | Start sector | End sector --------------------------------------------------------- 1 | 0:00.00 | 6:02.35 | 0 | 27184 2 | 6:02.35 | 6:01.22 | 27185 | 54281

Range status and errors

Selected range

Filename C:\Users\Kenneth\Desktop\LOVE LIVE.wav

Peak level 100.0 % Range quality 100.0 % Copy CRC 72E032EC Copy OK

No errors occurred

End of status report
Дата выпуска: 21 июня 2013 г.
Каталог: BCXA-0700
Тип рипа: image+.cue
Продолжительность: 08.23
Наличие сканов в содержимом раздачи: да
Треклист:
1) Beat in Angel;
2) Beat in Angel (Off Vocal).
Exact Audio Copy V0.99 prebeta 5 from 4. May 2009

EAC extraction logfile from 21. June 2013, 23:37

- / μ'soriginal CD(4)

Used drive : TSSTcorpDVD-RW SH-216AB Adapter: 0 ID: 1

Read mode : SecureUtilize accurate stream : YesDefeat audio cache : YesMake use of C2 pointers : No

Read offset correction : 6Overread into Lead-In and Lead-Out : NoFill up missing offset samples with silence : YesDelete leading and trailing silent blocks : NoNull samples used in CRC calculations : NoUsed interface : Native Win32 interface for Win NT & 2000

Used output format : Internal WAV RoutinesSample format : 44.100 Hz; 16 Bit; Stereo

TOC of the extracted CD

Track | Start | Length | Start sector | End sector --------------------------------------------------------- 1 | 0:00.00 | 4:12.05 | 0 | 18904 2 | 4:12.05 | 4:10.65 | 18905 | 37719

Range status and errors

Selected range

Filename C:\Users\Kenneth\Desktop\μ'soriginal CD(4).wav

Peak level 100.0 % Range quality 100.0 % Copy CRC 4C1691D1 Copy OK

No errors occurred

End of status report
Дата выпуска: 26 июля 2013 г.
Каталог: BCXA-0701
Тип рипа: image+.cue
Продолжительность: 08.48
Наличие сканов в содержимом раздачи: да
Треклист:
1) にこぷり(白抜きハート)女子道;
2) にこぷり(白抜きハート)女子道 (Off Vocal).
Exact Audio Copy V0.99 prebeta 5 from 4. May 2009

EAC extraction logfile from 26. July 2013, 21:14

μ's オリジナルソングCD5

Used drive : TSSTcorpDVD-RW SH-216AB Adapter: 0 ID: 1

Read mode : SecureUtilize accurate stream : YesDefeat audio cache : YesMake use of C2 pointers : No

Read offset correction : 6Overread into Lead-In and Lead-Out : NoFill up missing offset samples with silence : YesDelete leading and trailing silent blocks : NoNull samples used in CRC calculations : NoUsed interface : Native Win32 interface for Win NT & 2000

Used output format : Internal WAV RoutinesSample format : 44.100 Hz; 16 Bit; Stereo

TOC of the extracted CD

Track | Start | Length | Start sector | End sector --------------------------------------------------------- 1 | 0:00.00 | 4:24.73 | 0 | 19872 2 | 4:24.73 | 4:23.33 | 19873 | 39630

Range status and errors

Selected range

Filename C:\Users\Kenneth\Desktop\μ's オリジナルソングCD5.wav

Peak level 100.0 % Range quality 100.0 % Copy CRC 1E8F7F07 Copy OK

No errors occurred

AccurateRip summary

Track 1 not present in databaseTrack 2 not present in database

None of the tracks are present in the AccurateRip database

End of status report
[spoiler="[AR] Love Live! BD6 Original Song CD"]
Дата выпуска: 28 августа 2013 г.
Каталог: BCXA-0702
Тип рипа: image+.cue
Продолжительность: 09.08
Наличие сканов в содержимом раздачи: да
Треклист:
1) 硝子の花園;
2) 硝子の花園 (Off Vocal).
Exact Audio Copy V1.0 beta 3 from 29. August 2011

EAC extraction logfile from 31. August 2013, 15:42

μ'sオリジナルソングCD⑥

Used drive : TSSTcorpDVD-RW SH-216AB Adapter: 0 ID: 1

Read mode : SecureUtilize accurate stream : YesDefeat audio cache : YesMake use of C2 pointers : No

Read offset correction : 6Overread into Lead-In and Lead-Out : NoFill up missing offset samples with silence : YesDelete leading and trailing silent blocks : NoNull samples used in CRC calculations : YesUsed interface : Native Win32 interface for Win NT & 2000

Used output format : Internal WAV RoutinesSample format : 44.100 Hz; 16 Bit; Stereo

TOC of the extracted CD

Track | Start | Length | Start sector | End sector --------------------------------------------------------- 1 | 0:00.00 | 4:34.23 | 0 | 20572 2 | 4:34.23 | 4:33.35 | 20573 | 41082

Range status and errors

Selected range

Filename C:\Users\Kenneth\Desktop\μ'sオリジナルソングCD⑥.wav

Peak level 100.0 % Extraction speed 1.9 X Range quality 99.9 % Copy CRC 13091127 Copy OK

No errors occurred

AccurateRip summary

Track 1 not present in databaseTrack 2 not present in database

None of the tracks are present in the AccurateRip database

End of status report

---- CUETools DB Plugin V2.1.4

[CTDB TOCID: ipoROuNbTmG0b79pmbN1VQnJ7EQ-] foundSubmit result: ipoROuNbTmG0b79pmbN1VQnJ7EQ- has been confirmedTrack | CTDB Status 1 | (5/5) Accurately ripped 2 | (5/5) Accurately ripped

==== Log checksum 8EAE8E9CCE2535A501C0673FF576DAD9DB1A749B2B4C8F1A88D190FE56643817 ====
[/spoiler]
[spoiler="[AR] Love Live! BD7 Original Song CD"]
Дата выпуска: 25 сентября 2013 г.
Каталог: BCXA-0703
Тип рипа: image+.cue
Продолжительность: 09.58
Наличие сканов в содержимом раздачи: да
Треклист:
1) LONELIEST BABY;
2) LONELIEST BABY (off vocal).
Exact Audio Copy V1.0 beta 3 from 29. August 2011

EAC extraction logfile from 25. September 2013, 11:21

μ's オリジナルソングCD7

Used drive : TSSTcorpDVD-RW SH-216AB Adapter: 0 ID: 1

Read mode : SecureUtilize accurate stream : YesDefeat audio cache : YesMake use of C2 pointers : No

Read offset correction : 6Overread into Lead-In and Lead-Out : NoFill up missing offset samples with silence : YesDelete leading and trailing silent blocks : NoNull samples used in CRC calculations : YesUsed interface : Native Win32 interface for Win NT & 2000

Used output format : Internal WAV RoutinesSample format : 44.100 Hz; 16 Bit; Stereo

TOC of the extracted CD

Track | Start | Length | Start sector | End sector --------------------------------------------------------- 1 | 0:00.00 | 4:59.38 | 0 | 22462 2 | 4:59.38 | 4:58.08 | 22463 | 44820

Range status and errors

Selected range

Filename C:\Users\Kenneth\Desktop\μ's オリジナルソングCD7.wav

Peak level 100.0 % Extraction speed 2.0 X Range quality 99.9 % Copy CRC C765D5A7 Copy OK

No errors occurred

AccurateRip summary

Track 1 not present in databaseTrack 2 not present in database

None of the tracks are present in the AccurateRip database

End of status report

---- CUETools DB Plugin V2.1.4

[CTDB TOCID: 8oz_ODUvW.JZrl2yo8kXR5SxMMg-] foundSubmit result: 8oz_ODUvW.JZrl2yo8kXR5SxMMg- has been confirmedTrack | CTDB Status 1 | (2/2) Accurately ripped 2 | (2/2) Accurately ripped

==== Log checksum 69DFFE62672108DB1E81CFAD1FC7C2656CF72668BF3B7E71441AE36F16FAA01F ====
[/spoiler]
Дата выпуска: 25 сентября 2013 г.
Каталог: BCXA-0704
Тип рипа: image+.cue
Продолжительность: 07.21
Наличие сканов в содержимом раздачи: да
Треклист:
1) puwapuwa-a!;
2) puwapuwa-a! (Off Vocal).
EAC 展開 ログファイル 日付: 19. 10月 2013, 1:33 for CD不明なアーティスト / 不明なタイトル

使用ドライブ : ASUS BC-12B1ST Adapter: 2 ID: 0読み込みモード : セキュア(C2 : NO / 正確なデータ転送力 : YES / キャッシュ無効 : YES)読み込みオフセット訂正値 : 0リードインとリードアウトをオーバーリードする : No

使用出力フォーマット : 内部 WAV ルーチン 44.100 Hz; 16 Bit; ステレオ

その他のオプション : 消失したオフセットサンプルを無音に置き換える : Yes 曲の先頭と末尾の無音部を削除する : No 標準 Win32 の Win NT & 2000 用

トラック 1 ファイル名 C:\Users\user\Desktop\Track01.wav

ピークレベル 100.0 % トラック品質 100.0 % コピー CRC E961281E コピー OK

トラック 2 ファイル名 C:\Users\user\Desktop\Track02.wav

ピークレベル 100.0 % トラック品質 100.0 % コピー CRC 01AB76D4 コピー OK

エラーは検出されませんでした

ステータスの報告終了
[spoiler="[AR] Love Live! Unit Single 2nd session - Binetsu kara Mystery"]
Дата выпуска: 26 июня 2013 г.
Каталог: LACM-14101
Тип рипа: image+.cue
Продолжительность: 27.25
Наличие сканов в содержимом раздачи: да
Треклист:
1) 微熱からMystery;
2) キミのくせに!;
3) 微熱からMystery -Off Vocal-;
4) キミのくせに! -Off Vocal-;
5) プールでトレーニング!? -Mini Drama-.
Exact Audio Copy V1.0 beta 3 from 29. August 2011

EAC 取り込みログファイル 日付 : 26. 6月 2013, 8:06

- / 微熱からMystery

使用ドライブ : PIONEER BD-RW BDR-205 Adapter: 0 ID: 1

読み込みモード : セキュアモードドライブが正確なデータ転送能力を持つ : はいオーディオキャッシュを使用できる : はいC2エラー情報を検出する : いいえ

読み込みサンプルオフセット訂正値 : 637リードイン・リードアウトをオーバーリードする : いいえ欠落したオフセットサンプルを無音で補完する : はい曲の先頭と末端の無音領域を削除する : いいえCRC計算で無音のサンプルを使用するか : はい使用インターフェース : XP/Vista/Win 7のWin32標準インターフェイス

使用出力モード : 内蔵WAV出力ルーチンサンプルフォーマット : 44.100 Hz; 16 Bit; ステレオ

TOC情報を抜き出します

トラック | スタート | 長さ | 始めのセクター | 最終セクター ----------------------------------------------- 1 | 0:00.00 | 3:21.20 | 0 | 15094 2 | 3:21.20 | 4:01.38 | 15095 | 33207 3 | 7:22.58 | 3:21.10 | 33208 | 48292 4 | 10:43.68 | 4:01.37 | 48293 | 66404 5 | 14:45.30 | 12:39.25 | 66405 | 123354

範囲取り込みステータス & エラー

選択された範囲

ファイル名 F:\EAC\ラブライブ! School idol project_微熱からMystery/lily white ~園田海未・星空凛・東條希~ (tak)\微熱からMystery.wav

ピークレベル 100.0 % 取り込みスピード 5.9 X 範囲取り込み品質 99.9 % コピーCRC C9314D48 コピー OK

エラーは発生しませんでした

ステータス報告完了
[/spoiler]
[spoiler="[AR] Love Live! Unit Single 2nd session - Cutie Panther"]
Дата выпуска: 24 июля 2013 г.
Каталог: LACM-14102
Тип рипа: image+.cue
Продолжительность: 33.05
Наличие сканов в содержимом раздачи: да
Треклист:
1) Cutie Panther
2) 夏、終わらないで。
3) Cutie Panther (Off Vocal)
4) 夏、終わらないで。 (Off Vocal)
5) プールでウェイトレス!? (ミニドラマ).
Exact Audio Copy V1.0 beta 3 from 29. August 2011

EAC extraction logfile from 4. August 2013, 4:13

Unknown Artist / Unknown Title

Used drive : HL-DT-STDVD-RAM GSA-H58N Adapter: 0 ID: 0

Read mode : SecureUtilize accurate stream : YesDefeat audio cache : YesMake use of C2 pointers : No

Read offset correction : 6Overread into Lead-In and Lead-Out : NoFill up missing offset samples with silence : YesDelete leading and trailing silent blocks : NoNull samples used in CRC calculations : YesUsed interface : Native Win32 interface for Win NT & 2000

Used output format : Internal WAV RoutinesSample format : 44.100 Hz; 16 Bit; Stereo

TOC of the extracted CD

Track | Start | Length | Start sector | End sector --------------------------------------------------------- 1 | 0:00.00 | 4:33.13 | 0 | 20487 2 | 4:33.13 | 4:04.62 | 20488 | 38849 3 | 8:38.00 | 4:33.00 | 38850 | 59324 4 | 13:11.00 | 4:04.63 | 59325 | 77687 5 | 17:15.63 | 15:48.53 | 77688 | 148840

Range status and errors

Selected range

Filename C:\Documents and Settings\Dream\바탕 화면\LACM-14102.wav

Peak level 100.0 % Extraction speed 2.2 X Range quality 99.9 % Copy CRC A8A60BF4 Copy OK

No errors occurred

End of status report

---- CUETools DB Plugin V2.1.3

[CTDB TOCID: Ih__5bB747jYysLDVRwggqde_b0-] found, Submit result: already submitted[97ff1a8a] (17/17) Accurately ripped

==== Log checksum ECAB433C465A5D64301A89D4B8445FDABC415BE4397EB1F0C94567E8B60D50C1 ====
[/spoiler]
[spoiler="[AR] Love Live! Unit Single 2nd session - Pure girls project"]
Дата выпуска: 21 августа 2013 г.
Каталог: LACM-14103
Тип рипа: image+.cue
Продолжительность: 07.35
Наличие сканов в содержимом раздачи: да
Треклист:
1) Pure girls project;
2) UNBALANCED LOVE;
3) Pure girls project(Off Vocal);
4) UNBALANCED LOVE(Off Vocal);
5) プールでオンステージ!(ミニドラマ).
Exact Audio Copy V1.0 beta 3 from 29. August 2011

EAC extraction logfile from 25. August 2013, 23:37

Unknown Artist / Unknown Title

Used drive : PIONEER DVD-RW DVR-220L Adapter: 2 ID: 0

Read mode : SecureUtilize accurate stream : YesDefeat audio cache : YesMake use of C2 pointers : No

Read offset correction : 6Overread into Lead-In and Lead-Out : NoFill up missing offset samples with silence : YesDelete leading and trailing silent blocks : NoNull samples used in CRC calculations : YesUsed interface : Native Win32 interface for Win NT & 2000

Used output format : Internal WAV RoutinesSample format : 44.100 Hz; 16 Bit; Stereo

TOC of the extracted CD

Track | Start | Length | Start sector | End sector --------------------------------------------------------- 1 | 0:00.00 | 4:36.73 | 0 | 20772 2 | 4:36.73 | 4:30.37 | 20773 | 41059 3 | 9:07.35 | 4:36.60 | 41060 | 61819 4 | 13:44.20 | 4:30.38 | 61820 | 82107 5 | 18:14.58 | 14:42.47 | 82108 | 148304

Range status and errors

Selected range

Filename C:\Users\Administrator\Desktop\Unknown Artist - Unknown Title.wav

Peak level 100.0 % Extraction speed 6.3 X Range quality 99.9 % Test CRC 26108E7A Copy CRC 26108E7A Copy OK

No errors occurred

End of status report

==== Log checksum DAF569605F3B8E4D5E84FF7AB32E3264EEE20471B1AF1A1E41DB57C70C5861C6 ====
[/spoiler]

[AR] — данное обозначение свидетельствует о том, что рип сделан в соответствии с [url=...3583832]данными[/url] настройками и является максимально точным.
В: Когда тут появится "N-ый" альбом?
О: После его выхода (узнать дату выхода можно, например, на cdjapan), загрузки в интернеты и появления у меня свободного времени.

В: Почему скорость маленькая?
О: Моя исходящая скорость равна 1мбиту, ничего с этим поделать не могу.

В: А как называется трек из "N-ой" серии, играющий на "X" минуте?
О: Рекомендую скачать саундтрек и поискать самим — быстрее будет.

В: Почему треки не разделены?
О: Правилами запрещено менять форм-фактор. Да и раздачи образом мне больше нравятся, если честно.

В: Я нашёл ошибку в оформлении/раздаче.
О: Пожалуйста, напишите мне в личку об этом.

В: Как можно отслеживать релизы?
О: Либо используя фид на весь раздел остов в лосе (или только мои релизы), либо в твиттере (в нём ещё буду писать, что в планах на будущее).


Трекер:  [ 27-Ноя-2014 11:00 ]

  

Скачать .torrent

Размер .torrent файла 64 KB


Размер: 5.65 GB
Хэш (hash) релиза: 8b1f462a0b91c3cd0ce1b7acee52c97b9a298737

Торренты, похожие на Love Live! School Idol Project скачать торрент

Форум Название Автор Размер S L Добавлен
Саундтреки к аниме (mp3) ·· (OST) Живая Любовь! Проект Школьный Идол / Love Live! School Idol Project / Love Live! The School Idol Movie / Love Live! Sunshine!! - 2013-2017 г., MP3 (tracks), 320 kbps (87CD) Galfimbul 81614160977.6 GB 0 0 1496949854

22:24

8-Июн-17

Саундтреки к аниме (mp3) ·· (OST) Живая Любовь! Проект Школьный Идол / Love Live! School Idol Project / Love Live! The School Idol Movie / Love Live! Sunshine!! - 2013-2017 г., MP3 (tracks), 320 kbps (87CD) Galfimbul 78888068337.35 GB 0 0 1488278087

13:34

28-Фев-17

Саундтреки к аниме (mp3) ·· (OST) Живая Любовь! Проект Школьный Идол / Love Live! School Idol Project / Love Live! The School Idol Movie / Love Live! Sunshine!! - 2013-2017 г., MP3 (tracks), 320 kbps (86CD) Galfimbul 78328991737.29 GB 0 0 1485511589

13:06

27-Янв-17

Саундтреки к аниме (mp3) ·· (OST) Живая Любовь! Проект Школьный Идол / Love Live! School Idol Project / Love Live! The School Idol Movie / Love Live! Sunshine!! - 2013-2016 г., MP3 (tracks), 320 kbps (84CD) Galfimbul 76522930777.13 GB 0 0 1483087172

11:39

30-Дек-16

Саундтреки к аниме (mp3) ·· (OST) Живая Любовь! Проект Школьный Идол / Love Live! School Idol Project / Love Live! The School Idol Movie / Love Live! Sunshine!! - 2013 - 2016 г., MP3 (tracks), 320 kbps [83CD] Galfimbul 76291356707.11 GB 0 0 1480614592

20:49

1-Дек-16

Саундтреки к аниме (mp3) ·· (OST) Живая Любовь! Проект Школьный Идол / Love Live! School Idol Project / Love Live! The School Idol Movie / Love Live! Sunshine!! - 2013 - 2016 г., MP3 (tracks), 320 kbps [81CD] Galfimbul 72150255746.72 GB 0 0 1480340967

16:49

28-Ноя-16

Саундтреки к аниме (mp3) ·· (OST) Живая Любовь! Проект Школьный Идол / Love Live! School Idol Project / Love Live! The School Idol Movie / Love Live! Sunshine!! - 2013 - 2016 г., MP3 (tracks), 320 kbps [80CD] Galfimbul 71777581296.68 GB 0 0 1478951787

14:56

12-Ноя-16

Саундтреки к аниме (mp3) ·· (OST) Живая Любовь! Проект Школьный Идол / Love Live! School Idol Project / Love Live! The School Idol Movie / Love Live! Sunshine!! - 2013 - 2016 г., MP3 (tracks), 320 kbps [79CD] Galfimbul 70826105656.6 GB 0 0 1477559803

12:16

27-Окт-16

Саундтреки к аниме (mp3) ·· (OST) Живая Любовь! Проект Школьный Идол / Love Live! School Idol Project / Love Live! The School Idol Movie / Love Live! Sunshine!! - 2013 - 2016 г., MP3 (tracks), 320 kbps [78CD] Galfimbul 70360052836.55 GB 0 0 1474889655

14:34

26-Сен-16

Саундтреки к аниме (mp3) ·· (OST) Живая Любовь! Проект Школьный Идол / Love Live! School Idol Project / Love Live! The School Idol Movie / Love Live! Sunshine!! - 2013 - 2016 г., MP3 (tracks), 320 kbps [77CD] Galfimbul 69900582246.51 GB 0 0 1474099346

11:02

17-Сен-16

Саундтреки к аниме (mp3) ·· (OST) Живая Любовь! Проект Школьный Идол / Love Live! School Idol Project / Love Live! The School Idol Movie / Love Live! Sunshine!! - 2013 - 2016 г., MP3 (tracks), 320 kbps [76CD] Galfimbul 69347378606.46 GB 0 0 1472096226

06:37

25-Авг-16

Саундтреки к аниме (mp3) ·· (OST) Живая Любовь! Проект Школьный Идол / Love Live! School Idol Project / Love Live! The School Idol Movie / Love Live! Sunshine!! - 2013 - 2016 г., MP3 (tracks), 320 kbps [75CD] Galfimbul 68865204616.41 GB 0 0 1469876194

13:56

30-Июл-16

Саундтреки к аниме (mp3) ·· (OST) Живая Любовь! Проект Школьный Идол / Love Live! School Idol Project / Love Live! The School Idol Movie / Love Live! Sunshine!! - 2013 - 2016 г., MP3 (tracks), 320 kbps [74CD] Galfimbul 68415205596.37 GB 0 0 1468665772

13:42

16-Июл-16

Саундтреки к аниме (mp3) ·· (OST) Живая Любовь! Проект Школьный Идол / Rabu Raibu! School Idol Project / Love Live! School Idol Project - 2013 - 2016 г., MP3 (tracks), 320 kbps [73CD] Galfimbul 67932218936.33 GB 0 0 1467638655

16:24

4-Июл-16

Саундтреки к аниме (mp3) ·· (OST) Живая Любовь! Проект Школьный Идол / Rabu Raibu! School Idol Project / Love Live! School Idol Project - 2013 - 2016 г., MP3 (tracks), 320 kbps [72CD] Galfimbul 66921875446.23 GB 0 0 1464775807

13:10

1-Июн-16

Саундтреки к аниме (mp3) ·· (OST) Живая Любовь! Проект Школьный Идол / Rabu Raibu! School Idol Project / Love Live! School Idol Project - 2013 - 2014 г., MP3 (tracks), 320 kbps [51CD] Galfimbul 48802199264.55 GB 0 0 1417064584

08:03

27-Ноя-14

Саундтреки к играм (mp3) ·· (Soundtrack) Love Live! School Idol Project (u's, Printemps, BiBi, lily white, Aqours) [10CD] - 2014 - 2016, MP3, 320 kbps Galfimbul 806703857769 MB 0 0 1479899552

14:12

23-Ноя-16

Саундтреки к играм (mp3) ·· (Soundtrack) Love Live! School Idol Project (u's, Printemps, BiBi, lily white) - 2014 - 2016, MP3, 320 kbps [9CD] Galfimbul 615107878587 MB 0 0 1464777492

13:38

1-Июн-16

Саундтреки к играм (mp3) ·· (Soundtrack) Love Live! School Idol Project (u's, Printemps, BiBi, lily white) - 2014 - 2016, MP3, 320 kbps [9CD] Galfimbul 615107878587 MB 0 0 1464774091

12:41

1-Июн-16

Саундтреки к аниме (lossless) ·· (OST) Love Live! School Idol Project [72CD+7DVD] [FLAC, image+.cue/tracks, lossless] [2013-2015 г.] Galfimbul 3039184228628.3 GB 0 0 1426126385

05:13

12-Мар-15

Еще никто не оставлял запись к записи скачать торрент Love Live! School Idol Project . Будь первым!

!Обратная связь