♫4 Non Blondes | Read More | Kama Sutra A Tale of Love (1996) Full Movie Download HD

Скачать через торрент музыку [Strawberry Panic Клубничная тревога! OST Collection] бесплатно без регистрации torrent

Статистика раздачи
Размер:  2.27 GB   |    Зарегистрирован:  3 года 7 месяцев   |    .torrent скачан:  36 раз   |   
Раздают:  1  
   
загрузка...
 
Автор Сообщение

Galfimbul

avatar Galfimbul


Клубничная тревога!Общие характеристики:
Производство:
Год выпуска: 2006
Формат: [url=...48706]FLAC[/url]
Частота: 44100Гц
Продолжительность: 115 треков - 6:14:06
Альбомы:
OST
Список треков:
01. Karei Naru Gakuen [1:54]
02. Mayoikon da Shoujo [1:25]
03. Uruwashiki Nin [1:23]
04. Hirogaru Joukei [1:14]
05. Yume no Mainichi [1:22]
06. Koi no Joukei [1:16]
07. Kibou [1:07]
08. Itsumo no Fuukei [1:26]
09. Kibou, Soshite Tokimeki he [1:09]
10. Kanashiki Kako [1:10]
11. Hiren [1:05]
12. Hitori Setsunaku [1:09]
13. Unmei [1:39]
14. Kinchou [1:18]
15. Utsukushiki Kyougaku [1:17]
16. Kokoro no Fuukei [1:21]
17. Kyoukai [1:13]
18. Fui ni Semararete... [1:08]
19. Tanoshii Gakuen Seikatsu [1:12]
20. Hazumu Mainichi [1:32]
21. Kanjiru Message [1:18]
22. Maemuki ni Ikimashou [1:28]
23. Kandou Soshite Mirai he [2:07]
24. Hazun da Kimochi [1:28]
25. Kawaii Shigusa [1:02]
26. Kyoufu [0:44]
27. Shinpi no Mood ga [1:20]
28. Yokan to Gensou [1:08]
29. Kaori no Theme [1:10]
30. Miatre no Theme [1:02]
31. Spica no Theme [1:03]
32. Le Rim no Theme [1:14]
33. Ketakaki Yuri no [3:19]
34. Hitotsu Hoshi no Borite [2:57]
35. Little Bird [1:48]
36. Shoujo Meiro de Tsukamaete (TV size) [1:35]
37. Himitesu Dolls (TV size) [1:36]
38. Kuchibiru Daydream (TV size) [1:33]
39. Ichigo Tsumi Monogatari (TV size) [1:35]
PS2 Game OST
Список треков:
01. Shizuma's Theme [1:35]
02. Nagisa's Theme [1:41]
03. Tamao's Theme [2:00]
04. Chiyo's Theme [1:47]
05. Amane's Theme [1:45]
06. Hikari's Theme [1:55]
07. Yaya's Theme [2:06]
08. Tsubomi's Theme [1:57]
09. Kizuna's Theme [1:55]
10. Chikaru's Theme [2:02]
11. Lemon's Theme [1:40]
12. Kagome's Theme [2:00]
13. Saint Astraea Hill [1:54]
14. Yuri Yuri Scene 1 [1:59]
15. Yuri Yuri Scene 2 [2:10]
16. A life in Ichigo-sha [1:48]
17. Sweetest (Off Vocal Ver) -Strawberry Panic PS2 OP- [4:19]
18. Just Wanna Love You [2:12]
19. A Little Extra [1:54]
20. Angel And Devil Ver.1 [2:04]
21. Angel And Devil Ver.2 [2:04]
22. Panic! 1 [1:51]
23. Panic! 2 [2:00]
24. Sweetest -Strawberry Panic PS2 OP- [4:19]
25. By My Side -Strawberry Panic PS2 ED- [4:22]

Синглы:
OP
Список треков:
01. Shojo Meiro de Tsukamaete [4:09]
02. Before [4:27]
03. Shojo Meiro de Tsukamaete <off vocal> [4:09]
04. Before <off vocal> [4:23]
ED
Список треков:
01. Himitsu Dolls [3:56]
02. Kajitsuteki Borderline [4:48]
03. Himitsu Dolls (OFF VOCAL) [3:56]
04. Kajitsuteki Borderline (OFF VOCAL) [4:45]
OP 2
Список треков:
01. Kuchibiru Daydream [4:05]
02. True Love? [3:55]
03. Kuchibiru Daydream (Off Vocal) [4:05]
04. True Love? (Off Vocal) [3:52]
ED 2
Список треков:
01. Ichigo Tsumi Monogatari [4:22]
02. Venus Panic [4:12]
03. Ichigo Tsumi Monogatari (OFF VOCAL) [4:22]
04. Venus Panic (OFF VOCAL) [4:09]

Drama CD:
Lyric I
Список треков:
01. Purorogu [4:26]
02. Niwaka ame [7:41]
03. Shirokunai Shitagi [7:23]
04. Chiyo no Omoi [4:35]
05. Mune ga... itai yo... [4:02]
06. Tamao to Shizuma [4:26]
07. Gokai [3:21]
08. Tamao no Kokuhaku [3:41]
09. Hakuba no Sizuma [9:21]
10. Suiheisen no Mukouni [1:58]
11. Kyasuto Komento [2:06]
12. Spica Hen Yokoku (Bonus Track) [4:59]
Lyric II
Список треков:
01. Purorogu [4:34]
02. Hikari no Daiette [12:13]
03. Sutaburaito no Karada no Youni... [3:57]
04. Sorezore no Omowaku [8:35]
05. Shintai Sokutei Zenjitu [5:49]
06. Unmei no Shintai Sokutei [6:29]
07. Imushitu no Futari [7:09]
08. Basurumu [4:39]
09. Kyasuto Komento [3:41]
10. Lulim Hen Yokoku (Bonus Track) [5:10]
Lyric III
Список треков:
01. Purorogu [2:07]
02. 'Hensin-Bu' de, Meidofuku Dai Sakusen [11:17]
03. 'Meido Tanken-Bu' Katudou Kaishi! [5:49]
04. Onshitu no Etowaru-Sama [4:44]
05. Omido no Futari [3:15]
06. Ichigo-sha Daiyokujyo [11:26]
07. 'Renai-bu' no Hossoku [2:11]
08. Chikaru, Omoide no Asutoraea no Oka [3:20]
09. Ashita, Aeba Wakarunokana? [7:24]
10. Namida no Wake [6:36]
11. Endingu [3:05]
12. Kyasuto Komento [4:42]
13. Miator Hen Yokoku (Bonus Track) [9:14]

Проверка:
Exact Audio Copy V1.0 beta 3 from 29. August 2011

EAC extraction logfile from 2. October 2013, 22:07

- / Strawberry Panic OST

Used drive : PLEXTOR CD-R PREMIUM2 Adapter: 0 ID: 0

Read mode : SecureUtilize accurate stream : YesDefeat audio cache : YesMake use of C2 pointers : No

Read offset correction : 30Overread into Lead-In and Lead-Out : YesFill up missing offset samples with silence : YesDelete leading and trailing silent blocks : NoNull samples used in CRC calculations : YesUsed interface : Native Win32 interface for Win NT & 2000Gap handling : Appended to previous track

Used output format : User Defined EncoderSelected bitrate : 1024 kBit/sQuality : HighAdd ID3 tag : NoCommand line compressor : C:\Program Files (x86)\Exact Audio Copy\Flac\flac.exeAdditional command line options : -V -8 -T "Genre=%genre%" -T "Artist=%artist%" -T "Title=%title%" -T "Album=%albumtitle%" -T "Date=%year%" -T "Tracknumber=%tracknr%" -T "Comment=%comment%" %source%

TOC of the extracted CD

Track | Start | Length | Start sector | End sector --------------------------------------------------------- 1 | 0:00.00 | 1:53.65 | 0 | 8539 2 | 1:53.65 | 1:24.60 | 8540 | 14899 3 | 3:18.50 | 1:23.18 | 14900 | 21142 4 | 4:41.68 | 1:13.64 | 21143 | 26681 5 | 5:55.57 | 1:21.48 | 26682 | 32804 6 | 7:17.30 | 1:15.72 | 32805 | 38501 7 | 8:33.27 | 1:07.04 | 38502 | 43530 8 | 9:40.31 | 1:25.73 | 43531 | 49978 9 | 11:06.29 | 1:08.43 | 49979 | 55121 10 | 12:14.72 | 1:09.59 | 55122 | 60355 11 | 13:24.56 | 1:04.74 | 60356 | 65229 12 | 14:29.55 | 1:09.29 | 65230 | 70433 13 | 15:39.09 | 1:38.69 | 70434 | 77852 14 | 17:18.03 | 1:18.34 | 77853 | 83736 15 | 18:36.37 | 1:16.61 | 83737 | 89497 16 | 19:53.23 | 1:21.26 | 89498 | 95598 17 | 21:14.49 | 1:13.10 | 95599 | 101083 18 | 22:27.59 | 1:07.70 | 101084 | 106178 19 | 23:35.54 | 1:12.20 | 106179 | 111598 20 | 24:47.74 | 1:31.42 | 111599 | 118465 21 | 26:19.41 | 1:17.40 | 118466 | 124280 22 | 27:37.06 | 1:27.69 | 124281 | 130874 23 | 29:05.00 | 2:07.28 | 130875 | 140427 24 | 31:12.28 | 1:27.42 | 140428 | 146994 25 | 32:39.70 | 1:02.16 | 146995 | 151660 26 | 33:42.11 | 0:44.02 | 151661 | 154962 27 | 34:26.13 | 1:20.18 | 154963 | 160980 28 | 35:46.31 | 1:07.56 | 160981 | 166061 29 | 36:54.12 | 1:09.70 | 166062 | 171306 30 | 38:04.07 | 1:02.10 | 171307 | 175966 31 | 39:06.17 | 1:03.21 | 175967 | 180712 32 | 40:09.38 | 1:13.57 | 180713 | 186244 33 | 41:23.20 | 3:19.13 | 186245 | 201182 34 | 44:42.33 | 2:57.29 | 201183 | 214486 35 | 47:39.62 | 1:48.26 | 214487 | 222612 36 | 49:28.13 | 1:34.38 | 222613 | 229700 37 | 51:02.51 | 1:36.21 | 229701 | 236921 38 | 52:38.72 | 1:32.48 | 236922 | 243869 39 | 54:11.45 | 1:34.38 | 243870 | 250957

Track 1

Filename C:\RIPs\01 - Karei Naru Gakuen.wav

Pre-gap length 0:00:02.00

Peak level 98.9 % Extraction speed 6.6 X Track quality 99.9 % Test CRC 03169CBF Copy CRC 03169CBF Accurately ripped (confidence 2) [B8C3E328] (AR v1) Copy OK

Track 2

Filename C:\RIPs\02 - Mayoikon da Shoujo.wav

Pre-gap length 0:00:02.25

Peak level 98.9 % Extraction speed 8.0 X Track quality 100.0 % Test CRC 4734B095 Copy CRC 4734B095 Accurately ripped (confidence 2) [723B2B19] (AR v1) Copy OK

Track 3

Filename C:\RIPs\03 - Uruwashiki Nin.wav

Pre-gap length 0:00:02.25

Peak level 100.0 % Extraction speed 8.3 X Track quality 100.0 % Test CRC 5F649848 Copy CRC 5F649848 Accurately ripped (confidence 2) [D369C2DB] (AR v1) Copy OK

Track 4

Filename C:\RIPs\04 - Hirogaru Joukei.wav

Pre-gap length 0:00:02.25

Peak level 99.9 % Extraction speed 8.2 X Track quality 100.0 % Test CRC B7D8992A Copy CRC B7D8992A Accurately ripped (confidence 2) [39245EC0] (AR v1) Copy OK

Track 5

Filename C:\RIPs\05 - Yume no Mainichi.wav

Pre-gap length 0:00:02.25

Peak level 98.9 % Extraction speed 6.3 X Track quality 99.8 % Test CRC EBF2C6E2 Copy CRC EBF2C6E2 Accurately ripped (confidence 2) [4B92C486] (AR v1) Copy OK

Track 6

Filename C:\RIPs\06 - Koi no Joukei.wav

Pre-gap length 0:00:02.25

Peak level 94.0 % Extraction speed 8.7 X Track quality 100.0 % Test CRC 27826927 Copy CRC 27826927 Accurately ripped (confidence 2) [DC7481D5] (AR v1) Copy OK

Track 7

Filename C:\RIPs\07 - Kibou.wav

Pre-gap length 0:00:02.25

Peak level 100.0 % Extraction speed 6.2 X Track quality 99.8 % Test CRC C3B2360C Copy CRC C3B2360C Accurately ripped (confidence 2) [914145CC] (AR v1) Copy OK

Track 8

Filename C:\RIPs\08 - Itsumo no Fuukei.wav

Pre-gap length 0:00:02.25

Peak level 98.9 % Extraction speed 6.8 X Track quality 99.8 % Test CRC E509E2DA Copy CRC E509E2DA Accurately ripped (confidence 2) [133DBEF3] (AR v1) Copy OK

Track 9

Filename C:\RIPs\09 - Kibou, Soshite Tokimeki he.wav

Pre-gap length 0:00:02.25

Peak level 94.8 % Extraction speed 9.0 X Track quality 100.0 % Test CRC 2116EF5C Copy CRC 2116EF5C Accurately ripped (confidence 2) [12F6F2D3] (AR v1) Copy OK

Track 10

Filename C:\RIPs\10 - Kanashiki Kako.wav

Pre-gap length 0:00:02.25

Peak level 73.3 % Extraction speed 9.2 X Track quality 100.0 % Test CRC 0ACE315A Copy CRC 0ACE315A Accurately ripped (confidence 2) [781895DC] (AR v1) Copy OK

Track 11

Filename C:\RIPs\11 - Hiren.wav

Pre-gap length 0:00:02.25

Peak level 82.2 % Extraction speed 9.1 X Track quality 100.0 % Test CRC C9773A08 Copy CRC C9773A08 Accurately ripped (confidence 2) [2532D08A] (AR v1) Copy OK

Track 12

Filename C:\RIPs\12 - Hitori Setsunaku.wav

Pre-gap length 0:00:02.25

Peak level 75.9 % Extraction speed 6.7 X Track quality 99.8 % Test CRC B1B2F538 Copy CRC B1B2F538 Accurately ripped (confidence 2) [7B90E574] (AR v1) Copy OK

Track 13

Filename C:\RIPs\13 - Unmei.wav

Pre-gap length 0:00:02.25

Peak level 98.9 % Extraction speed 7.8 X Track quality 99.8 % Test CRC 6874B32E Copy CRC 6874B32E Accurately ripped (confidence 2) [91B4D163] (AR v1) Copy OK

Track 14

Filename C:\RIPs\14 - Kinchou.wav

Pre-gap length 0:00:02.25

Peak level 100.0 % Extraction speed 9.9 X Track quality 100.0 % Test CRC 556C3CF4 Copy CRC 556C3CF4 Accurately ripped (confidence 2) [A3DC3DA7] (AR v1) Copy OK

Track 15

Filename C:\RIPs\15 - Utsukushiki Kyougaku.wav

Pre-gap length 0:00:02.25

Peak level 99.9 % Extraction speed 9.9 X Track quality 100.0 % Test CRC 748AD443 Copy CRC 748AD443 Accurately ripped (confidence 2) [E9FFF421] (AR v1) Copy OK

Track 16

Filename C:\RIPs\16 - Kokoro no Fuukei.wav

Pre-gap length 0:00:02.25

Peak level 98.8 % Extraction speed 7.5 X Track quality 99.8 % Test CRC 866EB750 Copy CRC 866EB750 Accurately ripped (confidence 2) [AE7BEAF7] (AR v1) Copy OK

Track 17

Filename C:\RIPs\17 - Kyoukai.wav

Pre-gap length 0:00:02.25

Peak level 61.0 % Extraction speed 10.1 X Track quality 100.0 % Test CRC C4252D3D Copy CRC C4252D3D Accurately ripped (confidence 2) [E5484446] (AR v1) Copy OK

Track 18

Filename C:\RIPs\18 - Fui ni Semararete....wav

Pre-gap length 0:00:02.25

Peak level 89.3 % Extraction speed 10.0 X Track quality 100.0 % Test CRC 3C3EC6FC Copy CRC 3C3EC6FC Accurately ripped (confidence 2) [20346E63] (AR v1) Copy OK

Track 19

Filename C:\RIPs\19 - Tanoshii Gakuen Seikatsu.wav

Pre-gap length 0:00:02.25

Peak level 100.0 % Extraction speed 10.3 X Track quality 100.0 % Test CRC 0391DE8A Copy CRC 0391DE8A Accurately ripped (confidence 2) [1A46157C] (AR v1) Copy OK

Track 20

Filename C:\RIPs\20 - Hazumu Mainichi.wav

Pre-gap length 0:00:02.25

Peak level 99.9 % Extraction speed 10.9 X Track quality 100.0 % Test CRC 871F0799 Copy CRC 871F0799 Accurately ripped (confidence 2) [02FCD539] (AR v1) Copy OK

Track 21

Filename C:\RIPs\21 - Kanjiru Message.wav

Pre-gap length 0:00:02.25

Peak level 73.5 % Extraction speed 10.6 X Track quality 100.0 % Test CRC 6C7BCCA4 Copy CRC 6C7BCCA4 Accurately ripped (confidence 2) [AB7A3FA5] (AR v1) Copy OK

Track 22

Filename C:\RIPs\22 - Maemuki ni Ikimashou.wav

Pre-gap length 0:00:02.25

Peak level 98.8 % Extraction speed 11.0 X Track quality 100.0 % Test CRC E680BC90 Copy CRC E680BC90 Accurately ripped (confidence 2) [F25E14EC] (AR v1) Copy OK

Track 23

Filename C:\RIPs\23 - Kandou Soshite Mirai he.wav

Pre-gap length 0:00:02.25

Peak level 98.9 % Extraction speed 12.0 X Track quality 100.0 % Test CRC 9BDF0E0F Copy CRC 9BDF0E0F Accurately ripped (confidence 2) [12982F04] (AR v1) Copy OK

Track 24

Filename C:\RIPs\24 - Hazun da Kimochi.wav

Pre-gap length 0:00:02.25

Peak level 100.0 % Extraction speed 11.4 X Track quality 100.0 % Test CRC 43CE12D1 Copy CRC 43CE12D1 Accurately ripped (confidence 2) [5CBE917B] (AR v1) Copy OK

Track 25

Filename C:\RIPs\25 - Kawaii Shigusa.wav

Pre-gap length 0:00:02.25

Peak level 98.8 % Extraction speed 10.6 X Track quality 100.0 % Test CRC D22ED8C2 Copy CRC D22ED8C2 Accurately ripped (confidence 2) [31320900] (AR v1) Copy OK

Track 26

Filename C:\RIPs\26 - Kyoufu.wav

Pre-gap length 0:00:02.25

Peak level 100.0 % Extraction speed 9.5 X Track quality 100.0 % Test CRC A2C7E360 Copy CRC A2C7E360 Accurately ripped (confidence 2) [CA811AEC] (AR v1) Copy OK

Track 27

Filename C:\RIPs\27 - Shinpi no Mood ga.wav

Pre-gap length 0:00:02.25

Peak level 81.1 % Extraction speed 11.4 X Track quality 100.0 % Test CRC D7788C9F Copy CRC D7788C9F Accurately ripped (confidence 2) [0B5A7D72] (AR v1) Copy OK

Track 28

Filename C:\RIPs\28 - Yokan to Gensou.wav

Pre-gap length 0:00:02.25

Peak level 89.3 % Extraction speed 10.6 X Track quality 100.0 % Test CRC F0915DB5 Copy CRC F0915DB5 Accurately ripped (confidence 2) [A52124E2] (AR v1) Copy OK

Track 29

Filename C:\RIPs\29 - Kaori no Theme.wav

Pre-gap length 0:00:02.25

Peak level 100.0 % Extraction speed 11.3 X Track quality 100.0 % Test CRC 74CD0730 Copy CRC 74CD0730 Accurately ripped (confidence 2) [3A6BD1A3] (AR v1) Copy OK

Track 30

Filename C:\RIPs\30 - Miatre no Theme.wav

Pre-gap length 0:00:02.25

Peak level 100.0 % Extraction speed 10.8 X Track quality 100.0 % Test CRC 9C491A75 Copy CRC 9C491A75 Accurately ripped (confidence 2) [8C6DCEEA] (AR v1) Copy OK

Track 31

Filename C:\RIPs\31 - Spica no Theme.wav

Pre-gap length 0:00:02.25

Peak level 98.9 % Extraction speed 11.0 X Track quality 100.0 % Test CRC 22771A7E Copy CRC 22771A7E Accurately ripped (confidence 2) [C3D6A97D] (AR v1) Copy OK

Track 32

Filename C:\RIPs\32 - Le Rim no Theme.wav

Pre-gap length 0:00:02.25

Peak level 99.9 % Extraction speed 11.3 X Track quality 100.0 % Test CRC 27A66E54 Copy CRC 27A66E54 Accurately ripped (confidence 2) [897A19A9] (AR v1) Copy OK

Track 33

Filename C:\RIPs\33 - Ketakaki Yuri no.wav

Pre-gap length 0:00:03.25

Peak level 100.0 % Extraction speed 11.4 X Track quality 99.9 % Test CRC 99BDF165 Copy CRC 99BDF165 Accurately ripped (confidence 2) [64E8FEE0] (AR v1) Copy OK

Track 34

Filename C:\RIPs\34 - Hitotsu Hoshi no Borite.wav

Pre-gap length 0:00:02.25

Peak level 98.9 % Extraction speed 13.6 X Track quality 100.0 % Test CRC A486E739 Copy CRC A486E739 Accurately ripped (confidence 2) [C3A6C02C] (AR v1) Copy OK

Track 35

Filename C:\RIPs\35 - Little Bird.wav

Pre-gap length 0:00:41.29

Peak level 91.1 % Extraction speed 12.6 X Track quality 100.0 % Test CRC C5611337 Copy CRC C5611337 Accurately ripped (confidence 2) [5C9340E0] (AR v1) Copy OK

Track 36

Filename C:\RIPs\36 - Shoujo Meiro de Tsukamaete (TV size).wav

Pre-gap length 0:00:03.25

Peak level 100.0 % Extraction speed 12.2 X Track quality 100.0 % Test CRC A765D838 Copy CRC A765D838 Accurately ripped (confidence 2) [6C256D79] (AR v1) Copy OK

Track 37

Filename C:\RIPs\37 - Himitesu Dolls (TV size).wav

Pre-gap length 0:00:02.25

Peak level 97.7 % Extraction speed 9.2 X Track quality 99.8 % Test CRC 5FBF45D5 Copy CRC 5FBF45D5 Accurately ripped (confidence 2) [81F2770E] (AR v1) Copy OK

Track 38

Filename C:\RIPs\38 - Kuchibiru Daydream (TV size).wav

Pre-gap length 0:00:02.25

Peak level 100.0 % Extraction speed 8.8 X Track quality 99.8 % Test CRC 0C869D9B Copy CRC 0C869D9B Accurately ripped (confidence 2) [FEB2C659] (AR v1) Copy OK

Track 39

Filename C:\RIPs\39 - Ichigo Tsumi Monogatari (TV size).wav

Pre-gap length 0:00:02.25

Peak level 97.8 % Extraction speed 12.3 X Track quality 100.0 % Test CRC 086AF026 Copy CRC 086AF026 Accurately ripped (confidence 2) [5FC9DB9F] (AR v1) Copy OK

All tracks accurately ripped

No errors occurred

End of status report

---- CUETools DB Plugin V2.1.4

[CTDB TOCID: 4bVwdCqwonOntsHXt4jOWYUPDZY-] foundSubmit result: 4bVwdCqwonOntsHXt4jOWYUPDZY- has been confirmedTrack | CTDB Status 1 | (2/2) Accurately ripped 2 | (2/2) Accurately ripped 3 | (2/2) Accurately ripped 4 | (2/2) Accurately ripped 5 | (2/2) Accurately ripped 6 | (2/2) Accurately ripped 7 | (2/2) Accurately ripped 8 | (2/2) Accurately ripped 9 | (2/2) Accurately ripped 10 | (2/2) Accurately ripped 11 | (2/2) Accurately ripped 12 | (2/2) Accurately ripped 13 | (2/2) Accurately ripped 14 | (2/2) Accurately ripped 15 | (2/2) Accurately ripped 16 | (2/2) Accurately ripped 17 | (2/2) Accurately ripped 18 | (2/2) Accurately ripped 19 | (2/2) Accurately ripped 20 | (2/2) Accurately ripped 21 | (2/2) Accurately ripped 22 | (2/2) Accurately ripped 23 | (2/2) Accurately ripped 24 | (2/2) Accurately ripped 25 | (2/2) Accurately ripped 26 | (2/2) Accurately ripped 27 | (2/2) Accurately ripped 28 | (2/2) Accurately ripped 29 | (2/2) Accurately ripped 30 | (2/2) Accurately ripped 31 | (2/2) Accurately ripped 32 | (2/2) Accurately ripped 33 | (2/2) Accurately ripped 34 | (2/2) Accurately ripped 35 | (2/2) Accurately ripped 36 | (2/2) Accurately ripped 37 | (2/2) Accurately ripped 38 | (2/2) Accurately ripped 39 | (2/2) Accurately ripped

==== Log checksum 2E19963A4CC3852BA00E85E0CBDF038014FA69E12E26A24BC84F8B42F00F6E60 ====
-----------------------

DON'T MODIFY THIS FILE

-----------------------

PERFORMER: auCDtect Task Manager, ver. 1.5.1RC6 build 1.5.1.7Copyright (c) 2008-2010 y-soft. All rights reservedhttp://y-soft.org

ANALYZER: auCDtect: CD records authenticity detector, version 0.8.2Copyright (c) 2004 Oleg Berngardt. All rights reserved.Copyright (c) 2004 Alexander Djourik. All rights reserved.

FILE: 34 - Hitotsu Hoshi no Borite.flac Size: 18350929 Hash: 4023EBC25A184021689E3BE402B3B185 Accuracy: -m0 Conclusion: CDDA 100% Signature: 00D10511EB31278D50CF0958033F88A113D3AC2AFILE: 35 - Little Bird.flac Size: 10602012 Hash: 20D7566707DE308A3B59E928DDDBCE6E Accuracy: -m0 Conclusion: CDDA 85% Signature: AED6D7E867C377F2B9DB4D72C5F7C36124536679FILE: 36 - Shoujo Meiro de Tsukamaete (TV size).flac Size: 12436357 Hash: 2E16DDAA83A5F5C80BB0444031D032B4 Accuracy: -m0 Conclusion: CDDA 100% Signature: C7607351CA39C912FCE6D3099BF84FE91248A072FILE: 37 - Himitesu Dolls (TV size).flac Size: 12724306 Hash: 926E9700E95739D19B1B5926D190E513 Accuracy: -m0 Conclusion: CDDA 100% Signature: 35CA151346408C2E28E98580851B5E83A65FE903FILE: 38 - Kuchibiru Daydream (TV size).flac Size: 11548410 Hash: B24463D8B08A4320F9E43621E0AF0C00 Accuracy: -m0 Conclusion: CDDA 100% Signature: 0314FB8ED2FA8050D598EA4CD23F38BD686AD83EFILE: 39 - Ichigo Tsumi Monogatari (TV size).flac Size: 12563149 Hash: E5D785E7EDD721099672D86B074664BB Accuracy: -m0 Conclusion: CDDA 100% Signature: 758F90A0C18913BC5E0C3FEF62973CBE49CB4F74FILE: 01 - Karei Naru Gakuen.flac Size: 10583077 Hash: 0B4113C289622AA91CFFB557DDA08B01 Accuracy: -m0 Conclusion: MPEG 90% Signature: A5E341E9BF15022862AD74FCB76E3CF7A2178E9CFILE: 02 - Mayoikon da Shoujo.flac Size: 7851200 Hash: 95D13D46237E4A9A9D1CF4135CDC0504 Accuracy: -m0 Conclusion: MPEG 93% Signature: D1627A9E5820BC634C3575796368323FA6B3F322FILE: 03 - Uruwashiki Nin.flac Size: 8122194 Hash: 2133394BA2DC70DFE1A76D38A6F03563 Accuracy: -m0 Conclusion: MPEG 90% Signature: C5AD504DD6A376A37A08FCCD1B5451FF7DAE26E5FILE: 04 - Hirogaru Joukei.flac Size: 6161601 Hash: 21A96C85D3449DA58D72FF9D2B494D7A Accuracy: -m0 Conclusion: MPEG 97% Signature: 625791D8FA3CDA88B7977AE7300B20FF6EF0240AFILE: 05 - Yume no Mainichi.flac Size: 8946398 Hash: CA7B511E28E2DA8DFFF23BEA03CA60B1 Accuracy: -m0 Conclusion: CDDA 100% Signature: 78F8388BEF54FED8A52732739AC379C5AEEC224FFILE: 06 - Koi no Joukei.flac Size: 4615066 Hash: 1B642362BB15F742BE91269D96240561 Accuracy: -m0 Conclusion: MPEG 100% Signature: 25E9C66F0CF24782841E2D4ED4C04CC18F989BBCFILE: 07 - Kibou.flac Size: 6338855 Hash: 9C6FF0FD7242B1CF2FEFA4D772259F32 Accuracy: -m0 Conclusion: CDDA 43% Signature: 1A15D92016C73A4C52ED9ADA6C3650D78D7C65EFFILE: 08 - Itsumo no Fuukei.flac Size: 8129527 Hash: A84367233ABFE045CF5B00585E001321 Accuracy: -m0 Conclusion: CDDA 100% Signature: 751E213E20A954A9F31C954AE8E6D0F100B54B48FILE: 09 - Kibou, Soshite Tokimeki he.flac Size: 6082006 Hash: 2C0CFC24C4EF1E53A116BCA9369F65B7 Accuracy: -m0 Conclusion: MPEG 92% Signature: 46A699470FE44D0CF22B1E8303573E008B93FE64FILE: 10 - Kanashiki Kako.flac Size: 4055464 Hash: A253434DD94FCEDBA229155AAF77E068 Accuracy: -m0 Conclusion: MPEG 100% Signature: F044FFE912932D8FC61105A5633A87635A8C1401FILE: 11 - Hiren.flac Size: 4771100 Hash: 65F3F15F624C15C7A6C829EC57E4AEF0 Accuracy: -m0 Conclusion: MPEG 100% Signature: BB10840E3B7261EFE6129D550A9B103DE2956188FILE: 12 - Hitori Setsunaku.flac Size: 4104003 Hash: 009A7088030CCD52B4CDDC716F54B44A Accuracy: -m0 Conclusion: MPEG 100% Signature: A2DB392B8A2DB46148A0D6ECC4DC4245FF16BFD5FILE: 13 - Unmei.flac Size: 9469064 Hash: D46238E9440D45AB97F47AAAB30A278E Accuracy: -m0 Conclusion: MPEG 89% Signature: 5EDB7DB428259E2057D723F2BB02D03351367EABFILE: 14 - Kinchou.flac Size: 6669327 Hash: 05B79F613100392F97C39E2CBC593DB4 Accuracy: -m0 Conclusion: MPEG 100% Signature: FF52E4FFD9BF08243B12B53E846FCB7AC753F25CFILE: 15 - Utsukushiki Kyougaku.flac Size: 5971455 Hash: 989E8C09547B5DE387884354F063DBE9 Accuracy: -m0 Conclusion: MPEG 100% Signature: C6FE9016C37D6E4CD83742BC7DF168BF76E53EACFILE: 16 - Kokoro no Fuukei.flac Size: 7026612 Hash: 8CF1140B39D85F337BF4660F3F6DE929 Accuracy: -m0 Conclusion: MPEG 100% Signature: 821133E35FA5BB33D1AF32EDF4FEB067EE33FB7DFILE: 17 - Kyoukai.flac Size: 6585370 Hash: C4042A211F854587592877485834777B Accuracy: -m0 Conclusion: MPEG 80% Signature: F42A00DA957B20A15D6A36960E2EBA77AAD9DA6EFILE: 18 - Fui ni Semararete....flac Size: 5578862 Hash: 9A4729B2FF28BAE57DB10F11920717F0 Accuracy: -m0 Conclusion: MPEG 100% Signature: F00421C6BE0CE2E1DAEE1FB070C722B008FC2D5AFILE: 19 - Tanoshii Gakuen Seikatsu.flac Size: 8752862 Hash: A601B0DC8D98B989EBA0D0E89D9107DC Accuracy: -m0 Conclusion: CDDA 100% Signature: 15CFA7603FDD2C007B072B1EF19B22117A9A9CCCFILE: 20 - Hazumu Mainichi.flac Size: 10096580 Hash: 16C01143369ED85353840B23644D094F Accuracy: -m0 Conclusion: CDDA 100% Signature: CCB5A9CDE286D9A06BE08D61E74C72E45B1A8198FILE: 21 - Kanjiru Message.flac Size: 5025161 Hash: B0BA0C4A4B515062E950B42A86D82ACD Accuracy: -m0 Conclusion: MPEG 100% Signature: BBE1B7AAB8D1968F1052AD5E5F2BF85FB0F4FC8EFILE: 22 - Maemuki ni Ikimashou.flac Size: 8734542 Hash: 4AED23955ACA0DDA19BF69BB3E53F21F Accuracy: -m0 Conclusion: CDDA 100% Signature: 12C80CE99E190CE4DA8FB49495E909D646F11801FILE: 23 - Kandou Soshite Mirai he.flac Size: 11034276 Hash: 7AED6073F44C3863A5D0312A8F5A2010 Accuracy: -m0 Conclusion: ??? Signature: 8E3D288C154329F591F7F1BAFCF366F911C3C933FILE: 24 - Hazun da Kimochi.flac Size: 7699061 Hash: 08E481F0398A529AE8DBFB64B5DC636F Accuracy: -m0 Conclusion: CDDA 43% Signature: 581CC29BC44B520CC3FBB5FD0126833CC8560BC4FILE: 25 - Kawaii Shigusa.flac Size: 5465539 Hash: F6742B5B46CCFF38A2DED0691D4A5D6A Accuracy: -m0 Conclusion: MPEG 89% Signature: 4C5734D579B842D937D816BDABB6A702738D84C6FILE: 26 - Kyoufu.flac Size: 3541002 Hash: 4891373345F3D5EA203F567FCF36FB9A Accuracy: -m0 Conclusion: CDDA 100% Signature: FA018E54CE2C314F130DC10F482500E297F83C2BFILE: 27 - Shinpi no Mood ga.flac Size: 7373086 Hash: C85ADFCB06FF5B2D5D83CA7D2CF896E9 Accuracy: -m0 Conclusion: MPEG 100% Signature: ED9CAE0571256AA1A7F682BFCEDC003CB8BDF725FILE: 28 - Yokan to Gensou.flac Size: 5750228 Hash: 3EE60BC2E8F55AB2049A7D4178B7D230 Accuracy: -m0 Conclusion: MPEG 97% Signature: A04771003A514E2B22E0F705CEC721B245C92274FILE: 29 - Kaori no Theme.flac Size: 5433563 Hash: 3351D8B19328451798103FA894E6AD1D Accuracy: -m0 Conclusion: MPEG 99% Signature: 09DE8580631F930980B82DB6B83541A4AC4EB2D3FILE: 30 - Miatre no Theme.flac Size: 5826300 Hash: BE104F7367485FC5CDDE83D87CBEEE77 Accuracy: -m0 Conclusion: MPEG 92% Signature: 17D10CCACC855A1608EA3E65D55C2AF99873B9C8FILE: 31 - Spica no Theme.flac Size: 6253907 Hash: F5C3A557952973B2AB24FDAC6F1134C0 Accuracy: -m0 Conclusion: CDDA 54% Signature: 2B9C75E97868B97F3F944B978F334C8D6F44A02EFILE: 32 - Le Rim no Theme.flac Size: 6166961 Hash: B3AE2A716CA52363A4EB7D4B3EAE5E7E Accuracy: -m0 Conclusion: MPEG 100% Signature: 43240F29E67CF567FD4FE2D33F042CDBEEDA2DC3FILE: 33 - Ketakaki Yuri no.flac Size: 17908592 Hash: 2AC69654E5CB685A72BA642DCD367F01 Accuracy: -m0 Conclusion: CDDA 43% Signature: 456806C659F1AE4455798D2DC7C30D38A572CF1C
Exact Audio Copy V1.0 beta 3 from 29. August 2011

EAC extraction logfile from 6. October 2013, 21:13

- / Strawberry Panic! PS2 Game OST

Used drive : PLEXTOR CD-R PREMIUM2 Adapter: 0 ID: 0

Read mode : SecureUtilize accurate stream : YesDefeat audio cache : YesMake use of C2 pointers : No

Read offset correction : 30Overread into Lead-In and Lead-Out : YesFill up missing offset samples with silence : YesDelete leading and trailing silent blocks : NoNull samples used in CRC calculations : YesUsed interface : Native Win32 interface for Win NT & 2000Gap handling : Appended to previous track

Used output format : User Defined EncoderSelected bitrate : 1024 kBit/sQuality : HighAdd ID3 tag : NoCommand line compressor : C:\Program Files (x86)\Exact Audio Copy\Flac\flac.exeAdditional command line options : -V -8 -T "Genre=%genre%" -T "Artist=%artist%" -T "Title=%title%" -T "Album=%albumtitle%" -T "Date=%year%" -T "Tracknumber=%tracknr%" -T "Comment=%comment%" %source%

TOC of the extracted CD

Track | Start | Length | Start sector | End sector --------------------------------------------------------- 1 | 0:00.00 | 1:35.30 | 0 | 7154 2 | 1:35.30 | 1:41.25 | 7155 | 14754 3 | 3:16.55 | 1:59.71 | 14755 | 23750 4 | 5:16.51 | 1:47.32 | 23751 | 31807 5 | 7:04.08 | 1:44.51 | 31808 | 39658 6 | 8:48.59 | 1:54.38 | 39659 | 48246 7 | 10:43.22 | 2:05.41 | 48247 | 57662 8 | 12:48.63 | 1:57.14 | 57663 | 66451 9 | 14:46.02 | 1:54.38 | 66452 | 75039 10 | 16:40.40 | 2:01.72 | 75040 | 84186 11 | 18:42.37 | 1:39.45 | 84187 | 91656 12 | 20:22.07 | 2:00.26 | 91657 | 100682 13 | 22:22.33 | 1:53.57 | 100683 | 109214 14 | 24:16.15 | 1:59.14 | 109215 | 118153 15 | 26:15.29 | 2:10.08 | 118154 | 127911 16 | 28:25.37 | 1:48.26 | 127912 | 136037 17 | 30:13.63 | 4:19.17 | 136038 | 155479 18 | 34:33.05 | 2:11.67 | 155480 | 165371 19 | 36:44.72 | 1:53.60 | 165372 | 173906 20 | 38:38.57 | 2:04.13 | 173907 | 183219 21 | 40:42.70 | 2:03.46 | 183220 | 192490 22 | 42:46.41 | 1:51.11 | 192491 | 200826 23 | 44:37.52 | 2:00.07 | 200827 | 209833 24 | 46:37.59 | 4:19.17 | 209834 | 229275 25 | 50:57.01 | 4:22.29 | 229276 | 248954

Track 1

Filename C:\RIPs\01 - Shizuma's Theme.wav

Pre-gap length 0:00:02.00

Peak level 100.0 % Extraction speed 7.9 X Track quality 100.0 % Test CRC 69375927 Copy CRC 69375927 Track not present in AccurateRip database Copy OK

Track 2

Filename C:\RIPs\02 - Nagisa's Theme.wav

Pre-gap length 0:00:02.62

Peak level 98.9 % Extraction speed 8.2 X Track quality 100.0 % Test CRC 866A6FDD Copy CRC 866A6FDD Track not present in AccurateRip database Copy OK

Track 3

Filename C:\RIPs\03 - Tamao's Theme.wav

Pre-gap length 0:00:02.63

Peak level 100.0 % Extraction speed 8.6 X Track quality 100.0 % Test CRC 5B27B2A6 Copy CRC 5B27B2A6 Track not present in AccurateRip database Copy OK

Track 4

Filename C:\RIPs\04 - Chiyo's Theme.wav

Pre-gap length 0:00:02.63

Peak level 98.9 % Extraction speed 8.8 X Track quality 100.0 % Test CRC E05D4A29 Copy CRC E05D4A29 Track not present in AccurateRip database Copy OK

Track 5

Filename C:\RIPs\05 - Amane's Theme.wav

Pre-gap length 0:00:02.63

Peak level 98.9 % Extraction speed 9.1 X Track quality 100.0 % Test CRC 3CD30D57 Copy CRC 3CD30D57 Track not present in AccurateRip database Copy OK

Track 6

Filename C:\RIPs\06 - Hikari's Theme.wav

Pre-gap length 0:00:02.62

Peak level 98.9 % Extraction speed 7.5 X Track quality 99.9 % Test CRC 1BD4A096 Copy CRC 1BD4A096 Track not present in AccurateRip database Copy OK

Track 7

Filename C:\RIPs\07 - Yaya's Theme.wav

Pre-gap length 0:00:02.62

Peak level 98.9 % Extraction speed 9.8 X Track quality 100.0 % Test CRC F6F28A8B Copy CRC F6F28A8B Track not present in AccurateRip database Copy OK

Track 8

Filename C:\RIPs\08 - Tsubomi's Theme.wav

Pre-gap length 0:00:02.62

Peak level 98.9 % Extraction speed 7.8 X Track quality 99.9 % Test CRC AF3FBA7C Copy CRC AF3FBA7C Track not present in AccurateRip database Copy OK

Track 9

Filename C:\RIPs\09 - Kizuna's Theme.wav

Pre-gap length 0:00:02.63

Peak level 100.0 % Extraction speed 8.0 X Track quality 99.9 % Test CRC C48866C3 Copy CRC C48866C3 Track not present in AccurateRip database Copy OK

Track 10

Filename C:\RIPs\10 - Chikaru's Theme.wav

Pre-gap length 0:00:02.63

Peak level 98.9 % Extraction speed 10.6 X Track quality 100.0 % Test CRC 918EACAB Copy CRC 918EACAB Track not present in AccurateRip database Copy OK

Track 11

Filename C:\RIPs\11 - Lemon's Theme.wav

Pre-gap length 0:00:02.62

Peak level 100.0 % Extraction speed 7.6 X Track quality 99.8 % Test CRC 522890C3 Copy CRC 522890C3 Track not present in AccurateRip database Copy OK

Track 12

Filename C:\RIPs\12 - Kagome's Theme.wav

Pre-gap length 0:00:02.62

Peak level 98.9 % Extraction speed 10.9 X Track quality 100.0 % Test CRC E48037A8 Copy CRC E48037A8 Track not present in AccurateRip database Copy OK

Track 13

Filename C:\RIPs\13 - Saint Astraea Hill.wav

Pre-gap length 0:00:03.25

Peak level 98.9 % Extraction speed 11.1 X Track quality 100.0 % Test CRC 4B2C1791 Copy CRC 4B2C1791 Track not present in AccurateRip database Copy OK

Track 14

Filename C:\RIPs\14 - Yuri Yuri Scene 1.wav

Pre-gap length 0:00:02.63

Peak level 100.0 % Extraction speed 8.9 X Track quality 99.9 % Test CRC F04890C9 Copy CRC F04890C9 Track not present in AccurateRip database Copy OK

Track 15

Filename C:\RIPs\15 - Yuri Yuri Scene 2.wav

Pre-gap length 0:00:02.63

Peak level 98.9 % Extraction speed 9.2 X Track quality 99.9 % Test CRC 1B080B37 Copy CRC 1B080B37 Track not present in AccurateRip database Copy OK

Track 16

Filename C:\RIPs\16 - A life in Ichigo-sha.wav

Pre-gap length 0:00:02.62

Peak level 98.9 % Extraction speed 11.6 X Track quality 100.0 % Test CRC CF6EE72A Copy CRC CF6EE72A Track not present in AccurateRip database Copy OK

Track 17

Filename C:\RIPs\17 - Sweetest (Off Vocal Ver) -Strawberry Panic PS2 OP-.wav

Pre-gap length 0:00:02.62

Peak level 100.0 % Extraction speed 13.3 X Track quality 100.0 % Test CRC 76CBEF8F Copy CRC 76CBEF8F Track not present in AccurateRip database Copy OK

Track 18

Filename C:\RIPs\18 - Just Wanna Love You.wav

Pre-gap length 0:00:02.62

Peak level 98.9 % Extraction speed 12.6 X Track quality 100.0 % Test CRC 6F2854EB Copy CRC 6F2854EB Track not present in AccurateRip database Copy OK

Track 19

Filename C:\RIPs\19 - A Little Extra.wav

Pre-gap length 0:00:02.63

Peak level 100.0 % Extraction speed 12.2 X Track quality 100.0 % Test CRC 91F992DC Copy CRC 91F992DC Track not present in AccurateRip database Copy OK

Track 20

Filename C:\RIPs\20 - Angel And Devil Ver.1.wav

Pre-gap length 0:00:02.62

Peak level 98.8 % Extraction speed 9.5 X Track quality 99.9 % Test CRC D2429C9C Copy CRC D2429C9C Track not present in AccurateRip database Copy OK

Track 21

Filename C:\RIPs\21 - Angel And Devil Ver.2.wav

Pre-gap length 0:00:02.63

Peak level 98.8 % Extraction speed 12.6 X Track quality 100.0 % Test CRC A34A572F Copy CRC A34A572F Track not present in AccurateRip database Copy OK

Track 22

Filename C:\RIPs\22 - Panic! 1.wav

Pre-gap length 0:00:02.62

Peak level 98.9 % Extraction speed 12.4 X Track quality 100.0 % Test CRC 53725FFE Copy CRC 53725FFE Track not present in AccurateRip database Copy OK

Track 23

Filename C:\RIPs\23 - Panic! 2.wav

Pre-gap length 0:00:02.63

Peak level 98.9 % Extraction speed 12.5 X Track quality 100.0 % Test CRC 8E9EFF19 Copy CRC 8E9EFF19 Track not present in AccurateRip database Copy OK

Track 24

Filename C:\RIPs\24 - Sweetest -Strawberry Panic PS2 OP-.wav

Pre-gap length 0:00:02.63

Peak level 100.0 % Extraction speed 14.2 X Track quality 100.0 % Test CRC 0FE9D6BD Copy CRC 0FE9D6BD Track not present in AccurateRip database Copy OK

Track 25

Filename C:\RIPs\25 - By My Side -Strawberry Panic PS2 ED-.wav

Pre-gap length 0:00:02.63

Peak level 98.9 % Extraction speed 14.3 X Track quality 100.0 % Test CRC 40E36D6F Copy CRC 40E36D6F Track not present in AccurateRip database Copy OK

None of the tracks are present in the AccurateRip database

No errors occurred

End of status report

---- CUETools DB Plugin V2.1.4

[CTDB TOCID: Xw9h3akOpKODdfkClJZm64AqZcI-] disk not present in databaseSubmit result: Xw9h3akOpKODdfkClJZm64AqZcI- has been uploaded

==== Log checksum 71A76B716C816BAC236FDDD0B213B7CA279C4F420E92485A4F4A7FEF1E0780BA ====
-----------------------

DON'T MODIFY THIS FILE

-----------------------

PERFORMER: auCDtect Task Manager, ver. 1.5.1RC6 build 1.5.1.7Copyright (c) 2008-2010 y-soft. All rights reservedhttp://y-soft.org

ANALYZER: auCDtect: CD records authenticity detector, version 0.8.2Copyright (c) 2004 Oleg Berngardt. All rights reserved.Copyright (c) 2004 Alexander Djourik. All rights reserved.

FILE: 19 - A Little Extra.flac Size: 12547023 Hash: 693696E173C89DC639A1E4D85284A50E Accuracy: -m0 Conclusion: CDDA 99% Signature: FBECDA22514C5D7C6D905B0F5CC78130BAD8202BFILE: 20 - Angel And Devil Ver.1.flac Size: 15624410 Hash: 32D12C835CDC002EBE118A9F704C7E91 Accuracy: -m0 Conclusion: CDDA 85% Signature: 81C7984278A0857CD66A567DB7364972FCFB2AB9FILE: 21 - Angel And Devil Ver.2.flac Size: 15240970 Hash: 678BDE5E0B07EC7BF94B80CB671FA1F5 Accuracy: -m0 Conclusion: CDDA 100% Signature: 227F22B831F93026D7B67AC03DFA3A498C6B0DDCFILE: 22 - Panic! 1.flac Size: 14031923 Hash: 2E707B9979456A7674362AF233B11757 Accuracy: -m0 Conclusion: CDDA 99% Signature: 16952A54D4ED177CBEB887C85812B48C5B8DCCD6FILE: 23 - Panic! 2.flac Size: 15603304 Hash: EFF397BD539448B58E75AD2451172045 Accuracy: -m0 Conclusion: CDDA 100% Signature: 4E1904E1F3BF816791680AEE307A72F58A7D9498FILE: 24 - Sweetest -Strawberry Panic PS2 OP-.flac Size: 31660878 Hash: CF3BC6CB2D63FA9B9FA7965A8CB9985A Accuracy: -m0 Conclusion: CDDA 100% Signature: 596C8289CF8117C9268156C30164EC6C3D6F0AF0FILE: 25 - By My Side -Strawberry Panic PS2 ED-.flac Size: 35101194 Hash: 61D48F586FCFD3781832C09ABBF795A6 Accuracy: -m0 Conclusion: CDDA 100% Signature: F11D0EE1371F7EB75E52BA03B10342CAEC31EC6BFILE: 01 - Shizuma's Theme.flac Size: 11117618 Hash: 3BAA3D44472396D0EC06CB26B0EB72EB Accuracy: -m0 Conclusion: CDDA 100% Signature: 0E3126FCA6923E500CBE0E5D6687890BA3B6B5ADFILE: 02 - Nagisa's Theme.flac Size: 12547121 Hash: 7713D0C2613FE963B34106F8E82C297D Accuracy: -m0 Conclusion: CDDA 100% Signature: A718ECB50CC54AF39890C53D83D8CD4C0F9F9AE2FILE: 03 - Tamao's Theme.flac Size: 13438751 Hash: 2E6A66D80EF9EB215BCD82FFFFBFC136 Accuracy: -m0 Conclusion: CDDA 100% Signature: CD8D8708ACDF7454EAF46DD038EF917A636BB780FILE: 04 - Chiyo's Theme.flac Size: 11026706 Hash: 0403253B5D385E02DD5F171DB1D01526 Accuracy: -m0 Conclusion: CDDA 100% Signature: 3D3A32F29D48999A128D8480F6C20607209F97F8FILE: 05 - Amane's Theme.flac Size: 12393582 Hash: 02928CF19241F130E535CD0785D1E411 Accuracy: -m0 Conclusion: CDDA 100% Signature: 72C6BEC1DDF67B9E02BCAE29E8FE9968A3C42D36FILE: 06 - Hikari's Theme.flac Size: 13203134 Hash: 058B72EB8D3B341E2FA51AACAF44CFFF Accuracy: -m0 Conclusion: CDDA 100% Signature: EEFCEF09BF0B37356D72390AEBA8061D987365C2FILE: 07 - Yaya's Theme.flac Size: 13723862 Hash: 1CDB6B1E03F05BA6C8C457680BA864C7 Accuracy: -m0 Conclusion: CDDA 100% Signature: 3EFECFDAC8A910ACCF21ADC6EF1A3D94396C703FFILE: 08 - Tsubomi's Theme.flac Size: 15068067 Hash: 570A3817C92A06BC0F3145C7461ECDAB Accuracy: -m0 Conclusion: CDDA 100% Signature: 0C081325C173E4E53A224D73AACC4C4628A778C4FILE: 09 - Kizuna's Theme.flac Size: 13738544 Hash: 8F5C551AD4AC546ABA9DCEA525C45696 Accuracy: -m0 Conclusion: CDDA 99% Signature: 5506F152FBDFB784755357A4E60E404D4B5EF069FILE: 10 - Chikaru's Theme.flac Size: 14486123 Hash: D960F7F1016A41617EBBFD2B7EFFEBB1 Accuracy: -m0 Conclusion: CDDA 100% Signature: 48ABF7C11CB18DB50DEA5AF91788F030907C2683FILE: 11 - Lemon's Theme.flac Size: 12362076 Hash: 61A5AC759CB2F806DC0AEF57A979F5A9 Accuracy: -m0 Conclusion: CDDA 100% Signature: C4B22B34230EF9F4B16BDEA0E0887AFEEDB7270CFILE: 12 - Kagome's Theme.flac Size: 15223736 Hash: 8A7A9CA60003CAD4AE8F0FB19B5955E5 Accuracy: -m0 Conclusion: CDDA 100% Signature: 6D108BE79CEE1954B7CB669CCAF0134912D029CBFILE: 13 - Saint Astraea Hill.flac Size: 13301899 Hash: D7709516C1C19D68FACE26B9CC0D5BD7 Accuracy: -m0 Conclusion: CDDA 100% Signature: 6D90151540A7CE584DEE48F02F9CA188EBDF134AFILE: 14 - Yuri Yuri Scene 1.flac Size: 10917930 Hash: 5525A5CB99800A649B5B268BBE20AADD Accuracy: -m0 Conclusion: CDDA 49% Signature: CC0A256DB1676F9882B60FFC06A41AFE7D56E5A0FILE: 15 - Yuri Yuri Scene 2.flac Size: 12787273 Hash: 4B26AFC161CD2034DE6AFE0F83CC5EA1 Accuracy: -m0 Conclusion: CDDA 85% Signature: F19B34C2DD7294C8C0093CD1B16F27CB7522B74CFILE: 16 - A life in Ichigo-sha.flac Size: 12879322 Hash: 1BD22770A03A1CB759D453646D36FA4B Accuracy: -m0 Conclusion: CDDA 100% Signature: D7E50529F7D781D16982F15B7E26367876180CA0FILE: 17 - Sweetest (Off Vocal Ver) -Strawberry Panic PS2 OP-.flac Size: 30752003 Hash: 7157A6CA8CE65BEEDA8989F79BBDF808 Accuracy: -m0 Conclusion: CDDA 100% Signature: C5578CC93E6020DBBD86237BEFC4B426B1CCB6A7FILE: 18 - Just Wanna Love You.flac Size: 16040710 Hash: 7DD3BDD09AB0C113C5188960CF791DA3 Accuracy: -m0 Conclusion: CDDA 100% Signature: 6BD4A6B64DB8A9CEB25358390163D1AA8972DBCE
Exact Audio Copy V1.0 beta 3 from 29. August 2011

EAC extraction logfile from 6. October 2013, 22:36

Aki Misato / Strawberry Panic OP

Used drive : PLEXTOR CD-R PREMIUM2 Adapter: 0 ID: 0

Read mode : SecureUtilize accurate stream : YesDefeat audio cache : YesMake use of C2 pointers : No

Read offset correction : 30Overread into Lead-In and Lead-Out : YesFill up missing offset samples with silence : YesDelete leading and trailing silent blocks : NoNull samples used in CRC calculations : YesUsed interface : Native Win32 interface for Win NT & 2000Gap handling : Appended to previous track

Used output format : User Defined EncoderSelected bitrate : 1024 kBit/sQuality : HighAdd ID3 tag : NoCommand line compressor : C:\Program Files (x86)\Exact Audio Copy\Flac\flac.exeAdditional command line options : -V -8 -T "Genre=%genre%" -T "Artist=%artist%" -T "Title=%title%" -T "Album=%albumtitle%" -T "Date=%year%" -T "Tracknumber=%tracknr%" -T "Comment=%comment%" %source%

TOC of the extracted CD

Track | Start | Length | Start sector | End sector --------------------------------------------------------- 1 | 0:00.00 | 4:08.57 | 0 | 18656 2 | 4:08.57 | 4:27.16 | 18657 | 38697 3 | 8:35.73 | 4:08.58 | 38698 | 57355 4 | 12:44.56 | 4:23.11 | 57356 | 77091

Track 1

Filename C:\RIPs\01 - Shojo Meiro de Tsukamaete.wav

Pre-gap length 0:00:02.00

Peak level 100.0 % Extraction speed 8.8 X Track quality 100.0 % Test CRC A1C0A6CF Copy CRC A1C0A6CF Accurately ripped (confidence 2) [DC2FA38A] (AR v2) Copy OK

Track 2

Filename C:\RIPs\02 - Before.wav

Pre-gap length 0:00:03.25

Peak level 100.0 % Extraction speed 8.6 X Track quality 99.9 % Test CRC 066F2830 Copy CRC 066F2830 Accurately ripped (confidence 2) [6C674D35] (AR v2) Copy OK

Track 3

Filename C:\RIPs\03 - Shojo Meiro de Tsukamaete [off vocal].wav

Pre-gap length 0:00:03.25

Peak level 100.0 % Extraction speed 10.4 X Track quality 100.0 % Test CRC 67003DF7 Copy CRC 67003DF7 Accurately ripped (confidence 2) [47B8C90B] (AR v2) Copy OK

Track 4

Filename C:\RIPs\04 - Before [off vocal].wav

Pre-gap length 0:00:03.25

Peak level 100.0 % Extraction speed 11.1 X Track quality 100.0 % Test CRC 9B93204E Copy CRC 9B93204E Accurately ripped (confidence 2) [2CA7525B] (AR v2) Copy OK

All tracks accurately ripped

No errors occurred

End of status report

---- CUETools DB Plugin V2.1.4

[CTDB TOCID: f0XZKky6ZL0lMw8LZDPFcKn_b7Y-] foundSubmit result: f0XZKky6ZL0lMw8LZDPFcKn_b7Y- has been confirmedTrack | CTDB Status 1 | (1/1) Accurately ripped 2 | (1/1) Accurately ripped 3 | (1/1) Accurately ripped 4 | (1/1) Accurately ripped

==== Log checksum E871FED24A8763FA7D6B6288A8516E048D8F2A260A8E31CBE08DECF11B23BA8F ====
-----------------------

DON'T MODIFY THIS FILE

-----------------------

PERFORMER: auCDtect Task Manager, ver. 1.5.1RC6 build 1.5.1.7Copyright (c) 2008-2010 y-soft. All rights reservedhttp://y-soft.org

ANALYZER: auCDtect: CD records authenticity detector, version 0.8.2Copyright (c) 2004 Oleg Berngardt. All rights reserved.Copyright (c) 2004 Alexander Djourik. All rights reserved.

FILE: 01 - Shojo Meiro de Tsukamaete.flac Size: 32969133 Hash: 44D44595D6D7829136D3A7F21EC60BC1 Accuracy: -m0 Conclusion: CDDA 99% Signature: 6EBCCEDE027F54D5629123C9C323831CBC65714EFILE: 02 - Before.flac Size: 32991155 Hash: 7606DB70174EFA3868FE9AE451100687 Accuracy: -m0 Conclusion: CDDA 100% Signature: 65E9BFBC0E9E85C2D74D371259AE5E26D9C93FE1FILE: 03 - Shojo Meiro de Tsukamaete [off vocal].flac Size: 32498993 Hash: 9FBA879276C81063983AAECEF4B7D2BC Accuracy: -m0 Conclusion: CDDA 100% Signature: 4BB63C406028F2A130D70D01DA0EFDA0DC8DF83AFILE: 04 - Before [off vocal].flac Size: 32343565 Hash: 6C3DD2A21AE458DA56DC60BE9AE5A445 Accuracy: -m0 Conclusion: CDDA 100% Signature: E7EEA79F7E8C22A133AB68038289ADFF653B1159
Exact Audio Copy V1.0 beta 3 from 29. August 2011

EAC extraction logfile from 6. October 2013, 21:48

Mai Nakahara & Ai Shimizu / Strawberry Panic ED

Used drive : PLEXTOR CD-R PREMIUM2 Adapter: 0 ID: 0

Read mode : SecureUtilize accurate stream : YesDefeat audio cache : YesMake use of C2 pointers : No

Read offset correction : 30Overread into Lead-In and Lead-Out : YesFill up missing offset samples with silence : YesDelete leading and trailing silent blocks : NoNull samples used in CRC calculations : YesUsed interface : Native Win32 interface for Win NT & 2000Gap handling : Appended to previous track

Used output format : User Defined EncoderSelected bitrate : 1024 kBit/sQuality : HighAdd ID3 tag : NoCommand line compressor : C:\Program Files (x86)\Exact Audio Copy\Flac\flac.exeAdditional command line options : -V -8 -T "Genre=%genre%" -T "Artist=%artist%" -T "Title=%title%" -T "Album=%albumtitle%" -T "Date=%year%" -T "Tracknumber=%tracknr%" -T "Comment=%comment%" %source%

TOC of the extracted CD

Track | Start | Length | Start sector | End sector --------------------------------------------------------- 1 | 0:00.00 | 3:55.50 | 0 | 17674 2 | 3:55.50 | 4:48.28 | 17675 | 39302 3 | 8:44.03 | 3:55.50 | 39303 | 56977 4 | 12:39.53 | 4:45.15 | 56978 | 78367

Track 1

Filename C:\RIPs\01 - Himitsu Dolls.wav

Pre-gap length 0:00:02.00

Peak level 100.0 % Extraction speed 8.8 X Track quality 100.0 % Test CRC 529F4B76 Copy CRC 529F4B76 Accurately ripped (confidence 1) [73A15BE3] (AR v2) Copy OK

Track 2

Filename C:\RIPs\02 - Kajitsuteki Borderline.wav

Pre-gap length 0:00:03.13

Peak level 100.0 % Extraction speed 9.7 X Track quality 100.0 % Test CRC A2DE48E8 Copy CRC A2DE48E8 Accurately ripped (confidence 1) [E6F0E3BA] (AR v2) Copy OK

Track 3

Filename C:\RIPs\03 - Himitsu Dolls (OFF VOCAL).wav

Pre-gap length 0:00:03.13

Peak level 100.0 % Extraction speed 10.4 X Track quality 100.0 % Test CRC 7D693CA6 Copy CRC 7D693CA6 Accurately ripped (confidence 1) [B1746CED] (AR v2) Copy OK

Track 4

Filename C:\RIPs\04 - Kajitsuteki Borderline (OFF VOCAL).wav

Pre-gap length 0:00:03.13

Peak level 100.0 % Extraction speed 10.0 X Track quality 99.9 % Test CRC 5BBDF828 Copy CRC 5BBDF828 Accurately ripped (confidence 1) [FF0F1A21] (AR v2) Copy OK

All tracks accurately ripped

No errors occurred

End of status report

---- CUETools DB Plugin V2.1.4

[CTDB TOCID: 4a0yq_45SgGPt0qvm95ij.0YF3c-] disk not present in databaseSubmit result: 4a0yq_45SgGPt0qvm95ij.0YF3c- has been uploaded

==== Log checksum 1C9CBE44097D31DAE5B01AEFCE105CEBEFFE393D7747DB2F859AE6E28BB3DD84 ====
-----------------------

DON'T MODIFY THIS FILE

-----------------------

PERFORMER: auCDtect Task Manager, ver. 1.5.1RC6 build 1.5.1.7Copyright (c) 2008-2010 y-soft. All rights reservedhttp://y-soft.org

ANALYZER: auCDtect: CD records authenticity detector, version 0.8.2Copyright (c) 2004 Oleg Berngardt. All rights reserved.Copyright (c) 2004 Alexander Djourik. All rights reserved.

FILE: 01 - Himitsu Dolls.flac Size: 31935481 Hash: 5EB50BB278706125C4DD30256502CDE6 Accuracy: -m0 Conclusion: CDDA 100% Signature: 8D84DB95C69EB251D6951748565505519B0153BCFILE: 02 - Kajitsuteki Borderline.flac Size: 34592676 Hash: 5BDCEF652E63D97AAE53DB6459AE90DE Accuracy: -m0 Conclusion: CDDA 99% Signature: 6F24E49167FE8DDC5A4C1D5D239D70DA29308CBDFILE: 03 - Himitsu Dolls (OFF VOCAL).flac Size: 31403311 Hash: E410DD2B4B769F2D55D5A23D46447A11 Accuracy: -m0 Conclusion: CDDA 100% Signature: 7ED04C824B79376F6D4DC362EF3815E6E34F2620FILE: 04 - Kajitsuteki Borderline (OFF VOCAL).flac Size: 33618128 Hash: D64E710B935776186C449DAD509EA0FA Accuracy: -m0 Conclusion: CDDA 100% Signature: 8A2949405DE65AB5E56F054029050F4C6208EE78
Exact Audio Copy V1.0 beta 3 from 29. August 2011

EAC extraction logfile from 6. October 2013, 23:40

Aki Misato / Strawberry Panic OP 2

Used drive : PLEXTOR CD-R PREMIUM2 Adapter: 0 ID: 0

Read mode : SecureUtilize accurate stream : YesDefeat audio cache : YesMake use of C2 pointers : No

Read offset correction : 30Overread into Lead-In and Lead-Out : YesFill up missing offset samples with silence : YesDelete leading and trailing silent blocks : NoNull samples used in CRC calculations : YesUsed interface : Native Win32 interface for Win NT & 2000Gap handling : Appended to previous track

Used output format : User Defined EncoderSelected bitrate : 1024 kBit/sQuality : HighAdd ID3 tag : NoCommand line compressor : C:\Program Files (x86)\Exact Audio Copy\Flac\flac.exeAdditional command line options : -V -8 -T "Genre=%genre%" -T "Artist=%artist%" -T "Title=%title%" -T "Album=%albumtitle%" -T "Date=%year%" -T "Tracknumber=%tracknr%" -T "Comment=%comment%" %source%

TOC of the extracted CD

Track | Start | Length | Start sector | End sector --------------------------------------------------------- 1 | 0:00.00 | 4:05.06 | 0 | 18380 2 | 4:05.06 | 3:54.65 | 18381 | 35995 3 | 7:59.71 | 4:05.06 | 35996 | 54376 4 | 12:05.02 | 3:51.53 | 54377 | 71754

Track 1

Filename C:\RIPs\01 - Kuchibiru Daydream.wav

Pre-gap length 0:00:02.00

Peak level 100.0 % Extraction speed 8.8 X Track quality 100.0 % Test CRC 11785788 Copy CRC 11785788 Accurately ripped (confidence 1) [991044B2] (AR v2) Copy OK

Track 2

Filename C:\RIPs\02 - True Love.wav

Pre-gap length 0:00:03.13

Peak level 100.0 % Extraction speed 9.5 X Track quality 100.0 % Test CRC C479B6EE Copy CRC C479B6EE Accurately ripped (confidence 1) [7A98BBD1] (AR v2) Copy OK

Track 3

Filename C:\RIPs\03 - Kuchibiru Daydream (Off Vocal).wav

Pre-gap length 0:00:03.12

Peak level 98.9 % Extraction speed 10.2 X Track quality 100.0 % Test CRC 193DE3DA Copy CRC 193DE3DA Accurately ripped (confidence 1) [0EE4AD54] (AR v2) Copy OK

Track 4

Filename C:\RIPs\04 - True Love (Off Vocal).wav

Pre-gap length 0:00:03.12

Peak level 100.0 % Extraction speed 9.5 X Track quality 99.9 % Test CRC A9F0E62D Copy CRC A9F0E62D Accurately ripped (confidence 1) [E9D4D0CA] (AR v2) Copy OK

All tracks accurately ripped

No errors occurred

End of status report

---- CUETools DB Plugin V2.1.4

[CTDB TOCID: IooQfqsIHSM62v.7AN7GAcfOyUM-] disk not present in databaseSubmit result: IooQfqsIHSM62v.7AN7GAcfOyUM- has been uploaded

==== Log checksum B1E130CEBA1A8237C422B9C27EEEF2A19BDDFF28332B1632BEE13C9385CDE95B ====
-----------------------

DON'T MODIFY THIS FILE

-----------------------

PERFORMER: auCDtect Task Manager, ver. 1.5.1RC6 build 1.5.1.7Copyright (c) 2008-2010 y-soft. All rights reservedhttp://y-soft.org

ANALYZER: auCDtect: CD records authenticity detector, version 0.8.2Copyright (c) 2004 Oleg Berngardt. All rights reserved.Copyright (c) 2004 Alexander Djourik. All rights reserved.

FILE: 01 - Kuchibiru Daydream.flac Size: 31205068 Hash: F326DD951D5A2F744D8171A68D998A3F Accuracy: -m0 Conclusion: CDDA 100% Signature: CE2272A008582C2E9369F73D0CDD1D9A5E45FB84FILE: 02 - True Love.flac Size: 26070002 Hash: 0D1AB70E8BA5283C8B6C90FD06F106CF Accuracy: -m0 Conclusion: CDDA 100% Signature: D767B61D71D95573E4CF4916B6F9342966CDC09EFILE: 03 - Kuchibiru Daydream (Off Vocal).flac Size: 30263716 Hash: 08B8715870865754E14D0E0582DB3059 Accuracy: -m0 Conclusion: CDDA 100% Signature: CE24C00FAC985D2540ADC155AA4145C66ED5F31EFILE: 04 - True Love (Off Vocal).flac Size: 25383348 Hash: 4B413827EDCD3168F1273EDB9DDB4968 Accuracy: -m0 Conclusion: CDDA 100% Signature: 0FD1C962B7D5F7B0E09A5E9447C95C54408C4812
Exact Audio Copy V1.0 beta 3 from 29. August 2011

EAC extraction logfile from 6. October 2013, 22:06

Mai Nakahara & Ai Shimizu / Strawberry Panic ED 2

Used drive : PLEXTOR CD-R PREMIUM2 Adapter: 0 ID: 0

Read mode : SecureUtilize accurate stream : YesDefeat audio cache : YesMake use of C2 pointers : No

Read offset correction : 30Overread into Lead-In and Lead-Out : YesFill up missing offset samples with silence : YesDelete leading and trailing silent blocks : NoNull samples used in CRC calculations : YesUsed interface : Native Win32 interface for Win NT & 2000Gap handling : Appended to previous track

Used output format : User Defined EncoderSelected bitrate : 1024 kBit/sQuality : HighAdd ID3 tag : NoCommand line compressor : C:\Program Files (x86)\Exact Audio Copy\Flac\flac.exeAdditional command line options : -V -8 -T "Genre=%genre%" -T "Artist=%artist%" -T "Title=%title%" -T "Album=%albumtitle%" -T "Date=%year%" -T "Tracknumber=%tracknr%" -T "Comment=%comment%" %source%

TOC of the extracted CD

Track | Start | Length | Start sector | End sector --------------------------------------------------------- 1 | 0:00.00 | 4:21.61 | 0 | 19635 2 | 4:21.61 | 4:12.21 | 19636 | 38556 3 | 8:34.07 | 4:21.61 | 38557 | 58192 4 | 12:55.68 | 4:09.08 | 58193 | 76875

Track 1

Filename C:\RIPs\01 - Ichigo Tsumi Monogatari.wav

Pre-gap length 0:00:02.00

Peak level 98.9 % Extraction speed 8.9 X Track quality 100.0 % Test CRC 3FABA9E9 Copy CRC 3FABA9E9 Accurately ripped (confidence 2) [E020E6AA] (AR v2) Copy OK

Track 2

Filename C:\RIPs\02 - Venus Panic.wav

Pre-gap length 0:00:03.12

Peak level 100.0 % Extraction speed 9.6 X Track quality 100.0 % Test CRC E4F798BC Copy CRC E4F798BC Accurately ripped (confidence 2) [293CE4F9] (AR v2) Copy OK

Track 3

Filename C:\RIPs\03 - Ichigo Tsumi Monogatari (OFF VOCAL).wav

Pre-gap length 0:00:03.13

Peak level 98.9 % Extraction speed 10.4 X Track quality 100.0 % Test CRC 3E56E672 Copy CRC 3E56E672 Accurately ripped (confidence 2) [83A4D63E] (AR v2) Copy OK

Track 4

Filename C:\RIPs\04 - Venus Panic (OFF VOCAL).wav

Pre-gap length 0:00:03.12

Peak level 100.0 % Extraction speed 11.1 X Track quality 100.0 % Test CRC 722FE583 Copy CRC 722FE583 Accurately ripped (confidence 2) [813153EC] (AR v2) Copy OK

All tracks accurately ripped

No errors occurred

End of status report

---- CUETools DB Plugin V2.1.4

[CTDB TOCID: 05R7e52WgOZgSoeBb_lGnVETW3U-] foundSubmit result: 05R7e52WgOZgSoeBb_lGnVETW3U- has been confirmedTrack | CTDB Status 1 | (1/1) Accurately ripped 2 | (1/1) Accurately ripped 3 | (1/1) Accurately ripped 4 | (1/1) Accurately ripped

==== Log checksum 7399E84D0C5E1BAD359CD9F46BA4BF4C7A77DD963439701AF3850BE7674AA41D ====
-----------------------

DON'T MODIFY THIS FILE

-----------------------

PERFORMER: auCDtect Task Manager, ver. 1.5.1RC6 build 1.5.1.7Copyright (c) 2008-2010 y-soft. All rights reservedhttp://y-soft.org

ANALYZER: auCDtect: CD records authenticity detector, version 0.8.2Copyright (c) 2004 Oleg Berngardt. All rights reserved.Copyright (c) 2004 Alexander Djourik. All rights reserved.

FILE: 01 - Ichigo Tsumi Monogatari.flac Size: 35772119 Hash: 9CC5247CA4F35C33983F01BB0DEBAD1E Accuracy: -m0 Conclusion: CDDA 99% Signature: 395C24EAED7E244BF7B8612119AB70E4AA12FE06FILE: 02 - Venus Panic.flac Size: 34198860 Hash: AD86BF5C67EDFE79A9F1E9B76360ACF8 Accuracy: -m0 Conclusion: CDDA 100% Signature: 16B39A64A6652710F24457C27B9E3FD1E014C8D9FILE: 03 - Ichigo Tsumi Monogatari (OFF VOCAL).flac Size: 35173817 Hash: A9F1886C001D48A512A3AF700181E9E2 Accuracy: -m0 Conclusion: CDDA 100% Signature: 6A62BD960630D7A59DFAB538FFA1572EC9AFA033FILE: 04 - Venus Panic (OFF VOCAL).flac Size: 34151424 Hash: 4603362739ADBBE87E7CD9DDE83BBF3B Accuracy: -m0 Conclusion: CDDA 100% Signature: 578F2649EE64681593B3641B429D3F821852A7A3
Exact Audio Copy V1.0 beta 3 from 29. August 2011

EAC extraction logfile from 8. October 2013, 21:31

Various Artists / Strawberry Panic Lyric I

Used drive : PLEXTOR CD-R PREMIUM2 Adapter: 0 ID: 0

Read mode : SecureUtilize accurate stream : YesDefeat audio cache : YesMake use of C2 pointers : No

Read offset correction : 30Overread into Lead-In and Lead-Out : YesFill up missing offset samples with silence : YesDelete leading and trailing silent blocks : NoNull samples used in CRC calculations : YesUsed interface : Native Win32 interface for Win NT & 2000Gap handling : Appended to previous track

Used output format : User Defined EncoderSelected bitrate : 1024 kBit/sQuality : HighAdd ID3 tag : NoCommand line compressor : C:\Program Files (x86)\Exact Audio Copy\Flac\flac.exeAdditional command line options : -V -8 -T "Genre=%genre%" -T "Artist=%artist%" -T "Title=%title%" -T "Album=%albumtitle%" -T "Date=%year%" -T "Tracknumber=%tracknr%" -T "Comment=%comment%" %source%

TOC of the extracted CD

Track | Start | Length | Start sector | End sector --------------------------------------------------------- 1 | 0:00.00 | 4:25.48 | 0 | 19922 2 | 4:25.48 | 7:41.28 | 19923 | 54525 3 | 12:07.01 | 7:23.33 | 54526 | 87783 4 | 19:30.34 | 4:34.41 | 87784 | 108374 5 | 24:05.00 | 4:02.06 | 108375 | 126530 6 | 28:07.06 | 4:26.21 | 126531 | 146501 7 | 32:33.27 | 3:21.14 | 146502 | 161590 8 | 35:54.41 | 3:41.02 | 161591 | 178167 9 | 39:35.43 | 9:21.24 | 178168 | 220266 10 | 48:56.67 | 1:57.38 | 220267 | 229079 11 | 50:54.30 | 2:05.38 | 229080 | 238492 12 | 52:59.68 | 4:58.58 | 238493 | 260900

Track 1

Filename C:\RIPs\01 - Purorogu.wav

Pre-gap length 0:00:02.00

Peak level 64.7 % Extraction speed 8.8 X Track quality 100.0 % Test CRC 3B85084F Copy CRC 3B85084F Track not present in AccurateRip database Copy OK

Track 2

Filename C:\RIPs\02 - Niwaka ame.wav

Peak level 99.2 % Extraction speed 10.2 X Track quality 100.0 % Test CRC 685093D5 Copy CRC 685093D5 Track not present in AccurateRip database Copy OK

Track 3

Filename C:\RIPs\03 - Shirokunai Shitagi.wav

Peak level 99.2 % Extraction speed 11.5 X Track quality 100.0 % Test CRC 6EAE4AA0 Copy CRC 6EAE4AA0 Track not present in AccurateRip database Copy OK

Track 4

Filename C:\RIPs\04 - Chiyo no Omoi.wav

Peak level 99.2 % Extraction speed 10.5 X Track quality 99.9 % Test CRC B6E07A04 Copy CRC B6E07A04 Track not present in AccurateRip database Copy OK

Track 5

Filename C:\RIPs\05 - Mune ga... itai yo....wav

Peak level 77.9 % Extraction speed 12.5 X Track quality 100.0 % Test CRC D86A78B4 Copy CRC D86A78B4 Track not present in AccurateRip database Copy OK

Track 6

Filename C:\RIPs\06 - Tamao to Shizuma.wav

Peak level 99.2 % Extraction speed 12.9 X Track quality 100.0 % Test CRC 1D652CD7 Copy CRC 1D652CD7 Track not present in AccurateRip database Copy OK

Track 7

Filename C:\RIPs\07 - Gokai.wav

Peak level 49.7 % Extraction speed 10.7 X Track quality 99.9 % Test CRC E6CC1066 Copy CRC E6CC1066 Track not present in AccurateRip database Copy OK

Track 8

Filename C:\RIPs\08 - Tamao no Kokuhaku.wav

Peak level 46.5 % Extraction speed 13.6 X Track quality 100.0 % Test CRC 95C21508 Copy CRC 95C21508 Track not present in AccurateRip database Copy OK

Track 9

Filename C:\RIPs\09 - Hakuba no Sizuma.wav

Peak level 99.2 % Extraction speed 14.7 X Track quality 100.0 % Test CRC 634D261D Copy CRC 634D261D Track not present in AccurateRip database Copy OK

Track 10

Filename C:\RIPs\10 - Suiheisen no Mukouni.wav

Peak level 74.6 % Extraction speed 9.4 X Track quality 99.9 % Test CRC D904D097 Copy CRC D904D097 Track not present in AccurateRip database Copy OK

Track 11

Filename C:\RIPs\11 - Kyasuto Komento.wav

Peak level 85.9 % Extraction speed 10.0 X Track quality 99.9 % Test CRC 6BBEB69A Copy CRC 6BBEB69A Track not present in AccurateRip database Copy OK

Track 12

Filename C:\RIPs\12 - Spica Hen Yokoku (Bonus Track).wav

Pre-gap length 0:00:04.51

Peak level 86.1 % Extraction speed 12.8 X Track quality 99.9 % Test CRC 2259C8AC Copy CRC 2259C8AC Track not present in AccurateRip database Copy OK

None of the tracks are present in the AccurateRip database

No errors occurred

End of status report

---- CUETools DB Plugin V2.1.4

[CTDB TOCID: Z_4Ab6q5ud.FOXUl59IjAE1h4QM-] disk not present in databaseSubmit result: Z_4Ab6q5ud.FOXUl59IjAE1h4QM- has been uploaded

==== Log checksum DA8B205282CA7608B2971BFB1E2CCFE67C1C1FA59428DDFBA0452E78E133CEE0 ====
-----------------------

DON'T MODIFY THIS FILE

-----------------------

PERFORMER: auCDtect Task Manager, ver. 1.5.1RC6 build 1.5.1.7Copyright (c) 2008-2010 y-soft. All rights reservedhttp://y-soft.org

ANALYZER: auCDtect: CD records authenticity detector, version 0.8.2Copyright (c) 2004 Oleg Berngardt. All rights reserved.Copyright (c) 2004 Alexander Djourik. All rights reserved.

FILE: 09 - Hakuba no Sizuma.flac Size: 44994929 Hash: B9ABE47A287C2B6F20DA35EA45A1AAB3 Accuracy: -m0 Conclusion: CDDA 100% Signature: 2827A54CE8C2DF3416BB678FFE3B905573CAF9CEFILE: 10 - Suiheisen no Mukouni.flac Size: 9271141 Hash: F361E10C396C87DE1C489D1AA8266E25 Accuracy: -m0 Conclusion: CDDA 100% Signature: 725F9D555A9A713A1AD46B6B9CA2BA277BC4372EFILE: 11 - Kyasuto Komento.flac Size: 10513815 Hash: 5563D70A4E3065A2C372219FAA34DF50 Accuracy: -m0 Conclusion: CDDA 100% Signature: D623F8F31D0AF99D189CA1033A70D52A21D72DADFILE: 12 - Spica Hen Yokoku (Bonus Track).flac Size: 26419663 Hash: BC106F119EF25F9AC308EBC68DE81140 Accuracy: -m0 Conclusion: CDDA 100% Signature: F80D39B1E282391AAA4524EBACC99CD481CCAB45FILE: 01 - Purorogu.flac Size: 17606299 Hash: 0A3C2E3403F9CE6258CAE1169CAFB153 Accuracy: -m0 Conclusion: CDDA 99% Signature: 103B29ED67D289FA69C83B91BCD37226021BE666FILE: 02 - Niwaka ame.flac Size: 35714575 Hash: 383939104D0B06A8C569AE706DB9666E Accuracy: -m0 Conclusion: CDDA 100% Signature: 424305D2DF75EB9D747A2D1F6E6948F53DB59B97FILE: 03 - Shirokunai Shitagi.flac Size: 28124184 Hash: 499114DC277A7DA4864992BEF4627B3B Accuracy: -m0 Conclusion: CDDA 100% Signature: 95D6CB5B782B0384BD4D118FB25B788B65A4D50CFILE: 04 - Chiyo no Omoi.flac Size: 19164209 Hash: 60C16F430CB5ADB6AF1DD4481D0B485B Accuracy: -m0 Conclusion: CDDA 100% Signature: 493DFB66CEFE1D6D64DA3F7105678A6F9C32DEBEFILE: 05 - Mune ga... itai yo....flac Size: 18775694 Hash: 2B00E1B2DCB50A7482EF5FCC5D61939F Accuracy: -m0 Conclusion: CDDA 100% Signature: C953A5A3A3C6DA4EBC9E4DDE660024FEA83DA5A2FILE: 06 - Tamao to Shizuma.flac Size: 14031587 Hash: B1C92A98EF322D8FD03FC6994AE07193 Accuracy: -m0 Conclusion: CDDA 100% Signature: D1FEDAEBC22203068104F132F9FA021259DE1B7EFILE: 07 - Gokai.flac Size: 11000825 Hash: FB4FDA3424660D661E5D413A12B22BA1 Accuracy: -m0 Conclusion: CDDA 100% Signature: B8F08C8349187089A381E28FAA7F0F077A31510BFILE: 08 - Tamao no Kokuhaku.flac Size: 13396787 Hash: 74AC42B1B404DE9992E1E302C590859F Accuracy: -m0 Conclusion: CDDA 100% Signature: 5A361ABB5DED492541EC4A3D9C387E9280786AF2
Exact Audio Copy V1.0 beta 3 from 29. August 2011

EAC extraction logfile from 8. October 2013, 22:34

Various Artists / Strawberry Panic Lyric 2

Used drive : PLEXTOR CD-R PREMIUM2 Adapter: 0 ID: 0

Read mode : SecureUtilize accurate stream : YesDefeat audio cache : YesMake use of C2 pointers : No

Read offset correction : 30Overread into Lead-In and Lead-Out : YesFill up missing offset samples with silence : YesDelete leading and trailing silent blocks : NoNull samples used in CRC calculations : YesUsed interface : Native Win32 interface for Win NT & 2000Gap handling : Appended to previous track

Used output format : User Defined EncoderSelected bitrate : 1024 kBit/sQuality : HighAdd ID3 tag : NoCommand line compressor : C:\Program Files (x86)\Exact Audio Copy\Flac\flac.exeAdditional command line options : -V -8 -T "Genre=%genre%" -T "Artist=%artist%" -T "Title=%title%" -T "Album=%albumtitle%" -T "Date=%year%" -T "Tracknumber=%tracknr%" -T "Comment=%comment%" %source%

TOC of the extracted CD

Track | Start | Length | Start sector | End sector --------------------------------------------------------- 1 | 0:00.00 | 4:34.27 | 0 | 20576 2 | 4:34.27 | 12:13.26 | 20577 | 75577 3 | 16:47.53 | 3:57.25 | 75578 | 93377 4 | 20:45.03 | 8:35.36 | 93378 | 132038 5 | 29:20.39 | 5:48.43 | 132039 | 158181 6 | 35:09.07 | 6:29.16 | 158182 | 187372 7 | 41:38.23 | 7:09.30 | 187373 | 219577 8 | 48:47.53 | 4:39.28 | 219578 | 240530 9 | 53:27.06 | 3:40.51 | 240531 | 257081 10 | 57:07.57 | 5:09.67 | 257082 | 280323

Track 1

Filename C:\RIPs\01 - Purorogu.wav

Pre-gap length 0:00:02.00

Peak level 99.2 % Extraction speed 8.9 X Track quality 100.0 % Test CRC 77B530AE Copy CRC 77B530AE Accurately ripped (confidence 1) [43F5A757] (AR v1) Copy OK

Track 2

Filename C:\RIPs\02 - Hikari no Daiette.wav

Peak level 99.2 % Extraction speed 10.4 X Track quality 99.9 % Test CRC 75A08F2E Copy CRC 75A08F2E Accurately ripped (confidence 1) [BBBEF5E4] (AR v1) Copy OK

Track 3

Filename C:\RIPs\03 - Sutaburaito no Karada no Youni....wav

Peak level 73.2 % Extraction speed 11.5 X Track quality 100.0 % Test CRC 52C67C1F Copy CRC 52C67C1F Accurately ripped (confidence 1) [62A259E7] (AR v1) Copy OK

Track 4

Filename C:\RIPs\04 - Sorezore no Omowaku.wav

Peak level 99.2 % Extraction speed 12.9 X Track quality 100.0 % Test CRC 00F3DAAD Copy CRC 00F3DAAD Accurately ripped (confidence 1) [864806D2] (AR v1) Copy OK

Track 5

Filename C:\RIPs\05 - Shintai Sokutei Zenjitu.wav

Peak level 81.7 % Extraction speed 12.0 X Track quality 99.9 % Test CRC E3B3DC54 Copy CRC E3B3DC54 Accurately ripped (confidence 1) [2EC76264] (AR v1) Copy OK

Track 6

Filename C:\RIPs\06 - Unmei no Shintai Sokutei.wav

Peak level 99.2 % Extraction speed 14.2 X Track quality 100.0 % Test CRC C0D2E1DF Copy CRC C0D2E1DF Accurately ripped (confidence 1) [E9F80B53] (AR v1) Copy OK

Track 7

Filename C:\RIPs\07 - Imushitu no Futari.wav

Peak level 99.2 % Extraction speed 14.5 X Track quality 100.0 % Test CRC C64346DD Copy CRC C64346DD Accurately ripped (confidence 1) [1FA79688] (AR v1) Copy OK

Track 8

Filename C:\RIPs\08 - Basurumu.wav

Peak level 92.3 % Extraction speed 14.3 X Track quality 100.0 % Test CRC FB6FAC84 Copy CRC FB6FAC84 Accurately ripped (confidence 1) [CFE20806] (AR v1) Copy OK

Track 9

Filename C:\RIPs\09 - Kyasuto Komento.wav

Pre-gap length 0:00:00.47

Peak level 99.2 % Extraction speed 14.1 X Track quality 100.0 % Test CRC D058B49F Copy CRC D058B49F Accurately ripped (confidence 1) [1CC89BE7] (AR v1) Copy OK

Track 10

Filename C:\RIPs\10 - Lulim Hen Yokoku (Bonus Track).wav

Pre-gap length 0:00:03.50

Peak level 99.2 % Extraction speed 14.6 X Track quality 100.0 % Test CRC 1512D49D Copy CRC 1512D49D Accurately ripped (confidence 1) [9420AC53] (AR v1) Copy OK

All tracks accurately ripped

No errors occurred

End of status report

---- CUETools DB Plugin V2.1.4

[CTDB TOCID: tZIyNdq22CE.op3uX_8W5tUW.8w-] disk not present in databaseSubmit result: tZIyNdq22CE.op3uX_8W5tUW.8w- has been uploaded

==== Log checksum B41802042119FD2AF65771D17CE52BE72558A5FAA5E9EA85A03F6F55A7878190 ====
-----------------------

DON'T MODIFY THIS FILE

-----------------------

PERFORMER: auCDtect Task Manager, ver. 1.5.1RC6 build 1.5.1.7Copyright (c) 2008-2010 y-soft. All rights reservedhttp://y-soft.org

ANALYZER: auCDtect: CD records authenticity detector, version 0.8.2Copyright (c) 2004 Oleg Berngardt. All rights reserved.Copyright (c) 2004 Alexander Djourik. All rights reserved.

FILE: 02 - Hikari no Daiette.flac Size: 52209213 Hash: F92320500AAEF5047CEE8F53D8F866F8 Accuracy: -m0 Conclusion: CDDA 100% Signature: 09EA233FB23E1C03176EBC4168EBC839EA1E56B6FILE: 01 - Purorogu.flac Size: 21146223 Hash: 56DE151D2AAA6CBEB9B0C397A181213D Accuracy: -m0 Conclusion: CDDA 100% Signature: 7EBEEBA8433289BAD9680305358C571C19FBE0ADFILE: 10 - Lulim Hen Yokoku (Bonus Track).flac Size: 21328245 Hash: E1B861E996887123ECCCFB036BD1A5EF Accuracy: -m0 Conclusion: CDDA 100% Signature: EF1138E884FA6B3CD0C3F4EE74540B9810CD4E11FILE: 09 - Kyasuto Komento.flac Size: 19303028 Hash: FB7D7D721FAAA51A5B9BFCDE376F40FD Accuracy: -m0 Conclusion: CDDA 100% Signature: 2DD01F1534A2FC2A2E01C216112136C4E6B703ADFILE: 08 - Basurumu.flac Size: 21651309 Hash: 99E6EB52A00E953E0D8AB082DE67CA21 Accuracy: -m0 Conclusion: CDDA 100% Signature: 806A7B10EA9CFB04FBCE11513BDCC5638FE7618FFILE: 07 - Imushitu no Futari.flac Size: 30107060 Hash: CACC53EACE8C03C98E8372EB9D33C381 Accuracy: -m0 Conclusion: CDDA 100% Signature: 13831365781EC0BB2DAA885E3D35A5026195FBB4FILE: 06 - Unmei no Shintai Sokutei.flac Size: 26506463 Hash: 59E7612F6D31A3F901F1F77EDFABEDBD Accuracy: -m0 Conclusion: CDDA 99% Signature: C3C484284FA6175B543AE6F2CD4B76E037796C25FILE: 05 - Shintai Sokutei Zenjitu.flac Size: 23851503 Hash: 34C800A778B8CC834A0F6648D91B85EF Accuracy: -m0 Conclusion: CDDA 100% Signature: 514CEA9B4BF6F64D9096A851E00A990B35259B1DFILE: 04 - Sorezore no Omowaku.flac Size: 36827417 Hash: 7BADD9DFBAED8E77A0964965F89F1256 Accuracy: -m0 Conclusion: CDDA 100% Signature: 6C0C4227AE16BCA02F3C6EB70C0BC2305DD51444FILE: 03 - Sutaburaito no Karada no Youni....flac Size: 15915206 Hash: 91C79056036509D22DDEDAA3A767800C Accuracy: -m0 Conclusion: CDDA 100% Signature: 0794184DCBC5198853D65E27FF288A8A401758FF
Exact Audio Copy V1.0 beta 3 from 29. August 2011

EAC extraction logfile from 8. October 2013, 23:27

Various Artists / Strawberry Panic Lyric 3

Used drive : PLEXTOR CD-R PREMIUM2 Adapter: 0 ID: 0

Read mode : SecureUtilize accurate stream : YesDefeat audio cache : YesMake use of C2 pointers : No

Read offset correction : 30Overread into Lead-In and Lead-Out : YesFill up missing offset samples with silence : YesDelete leading and trailing silent blocks : NoNull samples used in CRC calculations : YesUsed interface : Native Win32 interface for Win NT & 2000Gap handling : Appended to previous track

Used output format : User Defined EncoderSelected bitrate : 1024 kBit/sQuality : HighAdd ID3 tag : NoCommand line compressor : C:\Program Files (x86)\Exact Audio Copy\Flac\flac.exeAdditional command line options : -V -8 -T "Genre=%genre%" -T "Artist=%artist%" -T "Title=%title%" -T "Album=%albumtitle%" -T "Date=%year%" -T "Tracknumber=%tracknr%" -T "Comment=%comment%" %source%

TOC of the extracted CD

Track | Start | Length | Start sector | End sector --------------------------------------------------------- 1 | 0:00.00 | 2:07.13 | 0 | 9537 2 | 2:07.13 | 11:16.46 | 9538 | 60283 3 | 13:23.59 | 5:48.42 | 60284 | 86425 4 | 19:12.26 | 4:44.30 | 86426 | 107755 5 | 23:56.56 | 3:15.36 | 107756 | 122416 6 | 27:12.17 | 11:25.54 | 122417 | 173845 7 | 38:37.71 | 2:10.46 | 173846 | 183641 8 | 40:48.42 | 3:20.23 | 183642 | 198664 9 | 44:08.65 | 7:24.10 | 198665 | 231974 10 | 51:33.00 | 6:36.34 | 231975 | 261708 11 | 58:09.34 | 3:04.60 | 261709 | 275568 12 | 61:14.19 | 4:41.46 | 275569 | 296689 13 | 65:55.65 | 9:14.15 | 296690 | 338254

Track 1

Filename C:\RIPs\01 - Purorogu.wav

Pre-gap length 0:00:02.00

Peak level 77.0 % Extraction speed 8.0 X Track quality 100.0 % Test CRC 429DC340 Copy CRC 429DC340 Accurately ripped (confidence 1) [2B4A5E06] (AR v1) Copy OK

Track 2

Filename C:\RIPs\02 - ''Hensin-Bu'' de, Meidofuku Dai Sakusen.wav

Peak level 81.4 % Extraction speed 9.8 X Track quality 99.9 % Test CRC F785AF51 Copy CRC F785AF51 Accurately ripped (confidence 1) [46A3B02C] (AR v1) Copy OK

Track 3

Filename C:\RIPs\03 - ''Meido Tanken-Bu'' Katudou Kaishi!.wav

Peak level 77.0 % Extraction speed 10.5 X Track quality 99.9 % Test CRC 76BCAAD2 Copy CRC 76BCAAD2 Accurately ripped (confidence 1) [0BC6A09D] (AR v1) Copy OK

Track 4

Filename C:\RIPs\04 - Onshitu no Etowaru-Sama.wav

Peak level 72.8 % Extraction speed 12.0 X Track quality 100.0 % Test CRC EDCDFCD4 Copy CRC EDCDFCD4 Accurately ripped (confidence 1) [2A459F2E] (AR v1) Copy OK

Track 5

Filename C:\RIPs\05 - Omido no Futari.wav

Peak level 72.7 % Extraction speed 12.2 X Track quality 100.0 % Test CRC 4138D48F Copy CRC 4138D48F Accurately ripped (confidence 1) [628C07C8] (AR v1) Copy OK

Track 6

Filename C:\RIPs\06 - Ichigo-sha Daiyokujyo.wav

Peak level 76.9 % Extraction speed 14.1 X Track quality 100.0 % Test CRC F44DF1AF Copy CRC F44DF1AF Accurately ripped (confidence 1) [ACCEC8CA] (AR v1) Copy OK

Track 7

Filename C:\RIPs\07 - ''Renai-bu'' no Hossoku.wav

Peak level 76.2 % Extraction speed 12.7 X Track quality 100.0 % Test CRC 17E98F8B Copy CRC 17E98F8B Accurately ripped (confidence 1) [C11D9A00] (AR v1) Copy OK

Track 8

Filename C:\RIPs\08 - Chikaru, Omoide no Asutoraea no Oka.wav

Peak level 74.5 % Extraction speed 13.5 X Track quality 100.0 % Test CRC B80749E3 Copy CRC B80749E3 Accurately ripped (confidence 1) [AEADDC1D] (AR v1) Copy OK

Track 9

Filename C:\RIPs\09 - Ashita, Aeba Wakarunokana.wav

Peak level 76.2 % Extraction speed 14.7 X Track quality 100.0 % Test CRC EA2A1795 Copy CRC EA2A1795 Accurately ripped (confidence 1) [38174DF4] (AR v1) Copy OK

Track 10

Filename C:\RIPs\10 - Namida no Wake.wav

Peak level 67.9 % Extraction speed 14.8 X Track quality 100.0 % Test CRC 84EF3936 Copy CRC 84EF3936 Accurately ripped (confidence 1) [A5A837FD] (AR v1) Copy OK

Track 11

Filename C:\RIPs\11 - Endingu.wav

Peak level 76.7 % Extraction speed 13.9 X Track quality 100.0 % Test CRC 7585D34C Copy CRC 7585D34C Accurately ripped (confidence 1) [1E0BD4D6] (AR v1) Copy OK

Track 12

Filename C:\RIPs\12 - Kyasuto Komento.wav

Peak level 75.7 % Extraction speed 14.6 X Track quality 100.0 % Test CRC 47C83FA1 Copy CRC 47C83FA1 Accurately ripped (confidence 1) [15AF9C6E] (AR v1) Copy OK

Track 13

Filename C:\RIPs\13 - Miator Hen Yokoku (Bonus Track).wav

Pre-gap length 0:00:04.61

Peak level 75.9 % Extraction speed 15.6 X Track quality 100.0 % Test CRC 5E928261 Copy CRC 5E928261 Accurately ripped (confidence 1) [B18B1F1B] (AR v1) Copy OK

All tracks accurately ripped

No errors occurred

End of status report

---- CUETools DB Plugin V2.1.4

[CTDB TOCID: Y_SGYohKJAlpNTRC5vay.qLC7dQ-] disk not present in databaseSubmit result: Y_SGYohKJAlpNTRC5vay.qLC7dQ- has been uploaded

==== Log checksum 442DE1BEA48D6B19D07628C0DD6C823691028FBD3C79DF0CDBB50081E524AC76 ====
-----------------------

DON'T MODIFY THIS FILE

-----------------------

PERFORMER: auCDtect Task Manager, ver. 1.5.1RC6 build 1.5.1.7Copyright (c) 2008-2010 y-soft. All rights reservedhttp://y-soft.org

ANALYZER: auCDtect: CD records authenticity detector, version 0.8.2Copyright (c) 2004 Oleg Berngardt. All rights reserved.Copyright (c) 2004 Alexander Djourik. All rights reserved.

FILE: 07 - ''Renai-bu'' no Hossoku.flac Size: 9469452 Hash: 49194ECE70050FF91E44FFBE9A700107 Accuracy: -m0 Conclusion: CDDA 100% Signature: 21A1600901E595B648ABDD1FEF44E0BB6FA8E89FFILE: 08 - Chikaru, Omoide no Asutoraea no Oka.flac Size: 14887651 Hash: 2BCEF8E3E50132BC139538D42C165602 Accuracy: -m0 Conclusion: CDDA 99% Signature: EC0082AC8AA829FF9DEB3214ED75558EF5AADC76FILE: 09 - Ashita, Aeba Wakarunokana.flac Size: 31718955 Hash: A0CACB29BEADCA159636EDA4B738057C Accuracy: -m0 Conclusion: CDDA 100% Signature: 126925F39213D137AE3A6EAB9CD3EB88C3C46052FILE: 10 - Namida no Wake.flac Size: 26050225 Hash: 18A255B4DA039AFD300B6FADBE61BAD0 Accuracy: -m0 Conclusion: CDDA 100% Signature: DF4CADC1A604738DFE3BC816B166D98788FD1AA2FILE: 11 - Endingu.flac Size: 13031431 Hash: 8CC499F0FF243085A7BE944F24FE04C5 Accuracy: -m0 Conclusion: CDDA 100% Signature: 990DC061DDE61DBC518073ACBE9A4144C0176198FILE: 12 - Kyasuto Komento.flac Size: 25516832 Hash: 600D4EF5F301E52A0D62F11AE90C918B Accuracy: -m0 Conclusion: CDDA 100% Signature: BE67E08D1F7EC40A6807613E53976671A215060FFILE: 13 - Miator Hen Yokoku (Bonus Track).flac Size: 39656677 Hash: DF901D8D1627C35BCDB06C5E7AC8AC64 Accuracy: -m0 Conclusion: CDDA 99% Signature: 4ACB5352F8237AE1BDF15A7DF2E74ACA0CF4BFBDFILE: 01 - Purorogu.flac Size: 9643375 Hash: E5CC3898A34E7C370BD3C038C25D3F46 Accuracy: -m0 Conclusion: CDDA 99% Signature: 897C2961E0B2FF1E3DADCC0E9B6B0B8C6256F534FILE: 02 - ''Hensin-Bu'' de, Meidofuku Dai Sakusen.flac Size: 56603312 Hash: D1D63EC3044C3AB744C69E3A8D637815 Accuracy: -m0 Conclusion: CDDA 99% Signature: 939DC4C5BB031FC96FCE6FD27AA1BCC7295B35FFFILE: 03 - ''Meido Tanken-Bu'' Katudou Kaishi!.flac Size: 26593336 Hash: EEB41D3AC12ABB9C1EB0D5C49B2A8219 Accuracy: -m0 Conclusion: CDDA 100% Signature: 1CB9432254C05FFEB0BABB3FFB4BA6DCAB4E5839FILE: 04 - Onshitu no Etowaru-Sama.flac Size: 19959324 Hash: 2C007879574D51FECBE677F64CF639C8 Accuracy: -m0 Conclusion: CDDA 99% Signature: 64ECA7D4311C08B55B02E1A8457B25C60A7A1C59FILE: 05 - Omido no Futari.flac Size: 14662078 Hash: 352E24DC55D8A1E09D313C1F0DA10519 Accuracy: -m0 Conclusion: CDDA 100% Signature: 4A77CF17BD7BD8316FCD7C5DD028A236A680B490FILE: 06 - Ichigo-sha Daiyokujyo.flac Size: 60127525 Hash: AC1CE1DE026FB29F30530D40A7E24FC1 Accuracy: -m0 Conclusion: CDDA 100% Signature: 92E2791B2F0026E61A047D50D566FE5500EC4226

Приятного прослушивания

Трекер:  [ 27-Ноя-2014 11:00 ]

  

Скачать .torrent

Размер .torrent файла 29 KB


Размер: 2.27 GB
Хэш (hash) релиза: 25deb8fb2a82938db83532315410863dd3fb65f6

Еще никто не оставлял запись к записи скачать торрент [Strawberry Panic Клубничная тревога! OST Collection] . Будь первым!

!Обратная связь