How I Met Your Mother | Мертвым повезло (2017) WEB-DLRip | iTunes | Olvidate De Nick BluRay MicroHD

Скачать через торрент музыку Joe Hisaishi - My Neighbor Totoro - Hi-Tech Series Tonari No Totoro бесплатно без регистрации torrent

Статистика раздачи
Размер:  224 MB   |    Зарегистрирован:  3 года 7 месяцев   |    .torrent скачан:  36 раз   |   
Раздают:  1  
   
загрузка...
 
Автор Сообщение

Galfimbul

avatar Galfimbul


Joe Hisaishi / My Neighbor Totoro - Hi-Tech Series

Жанр: Soundtrack
Композитор: Joe Hisaishi
Год выпуска: 1990 г.
Издатель (лейбл): Tokuma Japan Communications
Номер по каталогу: TKCA-30014
Страна: Japan

Аудио кодек: FLAC (*.flac)
Тип рипа: image+.cue
Режим рипа: test & copy
Битрейт аудио: lossless
Продолжительность: 00:42:02

Источник (релизер): CD (sewerok)
Наличие сканов в содержимом раздачи: нет

Треклист:
01. My Neighbor Totoro [0:05:13.70]
02. Stroll [0:04:02.37]
03. A Lost Child [0:03:33.40]
04. Traveling Soot [0:04:20.03]
05. Catbus [0:04:14.70]
06. The Path Of Wind [0:07:23.52]
07. The Village In May [0:04:19.08]
08. Mother [0:04:27.62]
09. A Little Picture [0:04:26.73]
Exact Audio Copy V1.0 beta 3 from 29. August 2011

EAC extraction logfile from 7. December 2013, 19:15

Joe Hisaishi / My Neighbor Totoro - Hi-Tech Series

Used drive : TSSTcorpCD/DVDW TS-L632D Adapter: 0 ID: 0

Read mode : SecureUtilize accurate stream : YesDefeat audio cache : YesMake use of C2 pointers : No

Read offset correction : 6Overread into Lead-In and Lead-Out : NoFill up missing offset samples with silence : YesDelete leading and trailing silent blocks : NoNull samples used in CRC calculations : YesUsed interface : Native Win32 interface for Win NT & 2000

Used output format : User Defined EncoderSelected bitrate : 896 kBit/sQuality : HighAdd ID3 tag : NoCommand line compressor : C:\Program Files (x86)\Exact Audio Copy\Flac\flac.exeAdditional command line options : -8 -V -T "Date=%year%" -T "Genre=%genre%" -T "COMMENT=ripped by sewerok®" %source%

TOC of the extracted CD

Track | Start | Length | Start sector | End sector --------------------------------------------------------- 1 | 0:00.00 | 5:13.70 | 0 | 23544 2 | 5:13.70 | 4:02.37 | 23545 | 41731 3 | 9:16.32 | 3:33.40 | 41732 | 57746 4 | 12:49.72 | 4:20.03 | 57747 | 77249 5 | 17:10.00 | 4:14.70 | 77250 | 96369 6 | 21:24.70 | 7:23.52 | 96370 | 129646 7 | 28:48.47 | 4:19.08 | 129647 | 149079 8 | 33:07.55 | 4:27.62 | 149080 | 169166 9 | 37:35.42 | 4:26.73 | 169167 | 189189

Range status and errors

Selected range

Filename E:\Joe Hisaishi - My Neighbor Totoro - Hi-Tech Series (Soundtrack) [1990](TKCA-30014 Tokuma Japan Communications)\Joe Hisaishi - My Neighbor Totoro - Hi-Tech Series.wav

Peak level 100.0 % Extraction speed 3.2 X Range quality 99.9 % Test CRC 93F44FBA Copy CRC 93F44FBA Copy OK

No errors occurred

AccurateRip summary

Track 1 cannot be verified as accurate (confidence 2) [18873A6C], AccurateRip returned [5DE30D25] (AR v2)Track 2 cannot be verified as accurate (confidence 2) [5898018C], AccurateRip returned [A7FD95E5] (AR v2)Track 3 cannot be verified as accurate (confidence 2) [95DFF12F], AccurateRip returned [6464BE5D] (AR v2)Track 4 cannot be verified as accurate (confidence 2) [9D00EF64], AccurateRip returned [9A0EB012] (AR v2)Track 5 cannot be verified as accurate (confidence 2) [0F3D286F], AccurateRip returned [97A3816F] (AR v2)Track 6 cannot be verified as accurate (confidence 2) [10811A11], AccurateRip returned [96A2A3E2] (AR v2)Track 7 cannot be verified as accurate (confidence 2) [7F3CD1EE], AccurateRip returned [0FCB7380] (AR v2)Track 8 cannot be verified as accurate (confidence 2) [6FC583D6], AccurateRip returned [EFABE72A] (AR v2)Track 9 cannot be verified as accurate (confidence 2) [96F1C89D], AccurateRip returned [2903BF81] (AR v2)

No tracks could be verified as accurateYou may have a different pressing from the one(s) in the database

End of status report

==== Log checksum 3A1097FA32F021734A09DCD3CAF18869A40FFE1E35420E7249EE063088A94999 ====
[CUETools log; Date: 07.12.2013 19:15:57; Version: 2.1.4][CTDB TOCID: .z8kEYZVG5aprX3fe5.bwefDaFA-] found.Track | CTDB Status 1 | (7/7) Accurately ripped 2 | (7/7) Accurately ripped 3 | (7/7) Accurately ripped 4 | (7/7) Accurately ripped 5 | (7/7) Accurately ripped 6 | (7/7) Accurately ripped 7 | (7/7) Accurately ripped 8 | (7/7) Accurately ripped 9 | (7/7) Accurately ripped[AccurateRip ID: 000e3f60-0069040d-7909da09] found.Track [ CRC | V2 ] Status 01 [292a85a4|18873a6c] (0+0/2) No match 02 [0126b3ab|5898018c] (0+0/2) No match 03 [aee9d493|95dff12f] (0+0/2) No match 04 [d6a88be1|9d00ef64] (0+0/2) No match 05 [8daa3f68|0f3d286f] (0+0/2) No match 06 [e1090395|10811a11] (0+0/2) No match 07 [61067d7a|7f3cd1ee] (0+0/2) No match 08 [fd47c89e|6fc583d6] (0+0/2) No match 09 [faabf666|96f1c89d] (0+0/2) No matchOffsetted by -1221: 01 [5de30d25] (2/2) Accurately ripped 02 [a7fd95e5] (2/2) Accurately ripped 03 [6464be5d] (2/2) Accurately ripped 04 [9a0eb012] (2/2) Accurately ripped 05 [97a3816f] (2/2) Accurately ripped 06 [96a2a3e2] (2/2) Accurately ripped 07 [0fcb7380] (2/2) Accurately ripped 08 [efabe72a] (2/2) Accurately ripped 09 [2903bf81] (2/2) Accurately ripped

Track Peak [ CRC32 ] [W/O NULL] [ LOG ] -- 100,0 [93F44FBA] [0F53EAA0] CRC32 01 93,7 [F2A87A41] [3CDDC4AC] 02 83,6 [79B83DE1] [C5F66591] 03 100,0 [577958A2] [18C5104E] 04 92,3 [D64394D6] [5A8BAD68] 05 100,0 [B5252082] [57E35B70] 06 100,0 [E91FB78D] [FDE10723] 07 96,6 [A35C7081] [3DD7E7E4] 08 97,6 [FEFF077D] [7CE16C83] 09 99,8 [188B5DAA] [D0EB242F]


Трекер:  [ 27-Ноя-2014 11:00 ]

  

Скачать .torrent

Размер .torrent файла 18 KB


Размер: 224 MB
Хэш (hash) релиза: bdb503590b23a7a211105257bf2426191f884c41

Еще никто не оставлял запись к записи скачать торрент Joe Hisaishi - My Neighbor Totoro - Hi-Tech Series Tonari No Totoro . Будь первым!

!Обратная связь