Kings201892 min +3 | Catalogs & Directories | 機動戦隊アイアンサーガ

Скачать через торрент музыку Трёхглазый Mittsume Ga Tooru бесплатно без регистрации torrent

Статистика раздачи
Размер:  298 MB   |    Зарегистрирован:  3 года 7 месяцев   |    .torrent скачан:  41 раз   |   
Раздают:  1  
   
загрузка...
 
Автор Сообщение

Galfimbul

avatar Galfimbul


Трёхглазый / Mittsume Ga Tooru / 三つ目がとおる

Название альбома: Various Artists - Mittsume Ga Tooru OST
Композиторы: Toshiyuki Watanabe / Uji Tsunogo / Yasuo Kosugi
Исполнитель: Tomoko Tokugaki
Год выпуска: 1990 г.
Издатель (лейбл): Nippon Columbia Co., LTD
Страна: Япония
Аудио кодек: FLAC (*.flac)
Тип рипа: image+.cue
Битрейт аудио: lossless
Продолжительность: 00:52:37
Источник: Собственный рип
Наличие сканов в содержимом раздачи: да

Треклист:

01. Toshiyuki Watanabe - Purorogu: Horobisari shi funmyou (02:29)

02. Tomoko Tokugaki - ? (Hatena) no bumeran (03:00)

03. Toshiyuki Watanabe - Sharaku to Kazu noboru (04:22)

04. Toshiyuki Watanabe - Kouki shin to hakubutsukan (05:37)

05. Toshiyuki Watanabe - 3 tsu no me to Sharaku no higeki (06:33)

06. Toshiyuki Watanabe - Akuma no chikara to kage no keirya ku (04:12)

07. Uji Tsunogo - Shizuka na hibi to yasuraka na Sharaku (01:30)

08. Toshiyuki Watanabe - Kage no shuurai to bouken shin (04:49)

09. Toshiyuki Watanabe - Tatakai to yomigaeru mittsume zoku no chikara (05:59)

10. Toshiyuki Watanabe - Bunmei, kodai to gendai (09:03)

11. Yasuo Kosugi - Epirogu: Akuma no purinsu (01:55)

12. Tomoko Tokugaki - Chotto mahou de bansouko (03:03)
Exact Audio Copy V1.0 beta 3 from 29. August 2011

Отчёт EAC об извлечении, выполненном 31. декабря 2013, 6:25

Various Artists / Mittsume Ga Tooru OST

Дисковод: hp DVD A DS8A5LH Adapter: 2 ID: 0

Режим чтения : ДостоверностьИспользование точного потока : ДаОтключение кэша аудио : ДаИспользование указателей C2 : Нет

Коррекция смещения при чтении : 6Способность читать области Lead-in и Lead-out : НетЗаполнение пропущенных сэмплов тишиной : ДаУдаление блоков с тишиной в начале и конце : НетПри вычислениях CRC использовались нулевые сэмплы : ДаИнтерфейс : Установленный внешний ASPI-интерфейс

Выходной формат : Пользовательский кодировщикВыбранный битрейт : 768 kBit/sКачество : ВысокийДобавление ID3-тега : НетУтилита сжатия : C:\Program Files (x86)\Exact Audio Copy\Flac\flac.exeДополнительные параметры : -V -8 -T "Date=%year%" -T "Genre=%genre%" %source%

TOC извлечённого CD

Трек | Старт | Длительность | Начальный сектор | Конечный сектор --------------------------------------------------------------------- 1 | 0:00.00 | 2:29.37 | 0 | 11211 2 | 2:29.37 | 3:00.10 | 11212 | 24721 3 | 5:29.47 | 4:22.73 | 24722 | 44444 4 | 9:52.45 | 5:37.72 | 44445 | 69791 5 | 15:30.42 | 6:33.63 | 69792 | 99329 6 | 22:04.30 | 4:12.57 | 99330 | 118286 7 | 26:17.12 | 1:30.48 | 118287 | 125084 8 | 27:47.60 | 4:49.07 | 125085 | 146766 9 | 32:36.67 | 5:59.08 | 146767 | 173699 10 | 38:36.00 | 9:03.07 | 173700 | 214431 11 | 47:39.07 | 1:55.38 | 214432 | 223094 12 | 49:34.45 | 3:03.30 | 223095 | 236849

Характеристики диапазона извлечения и сообщения об ошибках

Выбранный диапазон

Имя файла C:\Mittsume Ga Tooru OST Collection\Various Artists - Mittsume Ga Tooru OST\Various Artists - Mittsume Ga Tooru OST.wav

Пиковый уровень 100.0 % Скорость извлечения 3.4 X Качество диапазона 99.9 % CRC теста DC5DECA4 CRC копии DC5DECA4 Копирование... OK

Ошибок не произошло

Конец отчёта

==== Контрольная сумма отчёта E30BCF6C38153E555815C101961FA3538163DF79935DA901FA787E38AEC9BAB8 ====
Примечание: Правильно название этого аниме пишется Mittsume Ga Tooru (三つmittsu目meがgaとおるtōru ), а не как все привыкли (Mitsume Ga Tooru с одной t). Всего к сериалу было выпущено три OST'а (мне удалось достать только два) и два сингла.

Трекер:  [ 27-Ноя-2014 11:00 ]

  

Скачать .torrent

Размер .torrent файла 12 KB


Размер: 298 MB
Хэш (hash) релиза: cba3c633bcaf454c03375e319e74c5d3503199f0

Торренты, похожие на Трёхглазый Mittsume Ga Tooru скачать торрент

Форум Название Автор Размер S L Добавлен
Саундтреки к аниме (lossless) ·· (OST) Трёхглазый / Mittsume Ga Tooru / Mitsume Ga Tooru (Toshiyuki Watanabe - Mittsume Ga Tooru OST II) - 1991 г., FLAC (image+.cue), lossless Galfimbul 274395381262 MB 0 0 1417075891

11:11

27-Ноя-14

Еще никто не оставлял запись к записи скачать торрент Трёхглазый Mittsume Ga Tooru . Будь первым!

!Обратная связь