Running Man Episode 405 | HD Just Looking (1999) | Betsy Butoryak

Скачать через торрент музыку Трёхглазый Mittsume Ga Tooru бесплатно без регистрации torrent

Статистика раздачи
Размер:  262 MB   |    Зарегистрирован:  3 года 7 месяцев   |    .torrent скачан:  39 раз   |   
Раздают:  1  
   
загрузка...
 
Автор Сообщение

Galfimbul

avatar Galfimbul


Трёхглазый / Mittsume Ga Tooru / 三つ目がとおる

Название альбома: Toshiyuki Watanabe - Mittsume Ga Tooru OST II
Композитор: Toshiyuki Watanabe
Год выпуска: 1991 г.
Издатель (лейбл): Nippon Columbia Co., LTD
Страна: Япония
Аудио кодек: FLAC (*.flac)
Тип рипа: image+.cue
Битрейт аудио: lossless
Продолжительность: 00:46:33
Источник: Собственный рип
Наличие сканов в содержимом раздачи: да

Треклист:

01. Purorogu: Bouken he no sasoi (03:28)

02. ? (Hatena) no bumeran (Insutorumentaru) (03:00)

03. Tabidachi to shinobiyoru kage (03:34)

04. Atarashii sekai de (04:18)

05. Tanken (05:44)

06. Katsugeki (03:07)

07. Toubou to hakken (04:12)

08. Shuugeki (02:08)

09. Wakare to kunou (05:10)

10. Tatakai (03:41)

11. Kieru bunmei (02:24)

12. Epirogu: Atarashii bouken he (02:38)

13. Chotto mahou de bansouko (Insutorumentaru) (03:02)
Exact Audio Copy V1.0 beta 3 from 29. August 2011

Отчёт EAC об извлечении, выполненном 31. декабря 2013, 6:55

Toshiyuki Watanabe / Mittsume Ga Tooru OST II

Дисковод: hp DVD A DS8A5LH Adapter: 2 ID: 0

Режим чтения : ДостоверностьИспользование точного потока : ДаОтключение кэша аудио : ДаИспользование указателей C2 : Нет

Коррекция смещения при чтении : 6Способность читать области Lead-in и Lead-out : НетЗаполнение пропущенных сэмплов тишиной : ДаУдаление блоков с тишиной в начале и конце : НетПри вычислениях CRC использовались нулевые сэмплы : ДаИнтерфейс : Установленный внешний ASPI-интерфейс

Выходной формат : Пользовательский кодировщикВыбранный битрейт : 768 kBit/sКачество : ВысокийДобавление ID3-тега : НетУтилита сжатия : C:\Program Files (x86)\Exact Audio Copy\Flac\flac.exeДополнительные параметры : -V -8 -T "Date=%year%" -T "Genre=%genre%" %source%

TOC извлечённого CD

Трек | Старт | Длительность | Начальный сектор | Конечный сектор --------------------------------------------------------------------- 1 | 0:00.00 | 3:28.67 | 0 | 15666 2 | 3:28.67 | 3:00.13 | 15667 | 29179 3 | 6:29.05 | 3:34.62 | 29180 | 45291 4 | 10:03.67 | 4:18.65 | 45292 | 64706 5 | 14:22.57 | 5:44.55 | 64707 | 90561 6 | 20:07.37 | 3:07.58 | 90562 | 104644 7 | 23:15.20 | 4:12.70 | 104645 | 123614 8 | 27:28.15 | 2:08.27 | 123615 | 133241 9 | 29:36.42 | 5:10.05 | 133242 | 156496 10 | 34:46.47 | 3:41.65 | 156497 | 173136 11 | 38:28.37 | 2:24.10 | 173137 | 183946 12 | 40:52.47 | 2:38.08 | 183947 | 195804 13 | 43:30.55 | 3:02.47 | 195805 | 209501

Характеристики диапазона извлечения и сообщения об ошибках

Выбранный диапазон

Имя файла C:\Mittsume Ga Tooru OST Collection\Toshiyuki Watanabe - Mittsume Ga Tooru OST II\Toshiyuki Watanabe - Mittsume Ga Tooru OST II.wav

Пиковый уровень 100.0 % Скорость извлечения 3.7 X Качество диапазона 100.0 % CRC теста 6A1762E2 CRC копии 6A1762E2 Копирование... OK

Ошибок не произошло

Конец отчёта

==== Контрольная сумма отчёта 8E0D09F45A77DC8D719BD31B4D3DC08547664C1F8EBBD97DE4BAB92ACBD3294E ====


Трекер:  [ 27-Ноя-2014 11:00 ]

  

Скачать .torrent

Размер .torrent файла 11 KB


Размер: 262 MB
Хэш (hash) релиза: a16a84a8f83cf54590633bce91bdd1c7e7dbde61

Торренты, похожие на Трёхглазый Mittsume Ga Tooru скачать торрент

Форум Название Автор Размер S L Добавлен
Саундтреки к аниме (lossless) ·· (OST) Трёхглазый / Mittsume Ga Tooru / Mitsume Ga Tooru (Various Artists - Mittsume Ga Tooru OST) - 1990 г., FLAC (image+.cue), lossless Galfimbul 312131374298 MB 0 0 1417075895

11:11

27-Ноя-14

Еще никто не оставлял запись к записи скачать торрент Трёхглазый Mittsume Ga Tooru . Будь первым!

!Обратная связь