Tomb Raider (2018) 1080p | Enterprise Application Architecture with .NET Core | Télécharger Part 5

Скачать через торрент музыку бесплатно без регистрации torrent

Статистика раздачи
Размер:  747 MB   |    Зарегистрирован:  3 года 7 месяцев   |    .torrent скачан:  37 раз   |   
Раздают:  1  
   
загрузка...
 
Автор Сообщение

Galfimbul

avatar Galfimbul


Сасами: Клуб девочек-волшебницОбщие характеристики:
Производство: Япония
Год выпуска: 2006
Формат: [url=...48706]FLAC[/url]
Частота: 44100Гц
Продолжительность: 52 трека - 1:48:17
Альбомы:
~School Days~ Sound & Drama
Список треков:
01. Sweet MAGIC (full size) [3:57]
02. Atarashii asa [2:09]
03. Kyou kara mahou shoujo! [1:27]
04. Gakkou heikou [1:24]
05. Minna no kyoushitsu [1:01]
06. Majo no sekai [2:05]
07. Osoroshii chikara [0:59]
08. Speed up! [0:54]
09. Komatta komatta [1:30]
10. Original mini drama 'Souji no jikan' [4:26]
11. Yuuwaku [1:13]
12. Iza majo no sekai e [2:07]
13. Daichi no uta [3:18]
14. Makura nage [1:18]
15. Tanoshii gyouji ga hajimaru yo [1:31]
16. Nakayoshi no yubiwa [1:27]
17. Nichijou no fuukei [1:04]
18. Akumu [1:36]
19. Aku watashitachi no unmei [1:27]
20. Sayonara [2:03]
21. Taisetsu na kimochi [1:37]
22. Daichi no uta (instrumental) [3:20]
23. Original mini drama 'Oyasumi no jikan' [5:55]
24. Anata ni aeta koto [2:37]
25. Ashita ni mukatte [1:28]
26. Kirakira Days (full size) [3:17]
~Witch Land~ Sound & Drama
Список треков:
01. Sweet MAGIC (TV size) [1:35]
02. Ketsui [2:20]
03. Erabareshi shoujotachi [0:46]
04. Majo no tou [1:40]
05. Semarikuru hadou [1:19]
06. Kokoro hazumu nichijou [1:18]
07. Original mini drama 'Toukou no jikan' [4:21]
08. Tomodachi ni naritai na [0:57]
09. Atataka na kyuujitsu [1:49]
10. Minna ga koko ni iru koto [1:44]
11. Mikoosa no yabou [1:50]
12. Yuuyake no Solitude (instrumental) [1:28]
13. Kage no maryoku [1:36]
14. Ankoku no kyuutai [1:46]
15. Tabidachi [1:26]
16. Original mini drama 'Yasumi jikan' [3:39]
17. Unmei no mezame [1:18]
18. Shoujotachi no tatakai [1:39]
19. Osorubeki tatsumaki [1:41]
20. Yomigaeru fu no kanjou [1:48]
21. Daichi no uta (harp version) [2:00]
22. Original mini drama 'Houkago' [3:25]
23. Himetaru hikari no chikara [2:17]
24. Ai no tameni [2:18]
25. Mebae [2:39]
26. Yuuyake no Solitude (full size) [4:31]

Проверка:
Exact Audio Copy V1.0 beta 3 from 29. August 2011

EAC extraction logfile from 30. April 2012, 2:43

Tada Akifumi / Sasami - Mahou Shoujo Kurabu ~School Days~ Sound & Drama

Used drive : PLEXTOR DVD-ROM PX-130A Adapter: 1 ID: 0

Read mode : Secure
Utilize accurate stream : Yes
Defeat audio cache : Yes
Make use of C2 pointers : No

Read offset correction : 738
Overread into Lead-In and Lead-Out : No
Fill up missing offset samples with silence : Yes
Delete leading and trailing silent blocks : No
Null samples used in CRC calculations : Yes
Used interface : Native Win32 interface for Win NT & 2000
Gap handling : Appended to previous track

Used output format : User Defined Encoder
Selected bitrate : 768 kBit/s
Quality : High
Add ID3 tag : No
Command line compressor : C:\Program Files (x86)\Exact Audio Copy\FLAC\FLAC.EXE
Additional command line options : -8 -V -T "ARTIST=%artist%" -T "TITLE=%title%" -T "ALBUM=%albumtitle%" -T "DATE=%year%" -T "TRACKNUMBER=%tracknr%" -T "GENRE=%genre%" -T "COMMENT=%comment%" -T "BAND=%albuminterpret%" -T "ALBUMARTIST=%albuminterpret%" -T "COMPOSER=%composer%" %haslyrics%--tag-from-file=LYRICS="%lyricsfile%"%haslyrics% -T "DISCNUMBER=%cdnumber%" -T "TOTALDISCS=%totalcds%" -T "TOTALTRACKS=%numtracks%" %hascover%--picture="%coverfile%"%hascover% %source% -o %dest%

TOC of the extracted CD

Track | Start | Length | Start sector | End sector
---------------------------------------------------------
1 | 0:00.00 | 3:57.30 | 0 | 17804
2 | 3:57.30 | 2:09.37 | 17805 | 27516
3 | 6:06.67 | 1:27.33 | 27517 | 34074
4 | 7:34.25 | 1:23.60 | 34075 | 40359
5 | 8:58.10 | 1:00.47 | 40360 | 44906
6 | 9:58.57 | 2:05.20 | 44907 | 54301
7 | 12:04.02 | 0:58.60 | 54302 | 58711
8 | 13:02.62 | 0:53.63 | 58712 | 62749
9 | 13:56.50 | 1:30.10 | 62750 | 69509
10 | 15:26.60 | 4:25.52 | 69510 | 89436
11 | 19:52.37 | 1:13.15 | 89437 | 94926
12 | 21:05.52 | 2:07.23 | 94927 | 104474
13 | 23:13.00 | 3:17.70 | 104475 | 119319
14 | 26:30.70 | 1:17.60 | 119320 | 125154
15 | 27:48.55 | 1:30.67 | 125155 | 131971
16 | 29:19.47 | 1:26.48 | 131972 | 138469
17 | 30:46.20 | 1:03.42 | 138470 | 143236
18 | 31:49.62 | 1:35.60 | 143237 | 150421
19 | 33:25.47 | 1:26.58 | 150422 | 156929
20 | 34:52.30 | 2:03.00 | 156930 | 166154
21 | 36:55.30 | 1:36.42 | 166155 | 173396
22 | 38:31.72 | 3:19.43 | 173397 | 188364
23 | 41:51.40 | 5:55.15 | 188365 | 215004
24 | 47:46.55 | 2:36.62 | 215005 | 226766
25 | 50:23.42 | 1:27.55 | 226767 | 233346
26 | 51:51.22 | 3:17.30 | 233347 | 248151

Track 1

Filename C:\EAC\Sasami OST 1\01. Magical Sweets - Sweet MAGIC (full size).wav

Pre-gap length 0:00:02.00

Peak level 98.8 %
Extraction speed 3.1 X
Track quality 99.9 %
Test CRC B38E53A8
Copy CRC B38E53A8
Accurately ripped (confidence 1) [7C35F7F3] (AR v1)
Copy OK

Track 2

Filename C:\EAC\Sasami OST 1\02. Tada Akifumi - Atarashii asa.wav

Pre-gap length 0:00:02.42

Peak level 98.8 %
Extraction speed 2.8 X
Track quality 99.9 %
Test CRC F3B0DFD2
Copy CRC F3B0DFD2
Accurately ripped (confidence 1) [06B4DC67] (AR v1)
Copy OK

Track 3

Filename C:\EAC\Sasami OST 1\03. Tada Akifumi - Kyou kara mahou shoujo!.wav

Pre-gap length 0:00:01.41

Peak level 98.8 %
Extraction speed 3.1 X
Track quality 100.0 %
Test CRC E808C729
Copy CRC E808C729
Accurately ripped (confidence 1) [9F1B851E] (AR v1)
Copy OK

Track 4

Filename C:\EAC\Sasami OST 1\04. Tada Akifumi - Gakkou heikou.wav

Pre-gap length 0:00:01.42

Peak level 95.4 %
Extraction speed 3.2 X
Track quality 100.0 %
Test CRC 64FD5E05
Copy CRC 64FD5E05
Accurately ripped (confidence 1) [D20401A0] (AR v1)
Copy OK

Track 5

Filename C:\EAC\Sasami OST 1\05. Tada Akifumi - Minna no kyoushitsu.wav

Pre-gap length 0:00:01.42

Peak level 98.8 %
Extraction speed 2.9 X
Track quality 100.0 %
Test CRC 97668B76
Copy CRC 97668B76
Accurately ripped (confidence 1) [EB1F6053] (AR v1)
Copy OK

Track 6

Filename C:\EAC\Sasami OST 1\06. Tada Akifumi - Majo no sekai.wav

Pre-gap length 0:00:01.41

Peak level 91.6 %
Extraction speed 3.8 X
Track quality 100.0 %
Test CRC 9E58B5F3
Copy CRC 9E58B5F3
Accurately ripped (confidence 1) [973041CB] (AR v1)
Copy OK

Track 7

Filename C:\EAC\Sasami OST 1\07. Tada Akifumi - Osoroshii chikara.wav

Peak level 98.8 %
Extraction speed 3.0 X
Track quality 100.0 %
Test CRC 657D39A4
Copy CRC 657D39A4
Accurately ripped (confidence 1) [FEA6D00A] (AR v1)
Copy OK

Track 8

Filename C:\EAC\Sasami OST 1\08. Tada Akifumi - Speed up!.wav

Pre-gap length 0:00:01.41

Peak level 98.8 %
Extraction speed 3.0 X
Track quality 100.0 %
Test CRC A2775FC0
Copy CRC A2775FC0
Accurately ripped (confidence 1) [A8BFC7C1] (AR v1)
Copy OK

Track 9

Filename C:\EAC\Sasami OST 1\09. Tada Akifumi - Komatta komatta.wav

Pre-gap length 0:00:01.42

Peak level 98.8 %
Extraction speed 3.7 X
Track quality 100.0 %
Test CRC AB879045
Copy CRC AB879045
Accurately ripped (confidence 1) [16C45476] (AR v1)
Copy OK

Track 10

Filename C:\EAC\Sasami OST 1\10. Tada Akifumi - Orijinaru mini dorama 'souji no jikan'.wav

Pre-gap length 0:00:03.42

Peak level 98.8 %
Extraction speed 4.8 X
Track quality 100.0 %
Test CRC 50297632
Copy CRC 50297632
Accurately ripped (confidence 1) [877599B8] (AR v1)
Copy OK

Track 11

Filename C:\EAC\Sasami OST 1\11. Tada Akifumi - Yuuwaku.wav

Pre-gap length 0:00:04.04

Peak level 79.5 %
Extraction speed 3.8 X
Track quality 100.0 %
Test CRC 6D643457
Copy CRC 6D643457
Accurately ripped (confidence 1) [2B2F4021] (AR v1)
Copy OK

Track 12

Filename C:\EAC\Sasami OST 1\12. Tada Akifumi - Iza majo no sekai e.wav

Pre-gap length 0:00:01.41

Peak level 96.6 %
Extraction speed 4.4 X
Track quality 100.0 %
Test CRC 745B0939
Copy CRC 745B0939
Accurately ripped (confidence 1) [85AC461B] (AR v1)
Copy OK

Track 13

Filename C:\EAC\Sasami OST 1\13. Muratani Sachiko - Daichi no uta.wav

Pre-gap length 0:00:01.42

Peak level 90.1 %
Extraction speed 5.0 X
Track quality 100.0 %
Test CRC BC0ED6D4
Copy CRC BC0ED6D4
Accurately ripped (confidence 1) [78E0F7A0] (AR v1)
Copy OK

Track 14

Filename C:\EAC\Sasami OST 1\14. Tada Akifumi - Makura nage.wav

Pre-gap length 0:00:01.42

Peak level 95.4 %
Extraction speed 4.2 X
Track quality 100.0 %
Test CRC 75AC4D28
Copy CRC 75AC4D28
Accurately ripped (confidence 1) [FEFFFF8F] (AR v1)
Copy OK

Track 15

Filename C:\EAC\Sasami OST 1\15. Tada Akifumi - Tanoshii gyouji ga hajimaru yo.wav

Pre-gap length 0:00:02.04

Peak level 98.8 %
Extraction speed 4.4 X
Track quality 100.0 %
Test CRC 84F2B417
Copy CRC 84F2B417
Accurately ripped (confidence 1) [6E275F88] (AR v1)
Copy OK

Track 16

Filename C:\EAC\Sasami OST 1\16. Tada Akifumi - Nakayoshi no yubiwa.wav

Pre-gap length 0:00:01.41

Peak level 98.8 %
Extraction speed 3.5 X
Track quality 99.8 %
Test CRC 7FB7BBE6
Copy CRC 7FB7BBE6
Accurately ripped (confidence 1) [758FBA64] (AR v1)
Copy OK

Track 17

Filename C:\EAC\Sasami OST 1\17. Tada Akifumi - Nichijou no fuukei.wav

Pre-gap length 0:00:01.42

Peak level 96.1 %
Extraction speed 4.0 X
Track quality 100.0 %
Test CRC F120D19A
Copy CRC F120D19A
Accurately ripped (confidence 1) [99ADB6CC] (AR v1)
Copy OK

Track 18

Filename C:\EAC\Sasami OST 1\18. Tada Akifumi - Akumu.wav

Pre-gap length 0:00:01.41

Peak level 98.8 %
Extraction speed 4.7 X
Track quality 100.0 %
Test CRC 52355211
Copy CRC 52355211
Accurately ripped (confidence 1) [D1769490] (AR v1)
Copy OK

Track 19

Filename C:\EAC\Sasami OST 1\19. Tada Akifumi - Aku watashitachi no unmei.wav

Pre-gap length 0:00:01.41

Peak level 97.2 %
Extraction speed 4.5 X
Track quality 100.0 %
Test CRC 50D780FF
Copy CRC 50D780FF
Accurately ripped (confidence 1) [A682484E] (AR v1)
Copy OK

Track 20

Filename C:\EAC\Sasami OST 1\20. Tada Akifumi - Sayonara.wav

Pre-gap length 0:00:01.42

Peak level 98.8 %
Extraction speed 5.1 X
Track quality 100.0 %
Test CRC 65136157
Copy CRC 65136157
Accurately ripped (confidence 1) [DC4F2299] (AR v1)
Copy OK

Track 21

Filename C:\EAC\Sasami OST 1\21. Tada Akifumi - Taisetsu na kimochi.wav

Pre-gap length 0:00:02.04

Peak level 98.8 %
Extraction speed 4.9 X
Track quality 100.0 %
Test CRC E55F78EA
Copy CRC E55F78EA
Accurately ripped (confidence 1) [ADFD76DC] (AR v1)
Copy OK

Track 22

Filename C:\EAC\Sasami OST 1\22. Tada Akifumi - Daichi no uta (instrumental).wav

Peak level 90.1 %
Extraction speed 5.8 X
Track quality 100.0 %
Test CRC 77CBA36A
Copy CRC 77CBA36A
Accurately ripped (confidence 1) [35781062] (AR v1)
Copy OK

Track 23

Filename C:\EAC\Sasami OST 1\23. Tada Akifumi - Orijinaru mini dorama 'oyasumi no jikan'.wav

Pre-gap length 0:00:03.42

Peak level 95.6 %
Extraction speed 6.0 X
Track quality 99.9 %
Test CRC D94D9154
Copy CRC D94D9154
Accurately ripped (confidence 1) [D1A9BE23] (AR v1)
Copy OK

Track 24

Filename C:\EAC\Sasami OST 1\24. Tada Akifumi - Anata ni aeta koto.wav

Pre-gap length 0:00:02.04

Peak level 98.8 %
Extraction speed 6.0 X
Track quality 100.0 %
Test CRC 90834053
Copy CRC 90834053
Accurately ripped (confidence 1) [3D189437] (AR v1)
Copy OK

Track 25

Filename C:\EAC\Sasami OST 1\25. Tada Akifumi - Ashita ni mukatte.wav

Pre-gap length 0:00:01.41

Peak level 98.8 %
Extraction speed 5.3 X
Track quality 100.0 %
Test CRC B1B2A2EC
Copy CRC B1B2A2EC
Accurately ripped (confidence 1) [C1211E82] (AR v1)
Copy OK

Track 26

Filename C:\EAC\Sasami OST 1\26. Magical Sweets - Kirakira deizu (full size).wav

Pre-gap length 0:00:01.04

Peak level 98.8 %
Extraction speed 6.4 X
Track quality 100.0 %
Test CRC B0C20D2E
Copy CRC B0C20D2E
Accurately ripped (confidence 1) [92DB1A7D] (AR v1)
Copy OK

All tracks accurately ripped

No errors occurred

End of status report

==== Log checksum 592417ED82223425D2BA992D8FE6C0A31750C835E6B1B06E4D40A442B3971D45 ====
AUDIOCHECKER v2.0 beta (build 457) - by Dester - [email protected]
~~~~~~~~~~~~~~~~~~~~~~~~~~~~~~~~~~
-=== DO NOT EDIT THIS FILE! ===-

Path: ...\2006 - School Days

01 -=- 01 - Sweet MAGIC (full size).flac -=- CDDA (100%)
02 -=- 02 - Atarashii asa.flac -=- CDDA (100%)
03 -=- 03 - Kyou kara mahou shoujo!.flac -=- CDDA (100%)
04 -=- 04 - Gakkou heikou.flac -=- CDDA (99%)
05 -=- 05 - Minna no kyoushitsu.flac -=- CDDA (99%)
06 -=- 06 - Majo no sekai.flac -=- CDDA (100%)
07 -=- 07 - Osoroshii chikara.flac -=- CDDA (100%)
08 -=- 08 - Speed up!.flac -=- CDDA (100%)
09 -=- 09 - Komatta komatta.flac -=- CDDA (100%)
10 -=- 10 - Original mini drama 'Souji no jikan'.flac -=- CDDA (99%)
11 -=- 11 - Yuuwaku.flac -=- CDDA (100%)
12 -=- 12 - Iza majo no sekai e.flac -=- CDDA (100%)
13 -=- 13 - Daichi no uta.flac -=- CDDA (100%)
14 -=- 14 - Makura nage.flac -=- CDDA (100%)
15 -=- 15 - Tanoshii gyouji ga hajimaru yo.flac -=- CDDA (100%)
16 -=- 16 - Nakayoshi no yubiwa.flac -=- CDDA (100%)
17 -=- 17 - Nichijou no fuukei.flac -=- CDDA (99%)
18 -=- 18 - Akumu.flac -=- CDDA (100%)
19 -=- 19 - Aku watashitachi no unmei.flac -=- CDDA (99%)
20 -=- 20 - Sayonara.flac -=- CDDA (100%)
21 -=- 21 - Taisetsu na kimochi.flac -=- CDDA (100%)
22 -=- 22 - Daichi no uta (instrumental).flac -=- CDDA (100%)
23 -=- 23 - Original mini drama 'Oyasumi no jikan'.flac -=- CDDA (100%)
24 -=- 24 - Anata ni aeta koto.flac -=- CDDA (100%)
25 -=- 25 - Ashita ni mukatte.flac -=- CDDA (100%)
26 -=- 26 - Kirakira Days (full size).flac -=- CDDA (100%)

Summary 99,81% CDDA

262746756
Exact Audio Copy V1.0 beta 3 from 29. August 2011

EAC extraction logfile from 30. April 2012, 1:49

Tada Akifumi / Sasami - Mahou Shoujo Kurabu ~Witch Land~ Sound & Drama

Used drive : PLEXTOR DVD-ROM PX-130A Adapter: 1 ID: 0

Read mode : Secure
Utilize accurate stream : Yes
Defeat audio cache : Yes
Make use of C2 pointers : No

Read offset correction : 738
Overread into Lead-In and Lead-Out : No
Fill up missing offset samples with silence : Yes
Delete leading and trailing silent blocks : No
Null samples used in CRC calculations : Yes
Used interface : Native Win32 interface for Win NT & 2000
Gap handling : Appended to previous track

Used output format : User Defined Encoder
Selected bitrate : 768 kBit/s
Quality : High
Add ID3 tag : No
Command line compressor : C:\Program Files (x86)\Exact Audio Copy\FLAC\FLAC.EXE
Additional command line options : -8 -V -T "ARTIST=%artist%" -T "TITLE=%title%" -T "ALBUM=%albumtitle%" -T "DATE=%year%" -T "TRACKNUMBER=%tracknr%" -T "GENRE=%genre%" -T "COMMENT=%comment%" -T "BAND=%albuminterpret%" -T "ALBUMARTIST=%albuminterpret%" -T "COMPOSER=%composer%" %haslyrics%--tag-from-file=LYRICS="%lyricsfile%"%haslyrics% -T "DISCNUMBER=%cdnumber%" -T "TOTALDISCS=%totalcds%" -T "TOTALTRACKS=%numtracks%" %hascover%--picture="%coverfile%"%hascover% %source% -o %dest%

TOC of the extracted CD

Track | Start | Length | Start sector | End sector
---------------------------------------------------------
1 | 0:00.00 | 1:34.60 | 0 | 7109
2 | 1:34.60 | 2:19.40 | 7110 | 17574
3 | 3:54.25 | 0:45.40 | 17575 | 20989
4 | 4:39.65 | 1:39.52 | 20990 | 28466
5 | 6:19.42 | 1:19.13 | 28467 | 34404
6 | 7:38.55 | 1:18.05 | 34405 | 40259
7 | 8:56.60 | 4:20.62 | 40260 | 59821
8 | 13:17.47 | 0:57.35 | 59822 | 64131
9 | 14:15.07 | 1:49.05 | 64132 | 72311
10 | 16:04.12 | 1:44.25 | 72312 | 80136
11 | 17:48.37 | 1:49.40 | 80137 | 88351
12 | 19:38.02 | 1:28.18 | 88352 | 94969
13 | 21:06.20 | 1:36.10 | 94970 | 102179
14 | 22:42.30 | 1:45.47 | 102180 | 110101
15 | 24:28.02 | 1:25.58 | 110102 | 116534
16 | 25:53.60 | 3:38.60 | 116535 | 132944
17 | 29:32.45 | 1:18.27 | 132945 | 138821
18 | 30:50.72 | 1:38.43 | 138822 | 146214
19 | 32:29.40 | 1:40.60 | 146215 | 153774
20 | 34:10.25 | 1:47.50 | 153775 | 161849
21 | 35:58.00 | 2:00.00 | 161850 | 170849
22 | 37:58.00 | 3:25.37 | 170850 | 186261
23 | 41:23.37 | 2:17.30 | 186262 | 196566
24 | 43:40.67 | 2:18.13 | 196567 | 206929
25 | 45:59.05 | 2:39.22 | 206930 | 218876
26 | 48:38.27 | 4:30.48 | 218877 | 239174

Track 1

Filename C:\EAC\Sasami OST 2\01. Magical Sweets - Sweet MAGIC (TV size).wav

Pre-gap length 0:00:02.00

Peak level 100.0 %
Extraction speed 4.2 X
Track quality 100.0 %
Test CRC 13B4799A
Copy CRC 13B4799A
Accurately ripped (confidence 1) [2289E043] (AR v1)
Copy OK

Track 2

Filename C:\EAC\Sasami OST 2\02. Tada Akifumi - Ketsui.wav

Pre-gap length 0:00:03.43

Peak level 100.0 %
Extraction speed 5.0 X
Track quality 100.0 %
Test CRC 9F7250C4
Copy CRC 9F7250C4
Accurately ripped (confidence 1) [1D1E7DBF] (AR v1)
Copy OK

Track 3

Filename C:\EAC\Sasami OST 2\03. Tada Akifumi - Erabareshi shoujo-tachi.wav

Pre-gap length 0:00:02.43

Peak level 100.0 %
Extraction speed 3.6 X
Track quality 100.0 %
Test CRC CB5F439C
Copy CRC CB5F439C
Accurately ripped (confidence 1) [AA138E51] (AR v1)
Copy OK

Track 4

Filename C:\EAC\Sasami OST 2\04. Tada Akifumi - Majo no tou.wav

Pre-gap length 0:00:02.43

Peak level 100.0 %
Extraction speed 4.9 X
Track quality 100.0 %
Test CRC 48B24E47
Copy CRC 48B24E47
Accurately ripped (confidence 1) [4979C6E2] (AR v1)
Copy OK

Track 5

Filename C:\EAC\Sasami OST 2\05. Tada Akifumi - Semarikuru hadou.wav

Pre-gap length 0:00:02.42

Peak level 95.4 %
Extraction speed 4.8 X
Track quality 100.0 %
Test CRC 9936DD67
Copy CRC 9936DD67
Accurately ripped (confidence 1) [BCD6677E] (AR v1)
Copy OK

Track 6

Filename C:\EAC\Sasami OST 2\06. Tada Akifumi - Kokoro hazumu nichijou.wav

Pre-gap length 0:00:03.43

Peak level 100.0 %
Extraction speed 4.8 X
Track quality 100.0 %
Test CRC BC1D7573
Copy CRC BC1D7573
Accurately ripped (confidence 1) [9CF198B1] (AR v1)
Copy OK

Track 7

Filename C:\EAC\Sasami OST 2\07. Tada Akifumi - Orijinaru mini dorama 'toukou no jikan'.wav

Pre-gap length 0:00:02.43

Peak level 100.0 %
Extraction speed 6.6 X
Track quality 100.0 %
Test CRC 24408081
Copy CRC 24408081
Accurately ripped (confidence 1) [D1EAEB2F] (AR v1)
Copy OK

Track 8

Filename C:\EAC\Sasami OST 2\08. Tada Akifumi - Tomodachi ni naritai na.wav

Pre-gap length 0:00:02.42

Peak level 100.0 %
Extraction speed 4.7 X
Track quality 100.0 %
Test CRC B4EFBA85
Copy CRC B4EFBA85
Accurately ripped (confidence 1) [8AE74CC1] (AR v1)
Copy OK

Track 9

Filename C:\EAC\Sasami OST 2\09. Tada Akifumi - Atataka na kyuujitsu.wav

Pre-gap length 0:00:03.05

Peak level 98.8 %
Extraction speed 6.0 X
Track quality 100.0 %
Test CRC F6E724EF
Copy CRC F6E724EF
Accurately ripped (confidence 1) [5B9B8ACF] (AR v1)
Copy OK

Track 10

Filename C:\EAC\Sasami OST 2\10. Tada Akifumi - Minna ga koko ni iru koto.wav

Pre-gap length 0:00:02.42

Peak level 100.0 %
Extraction speed 6.1 X
Track quality 100.0 %
Test CRC CC109E56
Copy CRC CC109E56
Accurately ripped (confidence 1) [BC844D5D] (AR v1)
Copy OK

Track 11

Filename C:\EAC\Sasami OST 2\11. Tada Akifumi - Mikoosa no yabou.wav

Pre-gap length 0:00:03.05

Peak level 100.0 %
Extraction speed 5.1 X
Track quality 99.9 %
Test CRC A519EB4A
Copy CRC A519EB4A
Accurately ripped (confidence 1) [C4B650DB] (AR v1)
Copy OK

Track 12

Filename C:\EAC\Sasami OST 2\12. Tada Akifumi - Yuuyake no sorichuudo (instrumental).wav

Pre-gap length 0:00:03.05

Peak level 96.5 %
Extraction speed 6.1 X
Track quality 100.0 %
Test CRC F2E79419
Copy CRC F2E79419
Accurately ripped (confidence 1) [39F2C74F] (AR v1)
Copy OK

Track 13

Filename C:\EAC\Sasami OST 2\13. Tada Akifumi - Kage no maryoku.wav

Pre-gap length 0:00:03.43

Peak level 100.0 %
Extraction speed 6.3 X
Track quality 100.0 %
Test CRC 4EEA1977
Copy CRC 4EEA1977
Accurately ripped (confidence 1) [0179FDA0] (AR v1)
Copy OK

Track 14

Filename C:\EAC\Sasami OST 2\14. Tada Akifumi - Ankoku no kyuutai.wav

Pre-gap length 0:00:02.43

Peak level 100.0 %
Extraction speed 6.7 X
Track quality 100.0 %
Test CRC BBAF1833
Copy CRC BBAF1833
Accurately ripped (confidence 1) [8EE0C19B] (AR v1)
Copy OK

Track 15

Filename C:\EAC\Sasami OST 2\15. Tada Akifumi - Tabidachi.wav

Pre-gap length 0:00:03.42

Peak level 100.0 %
Extraction speed 6.4 X
Track quality 100.0 %
Test CRC 01E8E123
Copy CRC 01E8E123
Accurately ripped (confidence 1) [8F76E3EA] (AR v1)
Copy OK

Track 16

Filename C:\EAC\Sasami OST 2\16. Tada Akifumi - Orijinaru mini dorama 'yasumi jikan'.wav

Pre-gap length 0:00:02.43

Peak level 100.0 %
Extraction speed 7.1 X
Track quality 99.9 %
Test CRC DD4CC0EA
Copy CRC DD4CC0EA
Accurately ripped (confidence 1) [E3D653F2] (AR v1)
Copy OK

Track 17

Filename C:\EAC\Sasami OST 2\17. Tada Akifumi - Unmei no mezame.wav

Pre-gap length 0:00:03.05

Peak level 100.0 %
Extraction speed 5.0 X
Track quality 99.8 %
Test CRC C572777B
Copy CRC C572777B
Accurately ripped (confidence 1) [A6B82EA4] (AR v1)
Copy OK

Track 18

Filename C:\EAC\Sasami OST 2\18. Tada Akifumi - Shoujo-tachi no tatakai.wav

Pre-gap length 0:00:01.42

Peak level 95.4 %
Extraction speed 5.6 X
Track quality 99.8 %
Test CRC 7096CEBE
Copy CRC 7096CEBE
Accurately ripped (confidence 1) [E8E4292F] (AR v1)
Copy OK

Track 19

Filename C:\EAC\Sasami OST 2\19. Tada Akifumi - Osorubeki tatsumaki.wav

Pre-gap length 0:00:02.43

Peak level 100.0 %
Extraction speed 7.2 X
Track quality 100.0 %
Test CRC F894A80D
Copy CRC F894A80D
Accurately ripped (confidence 1) [2952DE0B] (AR v1)
Copy OK

Track 20

Filename C:\EAC\Sasami OST 2\20. Tada Akifumi - Yomigaeru fu no kanjou.wav

Pre-gap length 0:00:02.43

Peak level 100.0 %
Extraction speed 7.3 X
Track quality 100.0 %
Test CRC 09E11AE3
Copy CRC 09E11AE3
Accurately ripped (confidence 1) [FC38600E] (AR v1)
Copy OK

Track 21

Filename C:\EAC\Sasami OST 2\21. Tada Akifumi - Daichi no uta (harp version).wav

Pre-gap length 0:00:01.43

Peak level 100.0 %
Extraction speed 7.8 X
Track quality 100.0 %
Test CRC FF6BFB8B
Copy CRC FF6BFB8B
Accurately ripped (confidence 1) [3B5083FE] (AR v1)
Copy OK

Track 22

Filename C:\EAC\Sasami OST 2\22. Tada Akifumi - Orijinaru mini dorama 'houkago'.wav

Pre-gap length 0:00:01.43

Peak level 100.0 %
Extraction speed 7.7 X
Track quality 99.9 %
Test CRC 23289A3B
Copy CRC 23289A3B
Accurately ripped (confidence 1) [A5FC57F7] (AR v1)
Copy OK

Track 23

Filename C:\EAC\Sasami OST 2\23. Tada Akifumi - Himetaru hikari no chikara.wav

Pre-gap length 0:00:02.42

Peak level 100.0 %
Extraction speed 8.4 X
Track quality 100.0 %
Test CRC 4B8D94B0
Copy CRC 4B8D94B0
Accurately ripped (confidence 1) [57BA56F7] (AR v1)
Copy OK

Track 24

Filename C:\EAC\Sasami OST 2\24. Tada Akifumi - Ai no tameni.wav

Pre-gap length 0:00:03.05

Peak level 81.5 %
Extraction speed 8.6 X
Track quality 100.0 %
Test CRC 5243D5C7
Copy CRC 5243D5C7
Accurately ripped (confidence 1) [2BFDB3F7] (AR v1)
Copy OK

Track 25

Filename C:\EAC\Sasami OST 2\25. Tada Akifumi - Mebae.wav

Pre-gap length 0:00:02.43

Peak level 100.0 %
Extraction speed 8.9 X
Track quality 100.0 %
Test CRC 239BC0FF
Copy CRC 239BC0FF
Accurately ripped (confidence 1) [E9264775] (AR v1)
Copy OK

Track 26

Filename C:\EAC\Sasami OST 2\26. Magical Sweets - Yuuyake no sorichuudo (full size).wav

Pre-gap length 0:00:02.42

Peak level 100.0 %
Extraction speed 9.8 X
Track quality 100.0 %
Test CRC F8AF0E35
Copy CRC F8AF0E35
Accurately ripped (confidence 1) [AE4BA511] (AR v1)
Copy OK

All tracks accurately ripped

No errors occurred

End of status report

==== Log checksum B0153FAE57F9616AF449B6FE9E390894E34220D9503345B1EF2BF8B16843C5E4 ====
AUDIOCHECKER v2.0 beta (build 457) - by Dester - [email protected]
~~~~~~~~~~~~~~~~~~~~~~~~~~~~~~~~~~
-=== DO NOT EDIT THIS FILE! ===-

Path: ...\2006 - Witch Land

01 -=- 01 - Sweet MAGIC (TV size).flac -=- CDDA (100%)
02 -=- 02 - Ketsui.flac -=- CDDA (100%)
03 -=- 03 - Erabareshi shoujotachi.flac -=- CDDA (99%)
04 -=- 04 - Majo no tou.flac -=- CDDA (100%)
05 -=- 05 - Semarikuru hadou.flac -=- CDDA (99%)
06 -=- 06 - Kokoro hazumu nichijou.flac -=- CDDA (100%)
07 -=- 07 - Original mini drama 'Toukou no jikan'.flac -=- CDDA (100%)
08 -=- 08 - Tomodachi ni naritai na.flac -=- CDDA (100%)
09 -=- 09 - Atataka na kyuujitsu.flac -=- CDDA (100%)
10 -=- 10 - Minna ga koko ni iru koto.flac -=- CDDA (100%)
11 -=- 11 - Mikoosa no yabou.flac -=- CDDA (100%)
12 -=- 12 - Yuuyake no Solitude (instrumental).flac -=- CDDA (100%)
13 -=- 13 - Kage no maryoku.flac -=- CDDA (99%)
14 -=- 14 - Ankoku no kyuutai.flac -=- CDDA (100%)
15 -=- 15 - Tabidachi.flac -=- CDDA (92%)
16 -=- 16 - Original mini drama 'Yasumi jikan'.flac -=- CDDA (99%)
17 -=- 17 - Unmei no mezame.flac -=- CDDA (100%)
18 -=- 18 - Shoujotachi no tatakai.flac -=- CDDA (100%)
19 -=- 19 - Osorubeki tatsumaki.flac -=- CDDA (100%)
20 -=- 20 - Yomigaeru fu no kanjou.flac -=- CDDA (100%)
21 -=- 21 - Daichi no uta (harp version).flac -=- CDDA (100%)
22 -=- 22 - Original mini drama 'Houkago'.flac -=- CDDA (100%)
23 -=- 23 - Himetaru hikari no chikara.flac -=- CDDA (100%)
24 -=- 24 - Ai no tameni.flac -=- CDDA (100%)
25 -=- 25 - Mebae.flac -=- CDDA (100%)
26 -=- 26 - Yuuyake no Solitude (full size).flac -=- CDDA (99%)

Summary 99,50% CDDA

94171204

Дополнительно:
- для альбома гарантируется восстановление исходного образа склеиванием файлов (например, фубаром) и возможность прожига на диск при помощи прилагаемого CUE.
Релиз от группы[url=...26827] [/url]

Трекер:  [ 27-Ноя-2014 11:00 ]

  

Скачать .torrent

Размер .torrent файла 21 KB


Размер: 747 MB
Хэш (hash) релиза: 23e71afcb1bda14f8d07ef63989fd96d7d6fb6e2

Еще никто не оставлял запись к записи скачать торрент . Будь первым!

!Обратная связь