Télécharger Part 6 | Wally Cassell | Da Vinci’s Demons 2015 (Sezona 3, Epizoda 5)

Скачать через торрент музыку Joe Hisaishi - Laputa: Castle In The Sky бесплатно без регистрации torrent

Статистика раздачи
Размер:  234 MB   |    Зарегистрирован:  3 года 7 месяцев   |    .torrent скачан:  36 раз   |   
Раздают:  1  
   
загрузка...
 
Автор Сообщение

Galfimbul

avatar Galfimbul


Joe Hisaishi / Laputa: Castle In The Sky (Image Album)
Жанр: Soundtrack
Композитор: Joe Hisaishi
Год выпуска: 1986-5-25
Издатель (лейбл): Tokuma Japan Communications
Номер по каталогу: 32ATC-113
Страна: Japan

Аудио кодек: FLAC (*.flac)
Тип рипа: image+.cue
Режим рипа: test & copy
Битрейт аудио: lossless
Продолжительность: 00:40:13

Источник (релизер): CD (sewerok)
Наличие сканов в содержимом раздачи: да

Треклист:
01. Laputa: Castle In The Sky (Tenkuu No Shiro Rapyuta) [0:03:55.10]
02. Pigeons And A Boy (Hato To Shounen) [0:02:26.25]
03. A Miner (Koufu) [0:04:00.25]
04. Levitation Stone (Hikouseki) [0:02:39.00]
05. Dola (Doora) [0:03:38.60]
06. Sheeta And Pazu (Shiita To Pazu) [0:02:34.07]
07. The Huge Tree (Taiju) [0:05:24.38]
08. Flapter (Furapputaa) [0:04:11.22]
09. The Dragon's Lair (Ryuu No Ana) [0:01:43.23]
10. The Fortress Of Tidith (Tiidiisu No Yousai) [0:04:06.62]
11. Sheeta And Pazu (Shiita To Pazu) [0:03:17.73]
12. Paradise Lost (Ushinawareta Rakuen) [0:02:15.55]
Exact Audio Copy V1.0 beta 3 from 29. August 2011

EAC extraction logfile from 11. January 2014, 21:15

Joe Hisaishi / Laputa - Castle In The Sky (Image Album)

Used drive : TSSTcorpCD/DVDW TS-L632D Adapter: 0 ID: 0

Read mode : SecureUtilize accurate stream : YesDefeat audio cache : YesMake use of C2 pointers : No

Read offset correction : 6Overread into Lead-In and Lead-Out : NoFill up missing offset samples with silence : YesDelete leading and trailing silent blocks : NoNull samples used in CRC calculations : YesUsed interface : Native Win32 interface for Win NT & 2000

Used output format : User Defined EncoderSelected bitrate : 896 kBit/sQuality : HighAdd ID3 tag : NoCommand line compressor : C:\Program Files (x86)\Exact Audio Copy\FLAC\FLAC.EXEAdditional command line options : -8 -V -T "Date=%year%" -T "Genre=%genre%" -T "COMMENT=ripped by sewerok® & Big_S®" %source%

TOC of the extracted CD

Track | Start | Length | Start sector | End sector --------------------------------------------------------- 1 | 0:00.00 | 3:55.10 | 0 | 17634 2 | 3:55.10 | 2:26.25 | 17635 | 28609 3 | 6:21.35 | 4:00.25 | 28610 | 46634 4 | 10:21.60 | 2:39.00 | 46635 | 58559 5 | 13:00.60 | 3:38.60 | 58560 | 74969 6 | 16:39.45 | 2:34.07 | 74970 | 86526 7 | 19:13.52 | 5:24.38 | 86527 | 110864 8 | 24:38.15 | 4:11.22 | 110865 | 129711 9 | 28:49.37 | 1:43.23 | 129712 | 137459 10 | 30:32.60 | 4:06.62 | 137460 | 155971 11 | 34:39.47 | 3:17.73 | 155972 | 170819 12 | 37:57.45 | 2:15.55 | 170820 | 180999

Range status and errors

Selected range

Filename E:\Laputa - Castle In The Sky (Image Album) [1986](32ATC-113 Tokuma Japan Communications)\Joe Hisaishi - Laputa - Castle In The Sky (Image Album).wav

Peak level 100.0 % Extraction speed 1.6 X Range quality 99.9 % Test CRC 55556A16 Copy CRC 55556A16 Copy OK

No errors occurred

AccurateRip summary

Track 1 accurately ripped (confidence 4) [A2BA17C6] (AR v1)Track 2 accurately ripped (confidence 4) [CE61549F] (AR v1)Track 3 accurately ripped (confidence 4) [03EAA5BA] (AR v1)Track 4 accurately ripped (confidence 4) [F98517AE] (AR v1)Track 5 accurately ripped (confidence 4) [EFDF7487] (AR v1)Track 6 accurately ripped (confidence 4) [FC9314EE] (AR v1)Track 7 accurately ripped (confidence 4) [2881EBA1] (AR v1)Track 8 accurately ripped (confidence 4) [6494E360] (AR v1)Track 9 accurately ripped (confidence 4) [0498B321] (AR v1)Track 10 accurately ripped (confidence 4) [3DE509BC] (AR v1)Track 11 accurately ripped (confidence 4) [22934951] (AR v1)Track 12 accurately ripped (confidence 4) [07156B81] (AR v1)

All tracks accurately ripped

End of status report

---- CUETools DB Plugin V2.1.4

[CTDB TOCID: 6bhTSI7GZ16zoNoQpGQbvN_iDlA-] foundSubmit result: 6bhTSI7GZ16zoNoQpGQbvN_iDlA- has been confirmedTrack | CTDB Status 1 | (13/13) Accurately ripped 2 | (13/13) Accurately ripped 3 | (13/13) Accurately ripped 4 | (13/13) Accurately ripped 5 | (13/13) Accurately ripped 6 | (13/13) Accurately ripped 7 | (13/13) Accurately ripped 8 | (13/13) Accurately ripped 9 | (13/13) Accurately ripped 10 | (13/13) Accurately ripped 11 | (13/13) Accurately ripped 12 | (13/13) Accurately ripped

==== Log checksum E121AD363E13AAB712065CDF4B6C2588337689713DDFACB296261DF492C091CC ====
[CUETools log; Date: 11.01.2014 21:18:24; Version: 2.1.4][CTDB TOCID: 6bhTSI7GZ16zoNoQpGQbvN_iDlA-] found.Track | CTDB Status 1 | (14/14) Accurately ripped 2 | (14/14) Accurately ripped 3 | (14/14) Accurately ripped 4 | (14/14) Accurately ripped 5 | (14/14) Accurately ripped 6 | (14/14) Accurately ripped 7 | (14/14) Accurately ripped 8 | (14/14) Accurately ripped 9 | (14/14) Accurately ripped 10 | (14/14) Accurately ripped 11 | (14/14) Accurately ripped 12 | (14/14) Accurately ripped[AccurateRip ID: 00124aae-00aaf352-8e096d0c] found.Track [ CRC | V2 ] Status 01 [a2ba17c6|c966d4c0] (04+00/16) Accurately ripped 02 [ce61549f|2ef8649c] (04+00/16) Accurately ripped 03 [03eaa5ba|3c97a8db] (04+00/16) Accurately ripped 04 [f98517ae|665d204a] (04+00/16) Accurately ripped 05 [efdf7487|df124174] (04+00/16) Accurately ripped 06 [fc9314ee|0c19ddb5] (04+00/16) Accurately ripped 07 [2881eba1|81c9f767] (04+00/17) Accurately ripped 08 [6494e360|19e22b62] (04+00/16) Accurately ripped 09 [0498b321|8feb4f8d] (04+00/16) Accurately ripped 10 [3de509bc|5d061eb8] (04+00/16) Accurately ripped 11 [22934951|c8b4cb06] (04+00/16) Accurately ripped 12 [07156b81|96385859] (04+00/15) Accurately rippedOffsetted by 28: 01 [9f1cbb19] (05/16) Accurately ripped 02 [567841f2] (05/16) Accurately ripped 03 [bcb8906a] (05/16) Accurately ripped 04 [1375e53e] (05/16) Accurately ripped 05 [96668fda] (05/16) Accurately ripped 06 [ea50c1e1] (05/16) Accurately ripped 07 [fc17b2b9] (06/17) Accurately ripped 08 [0d09722e] (05/16) Accurately ripped 09 [c0c23852] (05/16) Accurately ripped 10 [0a0df9e7] (05/16) Accurately ripped 11 [43b9f9ae] (05/16) Accurately ripped 12 [9f937409] (04/15) Accurately rippedOffsetted by 353: 01 [3d4ec521] (00/16) No match (V2 was not tested) 02 [f5a5da21] (00/16) No match (V2 was not tested) 03 [21053a81] (00/16) No match (V2 was not tested) 04 [e8f47723] (00/16) No match (V2 was not tested) 05 [ba3d1f6a] (00/16) No match (V2 was not tested) 06 [0edfe382] (00/16) No match (V2 was not tested) 07 [e8b6efe8] (00/17) No match (V2 was not tested) 08 [8038a598] (00/16) No match (V2 was not tested) 09 [e89bb392] (00/16) No match (V2 was not tested) 10 [f740dd42] (00/16) No match (V2 was not tested) 11 [f3e836e0] (00/16) No match (V2 was not tested) 12 [4b3c5ca5] (00/15) No match (V2 was not tested)

Track Peak [ CRC32 ] [W/O NULL] [ LOG ] -- 100,0 [55556A16] [E7131ADD] CRC32 01 75,9 [0F79C431] [3E393B91] 02 74,5 [090361E6] [FD9BE446] 03 75,7 [E726DF9E] [922FFC94] 04 30,7 [C3D9E0B3] [134F26D0] 05 100,0 [18F159C4] [D1F56C2E] 06 72,7 [74186D11] [8DC594E8] 07 84,9 [539D72E5] [9F2C5C87] 08 79,8 [F99554B3] [F0AAE26F] 09 61,4 [D4DD53BC] [5144605B] 10 90,1 [AAB189DC] [F9D88ACF] 11 71,8 [4201CA31] [11BDBBAF] 12 43,0 [5CFB0332] [A301C412]
[url]...2804673[/url] правильный рип


Трекер:  [ 27-Ноя-2014 11:00 ]

  

Скачать .torrent

Размер .torrent файла 19 KB


Размер: 234 MB
Хэш (hash) релиза: c1120bd9ddd958cfcf6c8a2b06281ed7476f0779

Еще никто не оставлял запись к записи скачать торрент Joe Hisaishi - Laputa: Castle In The Sky . Будь первым!

!Обратная связь