Sim, renove agora a subscrição | Re: Zero - Starting Life in Another World (Cantonese) - 從零開始的異世界生活 - Episode 08 | Iron Flowers

Скачать через торрент музыку Школа Мертвецов Gakuen Mokushiroku - High School of the Dead бесплатно без регистрации torrent

Статистика раздачи
Размер:  1.41 GB   |    Зарегистрирован:  3 года 7 месяцев   |    .torrent скачан:  49 раз   |   
Раздают:  1  
   
загрузка...
 
Автор Сообщение

Galfimbul

avatar Galfimbul



Год выпуска: 2010
Страна: Япония
Жанр: OST
Продолжительность: 15:51+61:00+59:46+69:23
Выпуск: c 18.08.2010 по 27.10.2010
Тип рипа: image+.cue
Формат: flac
Источник: bakabt.me
Сканы: прилагаются
Композитор: Вада Такафуми
Лейбл: Geneon Universal Entertainment
Дата выпуска: 18 августа 2010 г.
Номер по каталогу: GNCA-0143
Продолжительность: 15:51
Треклист:
01. HIGHSCHOOL OF THE DEAD
02. Ripple
03. HIGHSCHOOL OF THE DEAD (TV size)
04. HIGHSCHOOL OF THE DEAD (instrumental)
05. Ripple (instrumental)
Exact Audio Copy V0.99 prebeta 5 from 4. May 2009

EAC extraction logfile from 18. August 2010, 18:52

岸田教団&THE明星ロケッツ / HIGHSCHOOL OF THE DEAD

Used drive : HL-DT-STDVDRAM GH20NS10 Adapter: 0 ID: 3

Read mode : SecureUtilize accurate stream : YesDefeat audio cache : NoMake use of C2 pointers : No

Read offset correction : 637Overread into Lead-In and Lead-Out : YesFill up missing offset samples with silence : YesDelete leading and trailing silent blocks : NoNull samples used in CRC calculations : YesUsed interface : Native Win32 interface for Win NT & 2000

Used output format : Internal WAV RoutinesSample format : 44.100 Hz; 16 Bit; Stereo

TOC of the extracted CD

Track | Start | Length | Start sector | End sector --------------------------------------------------------- 1 | 0:00.00 | 3:22.52 | 0 | 15201 2 | 3:22.52 | 3:47.12 | 15202 | 32238 3 | 7:09.64 | 1:33.05 | 32239 | 39218 4 | 8:42.69 | 3:22.35 | 39219 | 54403 5 | 12:05.29 | 3:45.71 | 54404 | 71349

Range status and errors

Selected range

Filename G:\KICA-1482.wav

Peak level 100.0 % Range quality 99.9 % Copy CRC E1B2B5DD Copy OK

No errors occurred

End of status report
REM GENRE "Anime"REM DATE 18.08.2010REM DISCID 2B03B705REM COMMENT "ExactAudioCopy v0.99pb5"TITLE "HIGHSCHOOL OF THE DEAD"PERFORMER "Kishida Kyoudan, The Akeboshi Rockets"CATALOG 00000GNCA-143FILE "Kishida Kyoudan, The Akeboshi Rockets - HIGHSCHOOL OF THE DEAD.flac" WAVE TRACK 01 AUDIO TITLE "HIGHSCHOOL OF THE DEAD" PERFORMER "Kishida Kyoudan, The Akeboshi Rockets" INDEX 01 00:00:00 TRACK 02 AUDIO TITLE "Ripple" PERFORMER "Kishida Kyoudan, The Akeboshi Rockets" INDEX 00 03:22:52 INDEX 01 03:24:05 TRACK 03 AUDIO TITLE "HIGHSCHOOL OF THE DEAD (TV size)" PERFORMER "Kishida Kyoudan, The Akeboshi Rockets" INDEX 00 07:09:64 INDEX 01 07:11:12 TRACK 04 AUDIO TITLE "HIGHSCHOOL OF THE DEAD (Instrumental)" PERFORMER "Kishida Kyoudan, The Akeboshi Rockets" INDEX 00 08:42:69 INDEX 01 08:44:24 TRACK 05 AUDIO TITLE "Ripple (Instrumental)" PERFORMER "Kishida Kyoudan, The Akeboshi Rockets" INDEX 00 12:05:29 INDEX 01 12:06:56
Дата выпуска: 22 сентября 2010 г.
Номер по каталогу: GNCA-1260
Продолжительность: 61:00
Треклист:
01. Kimi to Taiyou ga Shinda hi
02. color me dark
03. Return to Destiny
04. cold bullet blues
05. Memories of days gone by
06. Under The Honey Shine
07. fuss fuzz
08. The place of hope
09. Houseki no Spy
10. THE last pain
11. Hollow Men
12. The Eternal Song
Exact Audio Copy V0.99 prebeta 5 from 4. May 2009

EAC 取り込みログファイル 日付 : 24. 9月 2010, 2:55

黒崎真音 / H.O.T.D

使用ドライブ : Optiarc DVD RW AD-7590T Adapter: 2 ID: 0

読み込みモード : セキュアモードドライブが正確なデータ転送能力を持つ : はいオーディオキャッシュを使用できる : いいえC2エラー情報を検出する : いいえ

読み込みサンプルオフセット訂正値 : 48リードイン・リードアウトをオーバーリードする : いいえ欠落したオフセットサンプルを無音で補完する : はい曲の先頭と末端の無音領域を削除する : いいえCRC計算で無音のサンプルを使用するか : いいえ使用インターフェース : Win NT & 2000用のクラスドライバ

使用出力モード : 内蔵WAV出力ルーチンサンプルフォーマット : 44.100 Hz; 16 Bit; ステレオ使用したエンコードオフセットの値 : : 48

TOC情報を抜き出します

トラック | スタート | 長さ | 始めのセクター | 最終セクター ---------------------------------------------------------------- 1 | 0:00.00 | 3:40.52 | 0 | 16551 2 | 3:40.52 | 4:02.29 | 16552 | 34730 3 | 7:43.06 | 3:44.27 | 34731 | 51557 4 | 11:27.33 | 5:54.29 | 51558 | 78136 5 | 17:21.62 | 5:09.36 | 78137 | 101347 6 | 22:31.23 | 4:54.58 | 101348 | 123455 7 | 27:26.06 | 4:33.50 | 123456 | 143980 8 | 31:59.56 | 3:23.03 | 143981 | 159208 9 | 35:22.59 | 4:46.18 | 159209 | 180676 10 | 40:09.02 | 4:14.10 | 180677 | 199736 11 | 44:23.12 | 4:49.11 | 199737 | 221422 12 | 49:12.23 | 4:58.53 | 221423 | 243825

範囲取り込みステータス & エラー

選択された範囲

ファイル名 C:\UP\黒崎真音 - H.O.T.D.wav

ピークレベル 100.0 % 範囲取り込み品質 100.0 % コピーCRC 72722750 コピー OK

エラーは発生しませんでした

ステータス報告完了
REM GENRE "Anime"REM DATE 22.09.2010REM DISCID 9A0CB30CREM COMMENT "ExactAudioCopy v0.99pb5"TITLE "H.O.T.D"PERFORMER "Kurosaki Maon"CATALOG 0000GNCA-1260FILE "Kurosaki Maon - H.O.T.D.flac" WAVE TRACK 01 AUDIO TITLE "Kimi to Taiyou ga Shinda Hi" PERFORMER "Kurosaki Maon" INDEX 01 00:00:00 TRACK 02 AUDIO TITLE "color me dark" PERFORMER "Kurosaki Maon" INDEX 00 03:40:52 INDEX 01 03:44:30 TRACK 03 AUDIO TITLE "Return to Destiny" PERFORMER "Kurosaki Maon" INDEX 01 07:46:59 TRACK 04 AUDIO TITLE "cold bullet blues" PERFORMER "Kurosaki Maon" INDEX 00 11:31:11 INDEX 01 11:33:24 TRACK 05 AUDIO TITLE "Memories of days gone by" PERFORMER "Kurosaki Maon" INDEX 00 17:27:53 INDEX 01 17:30:26 TRACK 06 AUDIO TITLE "Under The Honey Shine" PERFORMER "Kurosaki Maon" INDEX 00 22:39:62 INDEX 01 22:40:31 TRACK 07 AUDIO TITLE "fuss fuzz" PERFORMER "Kurosaki Maon" INDEX 00 27:35:14 INDEX 01 27:37:27 TRACK 08 AUDIO TITLE "The place of hope" PERFORMER "Kurosaki Maon" INDEX 00 32:11:02 INDEX 01 32:13:15 TRACK 09 AUDIO TITLE "Houseki no Spy" PERFORMER "Kurosaki Maon" INDEX 00 35:36:18 INDEX 01 35:37:31 TRACK 10 AUDIO TITLE "THE last pain" PERFORMER "Kurosaki Maon" INDEX 00 40:23:49 INDEX 01 40:25:62 TRACK 11 AUDIO TITLE "Hollow Men" PERFORMER "Kurosaki Maon" INDEX 00 44:39:72 INDEX 01 44:42:10 TRACK 12 AUDIO TITLE "The Eternal Song" PERFORMER "Kurosaki Maon" INDEX 00 49:31:21 INDEX 01 49:34:34
Дата выпуска: 22 сентября 2010 г.
Номер по каталогу: GNCA-1259
Продолжительность: 59:46
Треклист:
01. HIGHSCHOOL OF THE DEAD (TV size)
02. Pulse
03. Signs of Hell
04. Assailing Ones
05. Ambush
06. Red Darkness
07. Pursuit
08. Alice's Sorrow
09. Creeping Ones
10. A Friend's Death
11. Alluring Women
12. The Takagis Take Action
13. Requiem
14. Innocent Moment
15. Ominous Ones
16. Takashi's Memories
17. Shido's Scheme
18. Miracle Brain
19. Counterattack
20. Saeko's Dark Side
21. A Woman's Honor
22. Saeko Shows Up
23. Last Battle
24. Kimi to Taiyou ga Shinda Hi (short ver.)
25. O, Spirit
Exact Audio Copy V0.99 prebeta 5 from 4. May 2009

EAC extraction logfile from 12. October 2010, 19:31

Various / Gakuen Mokushiroku · Highschool of the Dead OST

Used drive : TSSTcorpDVD+-RW TS-H653F Adapter: 4 ID: 0

Read mode : SecureUtilize accurate stream : YesDefeat audio cache : YesMake use of C2 pointers : No

Read offset correction : 6Overread into Lead-In and Lead-Out : NoFill up missing offset samples with silence : YesDelete leading and trailing silent blocks : NoNull samples used in CRC calculations : YesUsed interface : Installed external ASPI interfaceGap handling : Appended to previous track

Used output format : User Defined EncoderSelected bitrate : 1024 kBit/sQuality : HighAdd ID3 tag : NoCommand line compressor : C:\Program Files\Exact Audio Copy\FLAC\FLAC.EXEAdditional command line options : -6 -V -T "ARTIST=%a" -T "TITLE=%t" -T "ALBUM=%g" -T "DATE=%y" -T "TRACKNUMBER=%n" -T "GENRE=%m" -T "COMMENT=%e" %s -o %d

TOC of the extracted CD

Track | Start | Length | Start sector | End sector --------------------------------------------------------- 1 | 0:00.00 | 1:35.42 | 0 | 7166 2 | 1:35.42 | 3:19.62 | 7167 | 22153 3 | 4:55.29 | 2:31.51 | 22154 | 33529 4 | 7:27.05 | 2:56.17 | 33530 | 46746 5 | 10:23.22 | 2:22.28 | 46747 | 57424 6 | 12:45.50 | 2:40.59 | 57425 | 69483 7 | 15:26.34 | 2:13.58 | 69484 | 79516 8 | 17:40.17 | 3:23.29 | 79517 | 94770 9 | 21:03.46 | 2:12.11 | 94771 | 104681 10 | 23:15.57 | 2:09.09 | 104682 | 114365 11 | 25:24.66 | 2:35.37 | 114366 | 126027 12 | 28:00.28 | 2:32.00 | 126028 | 137427 13 | 30:32.28 | 2:44.21 | 137428 | 149748 14 | 33:16.49 | 1:55.10 | 149749 | 158383 15 | 35:11.59 | 2:13.01 | 158384 | 168359 16 | 37:24.60 | 2:35.09 | 168360 | 179993 17 | 39:59.69 | 2:29.38 | 179994 | 191206 18 | 42:29.32 | 2:13.56 | 191207 | 201237 19 | 44:43.13 | 2:44.29 | 201238 | 213566 20 | 47:27.42 | 2:11.45 | 213567 | 223436 21 | 49:39.12 | 1:59.15 | 223437 | 232376 22 | 51:38.27 | 2:41.16 | 232377 | 244467 23 | 54:19.43 | 2:34.62 | 244468 | 256079 24 | 56:54.30 | 2:22.73 | 256080 | 266802 25 | 59:17.28 | 1:41.58 | 266803 | 274435

Track 1

Filename C:\EAC Rips\01 HIGHSCHOOL OF THE DEAD (short ver.).wav

Pre-gap length 0:00:02.00

Peak level 68.4 % Track quality 100.0 % Test CRC 169144FC Copy CRC 169144FC Track not present in AccurateRip database Copy OK

Track 2

Filename C:\EAC Rips\02 Pulse.wav

Pre-gap length 0:00:03.61

Peak level 96.7 % Track quality 100.0 % Test CRC 432CE8DA Copy CRC 432CE8DA Track not present in AccurateRip database Copy OK

Track 3

Filename C:\EAC Rips\03 Signs of Hell.wav

Pre-gap length 0:00:02.61

Peak level 94.6 % Track quality 100.0 % Test CRC 4EF08353 Copy CRC 4EF08353 Track not present in AccurateRip database Copy OK

Track 4

Filename C:\EAC Rips\04 Assailing Ones.wav

Pre-gap length 0:00:02.61

Peak level 99.7 % Track quality 100.0 % Test CRC 393E7E12 Copy CRC 393E7E12 Track not present in AccurateRip database Copy OK

Track 5

Filename C:\EAC Rips\05 Ambush.wav

Pre-gap length 0:00:02.61

Peak level 86.8 % Track quality 100.0 % Test CRC 03C43AEF Copy CRC 03C43AEF Track not present in AccurateRip database Copy OK

Track 6

Filename C:\EAC Rips\06 Red Darkness.wav

Pre-gap length 0:00:01.64

Peak level 94.1 % Track quality 100.0 % Test CRC 6F53C15C Copy CRC 6F53C15C Track not present in AccurateRip database Copy OK

Track 7

Filename C:\EAC Rips\07 Pursuit.wav

Pre-gap length 0:00:02.62

Peak level 96.7 % Track quality 100.0 % Test CRC 7E31A115 Copy CRC 7E31A115 Track not present in AccurateRip database Copy OK

Track 8

Filename C:\EAC Rips\08 Alice's Sorrow.wav

Pre-gap length 0:00:02.61

Peak level 42.2 % Track quality 100.0 % Test CRC F66C43B0 Copy CRC F66C43B0 Track not present in AccurateRip database Copy OK

Track 9

Filename C:\EAC Rips\09 Creeping Ones.wav

Pre-gap length 0:00:02.62

Peak level 96.7 % Track quality 99.9 % Test CRC ED432E04 Copy CRC ED432E04 Track not present in AccurateRip database Copy OK

Track 10

Filename C:\EAC Rips\10 A Friend's Death.wav

Pre-gap length 0:00:02.62

Peak level 81.4 % Track quality 100.0 % Test CRC 2338F2F4 Copy CRC 2338F2F4 Track not present in AccurateRip database Copy OK

Track 11

Filename C:\EAC Rips\11 Alluring Women.wav

Pre-gap length 0:00:03.62

Peak level 79.9 % Track quality 100.0 % Test CRC 5EB89AAB Copy CRC 5EB89AAB Track not present in AccurateRip database Copy OK

Track 12

Filename C:\EAC Rips\12 The Takagis Take Action.wav

Pre-gap length 0:00:02.61

Peak level 99.7 % Track quality 100.0 % Test CRC 4B4F657B Copy CRC 4B4F657B Track not present in AccurateRip database Copy OK

Track 13

Filename C:\EAC Rips\13 Requiem.wav

Pre-gap length 0:00:02.61

Peak level 58.0 % Track quality 100.0 % Test CRC 1068DA7D Copy CRC 1068DA7D Track not present in AccurateRip database Copy OK

Track 14

Filename C:\EAC Rips\14 Innocent Moment.wav

Pre-gap length 0:00:02.64

Peak level 84.4 % Track quality 100.0 % Test CRC 24C63733 Copy CRC 24C63733 Track not present in AccurateRip database Copy OK

Track 15

Filename C:\EAC Rips\15 Ominous Ones.wav

Pre-gap length 0:00:02.61

Peak level 95.3 % Track quality 100.0 % Test CRC 6EC4C8E7 Copy CRC 6EC4C8E7 Track not present in AccurateRip database Copy OK

Track 16

Filename C:\EAC Rips\16 Takashi's Memories.wav

Pre-gap length 0:00:02.62

Peak level 65.1 % Track quality 100.0 % Test CRC 853A61C9 Copy CRC 853A61C9 Track not present in AccurateRip database Copy OK

Track 17

Filename C:\EAC Rips\17 Shido's Scheme.wav

Pre-gap length 0:00:02.61

Peak level 89.4 % Track quality 100.0 % Test CRC CC15E4AE Copy CRC CC15E4AE Track not present in AccurateRip database Copy OK

Track 18

Filename C:\EAC Rips\18 Miracle Brain.wav

Pre-gap length 0:00:01.64

Peak level 97.8 % Track quality 100.0 % Test CRC 89842F99 Copy CRC 89842F99 Track not present in AccurateRip database Copy OK

Track 19

Filename C:\EAC Rips\19 Counterattack.wav

Pre-gap length 0:00:02.61

Peak level 97.9 % Track quality 99.9 % Test CRC 64CCBCBD Copy CRC 64CCBCBD Track not present in AccurateRip database Copy OK

Track 20

Filename C:\EAC Rips\20 Saeko's Dark Side.wav

Pre-gap length 0:00:02.62

Peak level 68.1 % Track quality 100.0 % Test CRC C21B90CD Copy CRC C21B90CD Track not present in AccurateRip database Copy OK

Track 21

Filename C:\EAC Rips\21 A Woman's Honor.wav

Pre-gap length 0:00:01.62

Peak level 78.8 % Track quality 99.9 % Test CRC 980FFC3A Copy CRC 980FFC3A Track not present in AccurateRip database Copy OK

Track 22

Filename C:\EAC Rips\22 Saeko Shows Up.wav

Pre-gap length 0:00:01.62

Peak level 96.7 % Track quality 100.0 % Test CRC 418D6D43 Copy CRC 418D6D43 Track not present in AccurateRip database Copy OK

Track 23

Filename C:\EAC Rips\23 Last Battle.wav

Pre-gap length 0:00:02.62

Peak level 97.1 % Track quality 100.0 % Test CRC 44900CD5 Copy CRC 44900CD5 Track not present in AccurateRip database Copy OK

Track 24

Filename C:\EAC Rips\24 Kimi to Taiyou ga Shinda Hi (short ver.).wav

Pre-gap length 0:00:02.62

Peak level 74.9 % Track quality 100.0 % Test CRC DA8A30CB Copy CRC DA8A30CB Track not present in AccurateRip database Copy OK

Track 25

Filename C:\EAC Rips\25 O,Spirit.wav

Pre-gap length 0:00:03.61

Peak level 37.6 % Track quality 100.0 % Test CRC DC7A25A0 Copy CRC DC7A25A0 Track not present in AccurateRip database Copy OK

None of the tracks are present in the AccurateRip database

No errors occurred

End of status report
REM GENRE "Anime"REM DATE 2010REM DISCID 7C0E4B19REM COMMENT "ExactAudioCopy v0.99pb5"PERFORMER "Takafumi Wada"TITLE "Highschool of The Dead Original Soundtrack"FILE "Takafumi Wada - Highschool of The Dead Original Soundtrack.flac" WAVE TRACK 01 AUDIO PERFORMER "Kisida Kyodan & The Akebosi Rockets" TITLE "HIGHSCHOOL OF THE DEAD (TV size)" INDEX 01 00:00:00 TRACK 02 AUDIO PERFORMER "Takafumi Wada" TITLE "Pulse" INDEX 00 01:31:71 INDEX 01 01:35:42 TRACK 03 AUDIO PERFORMER "Takafumi Wada" TITLE "Signs of Hell" INDEX 00 04:52:58 INDEX 01 04:55:29 TRACK 04 AUDIO PERFORMER "Takafumi Wada" TITLE "Assailing Ones" INDEX 00 07:24:34 INDEX 01 07:27:05 TRACK 05 AUDIO PERFORMER "Takafumi Wada" TITLE "Ambush" INDEX 00 10:20:51 INDEX 01 10:23:22 TRACK 06 AUDIO PERFORMER "Takafumi Wada" TITLE "Red Darkness" INDEX 00 12:44:02 INDEX 01 12:45:50 TRACK 07 AUDIO PERFORMER "Takafumi Wada" TITLE "Pursuit" INDEX 00 15:23:62 INDEX 01 15:26:34 TRACK 08 AUDIO PERFORMER "Takafumi Wada" TITLE "Alice's Sorrow" INDEX 00 17:37:46 INDEX 01 17:40:17 TRACK 09 AUDIO PERFORMER "Takafumi Wada" TITLE "Creeping Ones" INDEX 00 21:00:74 INDEX 01 21:03:46 TRACK 10 AUDIO PERFORMER "Takafumi Wada" TITLE "A Friend's Death" INDEX 00 23:13:10 INDEX 01 23:15:57 TRACK 11 AUDIO PERFORMER "Takafumi Wada" TITLE "Alluring Women" INDEX 00 25:21:19 INDEX 01 25:24:66 TRACK 12 AUDIO PERFORMER "Takafumi Wada" TITLE "The Takagis Take Action" INDEX 00 27:57:57 INDEX 01 28:00:28 TRACK 13 AUDIO PERFORMER "Takafumi Wada" TITLE "Requiem" INDEX 00 30:29:57 INDEX 01 30:32:28 TRACK 14 AUDIO PERFORMER "Takafumi Wada" TITLE "Innocent Moment" INDEX 00 33:14:01 INDEX 01 33:16:49 TRACK 15 AUDIO PERFORMER "Takafumi Wada" TITLE "Ominous Ones" INDEX 00 35:09:13 INDEX 01 35:11:59 TRACK 16 AUDIO PERFORMER "Takafumi Wada" TITLE "Takashi's Memories" INDEX 00 37:22:13 INDEX 01 37:24:60 TRACK 17 AUDIO PERFORMER "Takafumi Wada" TITLE "Shido's Scheme" INDEX 00 39:57:23 INDEX 01 39:59:69 TRACK 18 AUDIO PERFORMER "Takafumi Wada" TITLE "Miracle Brain" INDEX 00 42:27:59 INDEX 01 42:29:32 TRACK 19 AUDIO PERFORMER "Takafumi Wada" TITLE "Counterattack" INDEX 00 44:40:42 INDEX 01 44:43:13 TRACK 20 AUDIO PERFORMER "Takafumi Wada" TITLE "Saeko's Dark Side" INDEX 00 47:24:70 INDEX 01 47:27:42 TRACK 21 AUDIO PERFORMER "Takafumi Wada" TITLE "A Woman's Honor" INDEX 00 49:37:40 INDEX 01 49:39:12 TRACK 22 AUDIO PERFORMER "Takafumi Wada" TITLE "Saeko Shows Up" INDEX 00 51:36:55 INDEX 01 51:38:27 TRACK 23 AUDIO PERFORMER "Takafumi Wada" TITLE "Last Battle" INDEX 00 54:16:71 INDEX 01 54:19:43 TRACK 24 AUDIO PERFORMER "Maon Kurosaki" TITLE "Kimi to Taiyou ga Shinda Hi (short ver.)" INDEX 00 56:51:58 INDEX 01 56:54:30 TRACK 25 AUDIO PERFORMER "Sayo Fukunaga" TITLE "O,Spirit" INDEX 00 59:13:57 INDEX 01 59:17:28
Дата выпуска: 27 октября 2010 г.
Номер по каталогу: GNCV-1024
Продолжительность: 69:23
Треклист:
01. mirage
02. KILL
03. Princess bloom
04. Fascination
05. FIXER
06. Sabaku no Yuki
07. Proof
08. Teleportation guy
09. Love illusion
10. Infection
11. RIDEBACK
12. MY PRECIOUS
13. Red fraction -IO drive mix-
-----------------------

DON'T MODIFY THIS FILE

-----------------------

PERFORMER: auCDtect Task Manager, ver. 1.6.0 RC1 build 1.6.0.1Copyright (c) 2008-2010 y-soft. All rights reservedhttp://y-soft.org

ANALYZER: auCDtect: CD records authenticity detector, version 0.8.2Copyright (c) 2004 Oleg Berngardt. All rights reserved.Copyright (c) 2004 Alexander Djourik. All rights reserved.

FILE: MELL - MIRAGE.flac Size: 536359310 Hash: 7CC2576A19EAA987C23DE6E9455A9D84 Accuracy: -m0 Conclusion: CDDA 100% Signature: 7AD80FB1D81D473400BFE8E8F8570DC5A7B75AAB
REM GENRE "Anime"REM DATE 2010REM DISCID B110440DTITLE "MIRAGE"PERFORMER "MELL"FILE "MELL - MIRAGE.flac" WAVE TRACK 01 AUDIO TITLE "mirage" PERFORMER "MELL" INDEX 01 00:00:00 TRACK 02 AUDIO TITLE "KILL" PERFORMER "MELL" INDEX 00 05:27:58 INDEX 01 05:28:43 TRACK 03 AUDIO TITLE "Princess bloom" PERFORMER "MELL" INDEX 00 10:19:08 INDEX 01 10:20:73 TRACK 04 AUDIO TITLE "Fascination" PERFORMER "MELL" INDEX 00 15:13:22 INDEX 01 15:14:05 TRACK 05 AUDIO TITLE "FIXER" PERFORMER "MELL" INDEX 00 20:13:18 INDEX 01 20:14:15 TRACK 06 AUDIO TITLE "Sabaku no Yuki" PERFORMER "MELL" INDEX 00 25:11:51 INDEX 01 25:13:51 TRACK 07 AUDIO TITLE "Proof" PERFORMER "MELL" INDEX 00 31:08:64 INDEX 01 31:09:64 TRACK 08 AUDIO TITLE "Teleportation guy" PERFORMER "MELL" INDEX 00 36:41:15 INDEX 01 36:42:15 TRACK 09 AUDIO TITLE "Love illusion" PERFORMER "MELL" INDEX 00 42:36:34 INDEX 01 42:37:22 TRACK 10 AUDIO TITLE "Infection" PERFORMER "MELL" INDEX 00 47:39:07 INDEX 01 47:39:64 TRACK 11 AUDIO TITLE "RIDEBACK" PERFORMER "MELL" INDEX 00 52:04:43 INDEX 01 52:04:70 TRACK 12 AUDIO TITLE "MY PRECIOUS" PERFORMER "MELL" INDEX 00 56:46:29 INDEX 01 56:48:25 TRACK 13 AUDIO TITLE "Red fraction -IO drive mix-" PERFORMER "MELL" INDEX 00 64:36:31 INDEX 01 64:38:14
[url=...3113918]t=3113918[/url] - наличие "Insert Song Single - MIRAGE"
[url=...3113494]t=3113494[/url], [url=...3113455]t=3113455[/url] - lossless


Трекер:  [ 27-Ноя-2014 11:00 ]

  

Скачать .torrent

Размер .torrent файла 21 KB


Размер: 1.41 GB
Хэш (hash) релиза: f709dfa2b212b5453ccdad1ef780e61f4147c511

Еще никто не оставлял запись к записи скачать торрент Школа Мертвецов Gakuen Mokushiroku - High School of the Dead . Будь первым!

!Обратная связь