Владимир Высоцкий - На Нейтральной Полосе | White Fox | Opera Mini APK 7.6.4

Скачать через торрент музыку Michio Mamiya - Grave Of The Fireflies Hotaru No Haka Saundotorakku Shuu бесплатно без регистрации torrent

Статистика раздачи
Размер:  239 MB   |    Зарегистрирован:  3 года 7 месяцев   |    .torrent скачан:  41 раз   |   
Раздают:  1  
   
загрузка...
 
Автор Сообщение

Galfimbul

avatar Galfimbul


Michio Mamiya / Grave Of The Fireflies
Жанр: Soundtrack
Композитор: Michio Mamiya
Год выпуска: 25.06.1988
Издатель (лейбл): Tokuma Japan Communications
Номер по каталогу: 32ATC-166
Страна: Japan

Аудио кодек: FLAC (*.flac)
Тип рипа: image+.cue
Режим рипа: test & copy
Битрейт аудио: lossless
Продолжительность: 00:58:11

Источник (релизер): CD (sewerok)
Наличие сканов в содержимом раздачи: да

Треклист:
01. Setsuko To Seita (Main Title) [0:02:57.50]
02. Yake Nohara (The Burnt-Out Area) [0:06:51.15]
03. Haha No Shi (Mother's Death) [0:06:34.37]
04. Shoka (Early Summer) [0:03:14.20]
05. Ike No Hotori (At The Shore Of The Pond) [0:02:22.03]
06. Umi He (To The Ocean) [0:01:37.62]
07. Namiuchigiwa (The Beach) [0:01:37.63]
08. Higasa (The Parasol) [0:02:29.57]
09. Sakura No Shita (Under The Cherry Blossoms) [0:01:31.68]
10. Dorobbusu (Drops) [0:02:13.70]
11. Hikkoshi (Moving) [0:02:17.37]
12. Keimei (Older Brother, Younger Sister) [0:02:16.00]
13. Hotaru (Fireflies) [0:04:12.68]
14. Hotaru No Haka (Grave Of The Fireflies) [0:01:46.40]
15. Yuuyake (Sunset Colors) [0:00:53.45]
16. Shura (Scene Of Carnage) [0:03:08.32]
17. Hika (Elegy - Song Of Sorrow) [0:03:13.00]
18. Futari (Two People) (End Title) [0:08:52.38]
Exact Audio Copy V1.0 beta 3 from 29. August 2011

EAC extraction logfile from 4. February 2014, 14:15

Michio Mamiya / Grave Of The Fireflies

Used drive : TSSTcorpCD/DVDW TS-L632D Adapter: 0 ID: 0

Read mode : SecureUtilize accurate stream : YesDefeat audio cache : YesMake use of C2 pointers : No

Read offset correction : 6Overread into Lead-In and Lead-Out : NoFill up missing offset samples with silence : YesDelete leading and trailing silent blocks : NoNull samples used in CRC calculations : YesUsed interface : Native Win32 interface for Win NT & 2000

Used output format : User Defined EncoderSelected bitrate : 896 kBit/sQuality : HighAdd ID3 tag : NoCommand line compressor : C:\Program Files (x86)\Exact Audio Copy\FLAC\FLAC.EXEAdditional command line options : -8 -V -T "Date=%year%" -T "Genre=%genre%" -T "COMMENT=ripped by sewerok®" %source%

TOC of the extracted CD

Track | Start | Length | Start sector | End sector --------------------------------------------------------- 1 | 0:00.00 | 2:57.50 | 0 | 13324 2 | 2:57.50 | 6:51.15 | 13325 | 44164 3 | 9:48.65 | 6:34.37 | 44165 | 73751 4 | 16:23.27 | 3:14.20 | 73752 | 88321 5 | 19:37.47 | 2:22.03 | 88322 | 98974 6 | 21:59.50 | 1:37.62 | 98975 | 106311 7 | 23:37.37 | 1:37.63 | 106312 | 113649 8 | 25:15.25 | 2:29.57 | 113650 | 124881 9 | 27:45.07 | 1:31.68 | 124882 | 131774 10 | 29:17.00 | 2:13.70 | 131775 | 141819 11 | 31:30.70 | 2:17.37 | 141820 | 152131 12 | 33:48.32 | 2:16.00 | 152132 | 162331 13 | 36:04.32 | 4:12.68 | 162332 | 181299 14 | 40:17.25 | 1:46.40 | 181300 | 189289 15 | 42:03.65 | 0:53.45 | 189290 | 193309 16 | 42:57.35 | 3:08.32 | 193310 | 207441 17 | 46:05.67 | 3:13.00 | 207442 | 221916 18 | 49:18.67 | 8:52.38 | 221917 | 261854

Range status and errors

Selected range

Filename E:\Michio Mamiya - Grave Of The Fireflies (Soundtrack) [1988](32ATC-166 Tokuma Japan Communications)\Michio Mamiya - Grave Of The Fireflies.wav

Peak level 100.0 % Extraction speed 1.8 X Range quality 100.0 % Test CRC 958ADD0F Copy CRC 958ADD0F Copy OK

No errors occurred

AccurateRip summary

Track 1 cannot be verified as accurate (confidence 5) [9912526E], AccurateRip returned [16B668DF] (AR v2)Track 2 cannot be verified as accurate (confidence 5) [EE17F7C3], AccurateRip returned [811E2D72] (AR v2)Track 3 cannot be verified as accurate (confidence 5) [F5D639A6], AccurateRip returned [EC413CF5] (AR v2)Track 4 cannot be verified as accurate (confidence 5) [A5FFE171], AccurateRip returned [CDF64B7C] (AR v2)Track 5 cannot be verified as accurate (confidence 5) [E8A3CD24], AccurateRip returned [B7C96892] (AR v2)Track 6 cannot be verified as accurate (confidence 4) [F54E4693], AccurateRip returned [005A1541] (AR v2)Track 7 cannot be verified as accurate (confidence 5) [0E80CC0F], AccurateRip returned [408AD8C7] (AR v2)Track 8 cannot be verified as accurate (confidence 5) [B8700A4B], AccurateRip returned [59FABBAF] (AR v2)Track 9 cannot be verified as accurate (confidence 4) [56A83984], AccurateRip returned [B020B23E] (AR v2)Track 10 cannot be verified as accurate (confidence 4) [B25658A3], AccurateRip returned [5195A735] (AR v2)Track 11 cannot be verified as accurate (confidence 4) [A7907CE0], AccurateRip returned [3D4B693F] (AR v2)Track 12 cannot be verified as accurate (confidence 4) [9D531639], AccurateRip returned [28E148A3] (AR v2)Track 13 cannot be verified as accurate (confidence 4) [FFBB6809], AccurateRip returned [76D291E3] (AR v2)Track 14 cannot be verified as accurate (confidence 4) [3C4CA68F], AccurateRip returned [CC7FC705] (AR v2)Track 15 cannot be verified as accurate (confidence 4) [2AD98C5F], AccurateRip returned [9A63B12C] (AR v2)Track 16 cannot be verified as accurate (confidence 4) [82AF28EC], AccurateRip returned [105CCEA3] (AR v2)Track 17 cannot be verified as accurate (confidence 4) [B7A55238], AccurateRip returned [98E0BD18] (AR v2)Track 18 cannot be verified as accurate (confidence 4) [1BD677FB], AccurateRip returned [385D3260] (AR v2)

No tracks could be verified as accurateYou may have a different pressing from the one(s) in the database

End of status report

---- CUETools DB Plugin V2.1.4

[CTDB TOCID: 1SRfHaqAH_ksPiDdVQtQiSIT.aw-] foundSubmit result: 1SRfHaqAH_ksPiDdVQtQiSIT.aw- has been confirmedTrack | CTDB Status 1 | (5/5) Accurately ripped 2 | (5/5) Accurately ripped 3 | (5/5) Accurately ripped 4 | (5/5) Accurately ripped 5 | (5/5) Accurately ripped 6 | (5/5) Accurately ripped 7 | (5/5) Accurately ripped 8 | (5/5) Accurately ripped 9 | (5/5) Accurately ripped 10 | (5/5) Accurately ripped 11 | (5/5) Accurately ripped 12 | (5/5) Accurately ripped 13 | (5/5) Accurately ripped 14 | (5/5) Accurately ripped 15 | (5/5) Accurately ripped 16 | (5/5) Accurately ripped 17 | (5/5) Accurately ripped 18 | (5/5) Accurately ripped

==== Log checksum 2CBD7F749F742F424A7C7DA3C1B9BBFA416832DD69AD760A739FB38E540FB56A ====
[CUETools log; Date: 04.02.2014 14:17:20; Version: 2.1.4][CTDB TOCID: 1SRfHaqAH_ksPiDdVQtQiSIT.aw-] found.Track | CTDB Status 1 | (6/6) Accurately ripped 2 | (6/6) Accurately ripped 3 | (6/6) Accurately ripped 4 | (6/6) Accurately ripped 5 | (6/6) Accurately ripped 6 | (6/6) Accurately ripped 7 | (6/6) Accurately ripped 8 | (6/6) Accurately ripped 9 | (6/6) Accurately ripped 10 | (6/6) Accurately ripped 11 | (6/6) Accurately ripped 12 | (6/6) Accurately ripped 13 | (6/6) Accurately ripped 14 | (6/6) Accurately ripped 15 | (6/6) Accurately ripped 16 | (6/6) Accurately ripped 17 | (6/6) Accurately ripped 18 | (6/6) Accurately ripped[AccurateRip ID: 00263f3c-01e90115-1c0da312] found.Track [ CRC | V2 ] Status 01 [336eb18c|9912526e] (0+0/5) No match 02 [e149aae9|ee17f7c3] (0+0/5) No match 03 [e9466c3b|f5d639a6] (0+0/5) No match 04 [975c2ab8|a5ffe171] (0+0/5) No match 05 [c2ea1984|e8a3cd24] (0+0/5) No match 06 [d64dcdca|f54e4693] (0+0/4) No match 07 [363d464e|0e80cc0f] (0+0/5) No match 08 [aca9decf|b8700a4b] (0+0/5) No match 09 [95fb38fe|56a83984] (0+0/4) No match 10 [8c023fc6|b25658a3] (0+0/4) No match 11 [7d70ea4d|a7907ce0] (0+0/4) No match 12 [6fec5ee4|9d531639] (0+0/4) No match 13 [2ce2ecf0|ffbb6809] (0+0/4) No match 14 [ca076d2d|3c4ca68f] (0+0/4) No match 15 [104b29df|2ad98c5f] (0+0/4) No match 16 [2b2a99ad|82af28ec] (0+0/4) No match 17 [f55e178c|b7a55238] (0+0/4) No match 18 [5cf3cbc1|1bd677fb] (0+0/4) No matchOffsetted by -712: 01 [b76294a8] (0/5) No match (V2 was not tested) 02 [7c8171d0] (0/5) No match (V2 was not tested) 03 [fbe60af0] (0/5) No match (V2 was not tested) 04 [de2f43bb] (0/5) No match (V2 was not tested) 05 [fdbd2bd0] (0/5) No match (V2 was not tested) 06 [eee55a86] (0/4) No match (V2 was not tested) 07 [68cf28ee] (0/5) No match (V2 was not tested) 08 [acf0be74] (0/5) No match (V2 was not tested) 09 [f2089618] (0/4) No match (V2 was not tested) 10 [4415d61e] (0/4) No match (V2 was not tested) 11 [4506f45d] (0/4) No match (V2 was not tested) 12 [6295691b] (0/4) No match (V2 was not tested) 13 [ac45854d] (0/4) No match (V2 was not tested) 14 [84fc77b5] (0/4) No match (V2 was not tested) 15 [8c06dd80] (0/4) No match (V2 was not tested) 16 [e3cf8e15] (0/4) No match (V2 was not tested) 17 [194c7488] (0/4) No match (V2 was not tested) 18 [ead37d14] (0/4) No match (V2 was not tested)

Track Peak [ CRC32 ] [W/O NULL] [ LOG ] -- 100,0 [958ADD0F] [BDCA8A5A] CRC32 01 79,6 [EC734AF1] [3B420547] 02 100,0 [32465488] [BA7B29F9] 03 83,7 [D0FC83E9] [7E2C3552] 04 57,7 [359BB0F9] [06B7E899] 05 46,4 [ED4BB5FE] [9D967E9E] 06 55,5 [0F953C37] [61F09643] 07 79,1 [B7A58083] [BDD0C586] 08 66,7 [34651CCD] [C3B37899] 09 65,8 [F1795F62] [AF40EE6F] 10 63,8 [B6A94777] [7FB598D9] 11 62,1 [6EC34CEE] [0D487A7E] 12 47,9 [23BE5F91] [98488708] 13 88,1 [FCB71509] [D1D1AEB6] 14 27,2 [5EEFAE6C] [CE3A20F3] 15 49,7 [FB95030B] [7699C524] 16 78,1 [6F8A7DA5] [80279C18] 17 53,5 [580AE7EC] [3C119EBB] 18 57,2 [FCD9AFCE] [24E480E2]
Die gesamte CD bestand aus Dialogen aus dem Film. Also ist nicht der Soundtrack, sondern viel mehr das Drama Album. Besonders wichtig zu bemerken wäre, dass ein regulärer Original Soundtrack NICHT existiert! Irgendjemand muss damals einen Fehler bei der Produktion der Grave of the Fireflies CDs gemacht haben und bis heute hat es wohl niemand für nötig gehalten, diesen Fehler mal zu korrigieren. Die wunderschöne Musik wurde von Michio Mamiya komponiert.

The entire CD was made up of dialogues from the movie. So this is not the soundtrack, but more the Drama album. Particularly important is, that a regular Original Soundtrack does NOT exist! There must have been a mistake during the production of the Grave of the Fireflies CDs and until today nobody seemed to be interested in correcting this mistake. The beautiful music was composed by Michio Mamiya.


Трекер:  [ 27-Ноя-2014 11:00 ]

  

Скачать .torrent

Размер .torrent файла 19 KB


Размер: 239 MB
Хэш (hash) релиза: 767e2936d56aac49023e6b4ee64b3a2b286f6164

Еще никто не оставлял запись к записи скачать торрент Michio Mamiya - Grave Of The Fireflies Hotaru No Haka Saundotorakku Shuu . Будь первым!

!Обратная связь