Стивен Хопкинс | HD The Houses October Built 2 (2017) | Хитрость / Deception [S01] (2018) WEBRip | IdeaFilm

Скачать через торрент музыку Вторжение гигантов Атака титанов бесплатно без регистрации torrent

Статистика раздачи
Размер:  1.55 GB   |    Зарегистрирован:  3 года 8 месяцев   |    .torrent скачан:  56 раз   |   
Раздают:  1  
   
загрузка...
 
Автор Сообщение

Galfimbul

avatar Galfimbul


Shingeki no Kyojin / Вторжение гигантов / Атака титанов / Attack on Titan / 進撃の巨人
Год выпуска: 2013 г.
Страна: Япония
Продолжительность: 3.44.50
Аудио кодек: FLAC (*.flac)
Тип рипа: image+.cue
Описание: раздача музыки, связанной с аниме Shingeki no Kyojin.
Обновляться будет по мере появления дисков в сети.
[spoiler="[AR] Shingeki no Kyojin OP1&OP2 Single - Jiyu e no Shingeki [Linked Horizon]"]
Дата выпуска: 10 июля 2013 г.
Каталог: PCCA-03836
Тип рипа: image+.cue
Продолжительность: 14.58
Наличие сканов в содержимом раздачи: да
Треклист:
1) Guren no Yumiya;
2) Jiyuu no Tsubasa;
3) Moshi Kono Kabe no Naka ga Ikken no Ie da to Shitara.
Exact Audio Copy V1.0 beta 3 from 29. August 2011

EAC extraction logfile from 10. July 2013, 18:11

Linked Horizon / 自由への進撃

Used drive : ATAPI DVD A DH16A3L Adapter: 1 ID: 0

Read mode : SecureUtilize accurate stream : YesDefeat audio cache : YesMake use of C2 pointers : No

Read offset correction : 6Overread into Lead-In and Lead-Out : NoFill up missing offset samples with silence : YesDelete leading and trailing silent blocks : NoNull samples used in CRC calculations : YesUsed interface : Native Win32 interface for Win NT & 2000

Used output format : Internal WAV RoutinesSample format : 44.100 Hz; 16 Bit; Stereo

TOC of the extracted CD

Track | Start | Length | Start sector | End sector --------------------------------------------------------- 1 | 0:00.00 | 5:16.70 | 0 | 23769 2 | 5:16.70 | 5:28.30 | 23770 | 48399 3 | 10:45.25 | 4:12.48 | 48400 | 67347

Range status and errors

Selected range

Filename G:\Linked Horizon - 自由への進撃.wav

Peak level 100.0 % Extraction speed 5.4 X Range quality 100.0 % Test CRC E8DA03DB Copy CRC E8DA03DB Copy OK

No errors occurred

End of status report

==== Log checksum 4E6A5559F860B1E2B525CE4F4D80CD02AFB57D6665822222F712D87443227F82 ====
[/spoiler]
[spoiler="[AR] Shingeki no Kyojin ED1 Single - Utsukushiki Zankoku na Sekai [Yoko Hikasa]"]
Дата выпуска: 8 мая 2013 г.
Каталог: PCCG-01343
Тип рипа: image+.cue
Продолжительность: 17.07
Наличие сканов в содержимом раздачи: да
Треклист:
1) Utsukushiki Zankoku na Sekai;
2) Starting line;
3) Utsukushiki Zankoku na Sekai (Instrumental);
4) Starting line (Instrumental).
Exact Audio Copy V1.0 beta 3 from 29. August 2011

EAC extraction logfile from 22. May 2013, 10:19

日笠陽子 / 美しき残酷な世界

Used drive : PLEXTOR DVDR PX-650US Adapter: 0 ID: 0

Read mode : SecureUtilize accurate stream : YesDefeat audio cache : YesMake use of C2 pointers : No

Read offset correction : 6Overread into Lead-In and Lead-Out : NoFill up missing offset samples with silence : YesDelete leading and trailing silent blocks : NoNull samples used in CRC calculations : YesUsed interface : Native Win32 interface for Win NT & 2000

Used output format : Internal WAV RoutinesSample format : 44.100 Hz; 16 Bit; Stereo

TOC of the extracted CD

Track | Start | Length | Start sector | End sector --------------------------------------------------------- 1 | 0:00.00 | 4:56.43 | 0 | 22242 2 | 4:56.43 | 3:37.62 | 22243 | 38579 3 | 8:34.30 | 4:56.27 | 38580 | 60806 4 | 13:30.57 | 3:36.09 | 60807 | 77015

Range status and errors

Selected range

Filename C:\eac\日笠陽子 - 美しき残酷な世界.wav

Peak level 100.0 % Extraction speed 3.2 X Range quality 99.9 % Copy CRC A15857FC Copy OK

No errors occurred

End of status report

==== Log checksum 9EBB57028D88A8C5EFBC81453685BF3C8D9535BC9335621A7594E8A662F2490D ====
[/spoiler]
[spoiler="[AR] Shingeki no Kyojin Original Soundtrack"]
Дата выпуска: 28 июня 2013 г.
Каталог: PCCG-01351
Тип рипа: image+.cue
Продолжительность: 1.17.28
Наличие сканов в содержимом раздачи: да
Треклист:
1) ətˈæk 0N tάɪtn <MIKA KOBAYASHI>
2) The Reluctant Heroes <mpi>
3) eye-water
4) 立body機motion
5) army⇒G♂
6) Vogel im Käfig <Cyua>
7) DOA <Aimee Blackschleger>
8) 凸】♀】♂】←巨人
9) E・M・A
10) 巨♀~9地区
11) Bauklötze <MIKA KOBAYASHI>
12) 2chi城
13) XL-TT
14) Call your name <mpi & CASG>
15) omake-pfadlib.
Exact Audio Copy V1.0 beta 3 from 29. August 2011

EAC extraction logfile from 14. July 2013, 22:33

澤野弘之 / 「進撃の巨人」オリジナルサウンドトラック

Used drive : PIONEER BD-RW BDR-S08 Adapter: 0 ID: 2

Read mode : SecureUtilize accurate stream : YesDefeat audio cache : YesMake use of C2 pointers : No

Read offset correction : 667Overread into Lead-In and Lead-Out : NoFill up missing offset samples with silence : YesDelete leading and trailing silent blocks : NoNull samples used in CRC calculations : YesUsed interface : Native Win32 interface for Win NT & 2000

Used output format : Internal WAV RoutinesSample format : 44.100 Hz; 16 Bit; Stereo

TOC of the extracted CD

Track | Start | Length | Start sector | End sector --------------------------------------------------------- 1 | 0:00.00 | 4:16.69 | 0 | 19268 2 | 4:16.69 | 4:27.09 | 19269 | 39302 3 | 8:44.03 | 3:01.31 | 39303 | 52908 4 | 11:45.34 | 5:42.54 | 52909 | 78612 5 | 17:28.13 | 6:06.44 | 78613 | 106106 6 | 23:34.57 | 3:26.33 | 106107 | 121589 7 | 27:01.15 | 6:20.04 | 121590 | 150093 8 | 33:21.19 | 3:26.02 | 150094 | 165545 9 | 36:47.21 | 4:21.28 | 165546 | 185148 10 | 41:08.49 | 5:42.66 | 185149 | 210864 11 | 46:51.40 | 5:15.27 | 210865 | 234516 12 | 52:06.67 | 3:56.19 | 234517 | 252235 13 | 56:03.11 | 6:47.43 | 252236 | 282803 14 | 62:50.54 | 6:37.33 | 282804 | 312611 15 | 69:28.12 | 4:28.25 | 312612 | 332736 16 | 73:56.37 | 3:31.40 | 332737 | 348601

Range status and errors

Selected range

Filename D:\EAC\11\「進撃の巨人」オリジナルサウンドトラック\澤野弘之 - 「進撃の巨人」オリジナルサウンドトラック.wav

Peak level 100.0 % Extraction speed 8.0 X Range quality 99.9 % Test CRC FB6C379B Copy CRC FB6C379B Copy OK

No errors occurred

End of status report

---- CUETools DB Plugin V2.1.3

[CTDB TOCID: OcQLbxp2zoUafPTd5HtnQWZFf4Q-] found, Submit result: OcQLbxp2zoUafPTd5HtnQWZFf4Q- has been confirmed[9e11a352] (21/21) Accurately ripped

==== Log checksum A25B990913502F2090405B670C18E05E01467EFF28B03F8ADAFE592E711A8683 ====
[/spoiler]
[spoiler="[AR] Shingeki no Kyojin Original Soundtrack II"]
Дата выпуска: 16 октября 2013 г.
Каталог: PCXG-50274
Тип рипа: image+.cue
Продолжительность: 47.51
Наличие сканов в содержимом раздачи: да
Источник: astost
Треклист:
1) 進撃 st-hrn-egt20130629 巨人;
2) 進撃 pf20130218 巨人;
3) 進撃 gt20130218 巨人;
4) 進撃 st-hrn-gt-pf20130629 巨人;
5) 進撃 vc-pf20130218 巨人;
6) 進撃 vn-pf20130524 巨人;
7) 進撃 pf-adlib-b20130218 巨人;
8) 進撃 st20130629 巨人;
9) 進撃 pf-adlib-c20130218 巨人;
10) 進撃 st-hrn-gt20130629 巨人;
11) 進撃 pf-medley20130629 巨人.
Exact Audio Copy V1.0 beta 3 from 29. August 2011

EAC extraction logfile from 3. November 2013, 19:03

澤野弘之 / TVアニメ「進撃の巨人」オリジナルサウンドトラックⅡ

Used drive : PIONEER BD-RW BDR-207 Adapter: 15 ID: 0

Read mode : SecureUtilize accurate stream : YesDefeat audio cache : YesMake use of C2 pointers : No

Read offset correction : 667Overread into Lead-In and Lead-Out : NoFill up missing offset samples with silence : YesDelete leading and trailing silent blocks : NoNull samples used in CRC calculations : YesUsed interface : Native Win32 interface for Win NT & 2000

Used output format : Internal WAV RoutinesSample format : 44.100 Hz; 16 Bit; Stereo

TOC of the extracted CD

Track | Start | Length | Start sector | End sector --------------------------------------------------------- 1 | 0:00.00 | 5:00.18 | 0 | 22517 2 | 5:00.18 | 4:40.55 | 22518 | 43572 3 | 9:40.73 | 2:31.20 | 43573 | 54917 4 | 12:12.18 | 4:36.45 | 54918 | 75662 5 | 16:48.63 | 6:11.25 | 75663 | 103512 6 | 23:00.13 | 3:23.30 | 103513 | 118767 7 | 26:23.43 | 2:50.41 | 118768 | 131558 8 | 29:14.09 | 5:25.02 | 131559 | 155935 9 | 34:39.11 | 3:53.05 | 155936 | 173415 10 | 38:32.16 | 4:12.57 | 173416 | 192372 11 | 42:44.73 | 5:06.20 | 192373 | 215342

Range status and errors

Selected range

Filename G:\TVアニメ「進撃の巨人」オリジナルサウンドトラックⅡ\PCXG-50274-2.wav

Peak level 99.7 % Extraction speed 6.9 X Range quality 100.0 % Copy CRC AF9AF41C Copy OK

No errors occurred

AccurateRip summary

Track 1 not present in databaseTrack 2 not present in databaseTrack 3 not present in databaseTrack 4 not present in databaseTrack 5 not present in databaseTrack 6 not present in databaseTrack 7 not present in databaseTrack 8 not present in databaseTrack 9 not present in databaseTrack 10 not present in databaseTrack 11 not present in database

None of the tracks are present in the AccurateRip database

End of status report

---- CUETools DB Plugin V2.1.3

[CTDB TOCID: cne8VOMdPwLux7R3KnbpXB.zmuM-] found, Submit result: cne8VOMdPwLux7R3KnbpXB.zmuM- has been confirmed[5cb9da36] (4/4) Accurately ripped

==== Log checksum 876112391A102F7817A8A150918470ABF287B8BAB773856918384DD201FFCDCE ====
[/spoiler]
[spoiler="[AR] Shingeki no Kyojin ED2 Single - great escape [cinema staff]"]
Дата выпуска: 21 августа 2013 г.
Каталог: PCCA-03900
Тип рипа: image+.cue
Продолжительность: 37.01
Наличие сканов в содержимом раздачи: нет.
Треклист:
1) great escape
2) cinema staff【僕たちの秘法】tour [email protected] 渋谷CLUB QUATTRO.
Exact Audio Copy V1.0 beta 3 from 29. August 2011

EAC extraction logfile from 22. August 2013, 22:34

cinema staff / great escape

Used drive : PIONEER BD-RW BDR-207 Adapter: 15 ID: 0

Read mode : SecureUtilize accurate stream : YesDefeat audio cache : YesMake use of C2 pointers : No

Read offset correction : 667Overread into Lead-In and Lead-Out : NoFill up missing offset samples with silence : YesDelete leading and trailing silent blocks : NoNull samples used in CRC calculations : YesUsed interface : Native Win32 interface for Win NT & 2000

Used output format : Internal WAV RoutinesSample format : 44.100 Hz; 16 Bit; Stereo

TOC of the extracted CD

Track | Start | Length | Start sector | End sector --------------------------------------------------------- 1 | 0:00.00 | 3:27.35 | 0 | 15559 2 | 3:27.35 | 33:34.00 | 15560 | 166609

Range status and errors

Selected range

Filename G:\PCCA-03900.wav

Peak level 99.3 % Extraction speed 6.5 X Range quality 100.0 % Copy CRC EA053504 Copy OK

No errors occurred

AccurateRip summary

Track 1 not present in databaseTrack 2 not present in database

None of the tracks are present in the AccurateRip database

End of status report

---- CUETools DB Plugin V2.1.3

[CTDB TOCID: wBqnkfvVoBAQPiHKrEUH7_n.95o-] found, Submit result: wBqnkfvVoBAQPiHKrEUH7_n.95o- has been confirmed[0996335e] (2/2) Accurately ripped

==== Log checksum 1125DF0548325F86648A01E78BE0365BC4A8156C0BF6BB7763D455111B017BEA ====
[/spoiler]
Дата выпуска: 21 августа 2013 г.
Каталог: PCXG-50272-2
Тип рипа: image+.cue
Продолжительность: 30.24
Наличие сканов в содержимом раздачи: нет.
Треклист:
1) サシャの怒涛の料理バトル編!!.
Exact Audio Copy V0.99 prebeta 5 from 4. May 2009

EAC 取り込みログファイル 日付 : 21. 8月 2013, 23:57

原作・監修:諫山創、脚本:瀬古浩司 / 進撃の巨人 Vol.2 特典CD 「諫山創監修ニセ予告ドラマCD『サシャの怒涛の料理バトル編!!』」

使用ドライブ : PIONEER BD-RW BDR-205 Adapter: 2 ID: 0

読み込みモード : セキュアモードドライブが正確なデータ転送能力を持つ : はいオーディオキャッシュを使用できる : はいC2エラー情報を検出する : いいえ

読み込みサンプルオフセット訂正値 : 637リードイン・リードアウトをオーバーリードする : いいえ欠落したオフセットサンプルを無音で補完する : はい曲の先頭と末端の無音領域を削除する : いいえCRC計算で無音のサンプルを使用するか : いいえ使用インターフェース : Win NT & 2000用のクラスドライバ

使用出力モード : 内蔵WAV出力ルーチンサンプルフォーマット : 44.100 Hz; 16 Bit; ステレオ

TOC情報を抜き出します

トラック | スタート | 長さ | 始めのセクター | 最終セクター ---------------------------------------------------------------- 1 | 0:00.00 | 30:24.15 | 0 | 136814

範囲取り込みステータス & エラー

選択された範囲

ファイル名 E:\Music\PCXG-50272-2.wav

ピークレベル 99.2 % 範囲取り込み品質 100.0 % コピーCRC B68ECA6A コピー OK

エラーは発生しませんでした

ステータス報告完了


[AR] — данное обозначение свидетельствует о том, что рип сделан в соответствии с [url=...3583832]данными[/url] настройками и является максимально точным.
В: Когда тут появится "N-ый" альбом?
О: После его выхода (узнать дату выхода можно, например, на cdjapan), загрузки в интернеты и появления у меня свободного времени.

В: А как называется трек из "N-ой" серии, играющий на "X" минуте?
О: Рекомендую скачать саундтрек и поискать самим — быстрее будет.

В: Почему треки не разделены?
О: Правилами запрещено менять форм-фактор. Да и раздачи образом мне больше нравятся, если честно.

В: Я нашёл ошибку в оформлении/раздаче.
О: Пожалуйста, напишите мне в личку об этом.

В: Как можно отслеживать релизы?
О: Используя фид на весь раздел остов в лосе (или только мои релизы).


Трекер:  [ 27-Ноя-2014 11:00 ]

  

Скачать .torrent

Размер .torrent файла 24 KB


Размер: 1.55 GB
Хэш (hash) релиза: 5fe8cfedc4aea46e13a25db5ebc2d95f3c0a6a2b

Еще никто не оставлял запись к записи скачать торрент Вторжение гигантов Атака титанов . Будь первым!

!Обратная связь