Shaun das Schaf | DJSunnyStef | Super Troopers 2 +When an international border dispute arises between the U.S. and Canada, the Super Troopers- Mac, Thorny, Foster, Rabbit and Farva, are called in to set up a new Highway Patrol station in the disputed area.

Скачать через торрент музыку Eureka Seven Ao Eureka Seven Astral Ocean бесплатно без регистрации torrent

Статистика раздачи
Размер:  1.74 GB   |    Зарегистрирован:  3 года 7 месяцев   |    .torrent скачан:  35 раз   |   
Раздают:  1  
   
загрузка...
 
Автор Сообщение

Galfimbul

avatar Galfimbul


Eureka Seven Ao / Eureka Seven Astral Ocean / エウレカセブンAO

Год выпуска: 2012 г.
Страна: Япония
Продолжительность: 3.44.33
Аудио кодек: FLAC (*.flac)
Тип рипа: image+.cue
Описание: раздача музыки, связанной с аниме Eureka Seven Ao.
[spoiler="Eureka Seven Ao OP Single - Escape [Hemenway]"]
Дата выпуска: 23 мая 2012 г.
Каталог: KSCL-2037
Тип рипа: image+.cue
Продолжительность: 16.56
Наличие сканов в содержимом раздачи: да
Треклист:
1) Escape;
2) Shifting;
3) Koko ni Inai Kimi he;
4) Escape (Lightning Guitar Ver.).
Exact Audio Copy V1.0 beta 1 from 15. November 2010

EAC extraction logfile from 23. May 2012, 23:45

Hemenway / KSCL-2037

Used drive : PIONEER DVD-RW DVR-216L Adapter: 0 ID: 3

Read mode : SecureUtilize accurate stream : YesDefeat audio cache : YesMake use of C2 pointers : No

Read offset correction : 66Overread into Lead-In and Lead-Out : NoFill up missing offset samples with silence : YesDelete leading and trailing silent blocks : NoNull samples used in CRC calculations : NoUsed interface : Native Win32 interface for Win NT & 2000

Used output format : Internal WAV RoutinesSample format : 44.100 Hz; 16 Bit; Stereo

TOC of the extracted CD

Track | Start | Length | Start sector | End sector --------------------------------------------------------- 1 | 0:00.00 | 3:37.44 | 0 | 16318 2 | 3:37.44 | 4:40.44 | 16319 | 37362 3 | 8:18.13 | 5:01.29 | 37363 | 59966 4 | 13:19.42 | 3:36.45 | 59967 | 76211

Range status and errors

Selected range

Filename D:\Desktop\KSCL-2037.wav

Peak level 96.1 % Extraction speed 1.2 X Range quality 100.0 % Copy CRC 51E87E2C Copy OK

No errors occurred

End of status report
[/spoiler]
[spoiler="Eureka Seven Ao OP2 Single - Bravelue [FLOW]"]
Дата выпуска: 5 сентября 2012 г.
Каталог: KSCL-2113
Тип рипа: image+.cue
Продолжительность: 21.03
Наличие сканов в содержимом раздачи: нет
Треклист:
1) ブレイブルー;
2) 休日;
3) DAYS;
4) Realize;
5) ブレイブルー -TV size-;
6) ブレイブルー -Instrumental-.
V1.0 beta 3 from 29. August 2011

EAC 抓取日誌檔案從17. 十一月 2012, 6:16

FLOW / ブレイブルー(エウレカ盤)

使用光碟機 :PHILIPS SPD2517T Adapter: 0 ID: 4

讀取模式 : : 暴發

讀取錯誤修正: : 0讀取 Lead-In 和 Lead-Out : 否用靜音填充抓取中丟失偏移的取樣 : 是去除首尾靜音區塊 : 否 : 是 : Win NT 及 2000 本地 Win32 介面

所用輸出模式: : 內部 WAV 函數 : 44.100 Hz;16 Bit;立體聲

| | | | -------------------------------------------- 1 | 0:00.00 | 4:08.25 | 0 | 18624 2 | 4:08.25 | 3:11.66 | 18625 | 33015 3 | 7:20.16 | 4:25.53 | 33016 | 52943 4 | 11:45.69 | 3:36.31 | 52944 | 69174 5 | 15:22.25 | 1:33.65 | 69175 | 76214 6 | 16:56.15 | 4:07.02 | 76215 | 94741

範圍狀態及錯誤

已選擇範圍

檔案名稱 F:\MusicConvertTmp\CDImage.wav

峰值電平 100.0 %7.7 X 複製 CRC 76EBA0C9 複製完成

沒有錯誤發生

狀態報告結尾

---- CUETools DB Plugin V2.1.3

[CTDB TOCID: A7Cw_Q7mEIBkhheqhIB4gT3s98s-] found, Submit result: A7Cw_Q7mEIBkhheqhIB4gT3s98s- has been confirmed[f86d6115] (2/2) Accurately ripped
[/spoiler]
[spoiler="Eureka Seven Ao ED Single - stand by me [stereopony]"]
Дата выпуска: 30 мая 2012 г.
Каталог: SRCL-7993
Тип рипа: image+.cue
Продолжительность: 18.15
Наличие сканов в содержимом раздачи: нет
Треклист:
1) stand by me
2) 狼
3) stand by me -Instrumental-
4) 狼 -Instrumental-
5) stand by me -アニメVer.-.
Exact Audio Copy V1.0 beta 3 from 29. August 2011

EAC extraction logfile from 29. May 2012, 0:57

ステレオポニー / stand by me

Used drive : HL-DT-STDVDRAM GH24NS70 Adapter: 2 ID: 0

www.laputahouse.com / www.laputasub.comEncoded by LaputaRead mode : SecureUtilize accurate stream : YesDefeat audio cache : NoMake use of C2 pointers : Yes

Read offset correction : 667Overread into Lead-In and Lead-Out : NoFill up missing offset samples with silence : YesDelete leading and trailing silent blocks : NoNull samples used in CRC calculations : YesUsed interface : Native Win32 interface for Win NT & 2000

Used output format : Internal WAV RoutinesSample format : 44.100 Hz; 16 Bit; Stereo

TOC of the extracted CD

Track | Start | Length | Start sector | End sector --------------------------------------------------------- 1 | 0:00.00 | 4:25.62 | 0 | 19936 2 | 4:25.62 | 3:56.04 | 19937 | 37640 3 | 8:21.66 | 4:25.09 | 37641 | 57524 4 | 12:47.00 | 3:56.05 | 57525 | 75229 5 | 16:43.05 | 1:31.52 | 75230 | 82106

Range status and errors

Selected range

Filename C:\Documents and Settings\Administrator\My Documents\Downloads\ステレオポニー - stand by me.wav

Peak level 100.0 % Extraction speed 19.4 X Range quality 100.0 % Copy CRC 14F2FA28 Copy OK

No errors occurred

End of status report

---- CUETools DB Plugin V2.1.3

[CTDB TOCID: MOmFEPHpfsf90K6kAu3slSFRBDE-] found, Submit result: already submitted[d47b40ac] (2/2) Accurately ripped

==== Log checksum 65F1AAF523008EDD70AD3DF17E9D4C9797FE88CE504283A54D2670F841D9B5D0 ====
[/spoiler]
[spoiler="[AR] Eureka Seven Ao ED2 Single - Iolite [joy]"]
Дата выпуска: 5 сентября 2012 г.
Каталог: SRCL-8088/9
Тип рипа: image+.cue
Продолжительность: 9.32
Наличие сканов в содержимом раздачи: да
Треклист:
1) アイオライト+;
2) malus;
3) アイオライト -アニメVer.-.
Exact Audio Copy V1.0 beta 3 from 29. August 2011

EAC extraction logfile from 5. October 2012, 10:37

joy / アイオライト

Used drive : HL-DT-STDVDRAM GSA-4082B Adapter: 0 ID: 1

Read mode : SecureUtilize accurate stream : YesDefeat audio cache : YesMake use of C2 pointers : No

Read offset correction : 667Overread into Lead-In and Lead-Out : NoFill up missing offset samples with silence : YesDelete leading and trailing silent blocks : NoNull samples used in CRC calculations : YesUsed interface : Native Win32 interface for Win NT & 2000

Used output format : User Defined EncoderSelected bitrate : 896 kBit/sQuality : HighAdd ID3 tag : NoCommand line compressor : C:\Programme\Exact Audio Copy\Flac\flac.exeAdditional command line options : -8 -V -T "ARTIST=%artist%" -T "TITLE=%title%" -T "ALBUM=%albumtitle%" -T "DATE=%year%" -T "TRACKNUMBER=%tracknr%" -T "GENRE=%genre%" -T "PERFORMER=%albuminterpret%" -T "COMPOSER=%composer%" -T "ALBUMARTIST=%albumartist%" -T "DISCNUMBER=%cdnumber%" -T "TOTALDISCS=%totalcds%" -T "TOTALTRACKS=%numtracks%" -T "COMMENT=%comment%" %source% -o %dest%

TOC of the extracted CD

Track | Start | Length | Start sector | End sector --------------------------------------------------------- 1 | 0:00.00 | 4:37.63 | 0 | 20837 2 | 4:37.63 | 3:22.32 | 20838 | 36019 3 | 8:00.20 | 1:31.50 | 36020 | 42894

Range status and errors

Selected range

Filename C:\Netzordner\2012 - Iolite (single)\joy - アイオライト.wav

Peak level 99.2 % Extraction speed 3.2 X Range quality 100.0 % Test CRC 18E6BEB7 Copy CRC 18E6BEB7 Copy OK

No errors occurred

AccurateRip summary

Track 1 not present in databaseTrack 2 not present in databaseTrack 3 not present in database

None of the tracks are present in the AccurateRip database

End of status report

---- CUETools DB Plugin V2.1.3

[CTDB TOCID: TRwYrGUOyy2rbVAPV9G3chmnU3Q-] found, Submit result: TRwYrGUOyy2rbVAPV9G3chmnU3Q- has been confirmed[863c9107] (7/7) Accurately ripped

==== Log checksum F32954B41F342A0E31E1122BF18B573A3A60A7335EE696AACCC14DB6A85273ED ====
[/spoiler]
[spoiler="[AR] Eureka Seven Ao Insert Song - Parallel Sign [LAMA]"]
Дата выпуска: 28 ноября 2012 г.
Каталог: KSCL-2134
Тип рипа: image+.cue
Продолжительность: 35.56
Наличие сканов в содержимом раздачи: да
Треклист:
1) Parallel Sign;
2) Seven Swell -based on 'Niji'-;
3) Know Your Rights (Short Version);
4) Parallel Sign (Instrumental);
5) Seven Swell -based on 'Niji'- (Instrumental);
6) Know Your Rights (Short Version)(Instrumental);
7) Parallel Sign (Acapella);
8) Seven Swell -based on 'Niji'- (Acapella);
9) Know Your Rights (Short Version)(Acapella).
Exact Audio Copy V1.0 beta 3 from 29. August 2011

EAC extraction logfile from 23. January 2013, 17:42

LAMA / Parallel Sign

Used drive : HL-DT-STDVDRAM GSA-4082B Adapter: 0 ID: 1

Read mode : SecureUtilize accurate stream : YesDefeat audio cache : YesMake use of C2 pointers : No

Read offset correction : 667Overread into Lead-In and Lead-Out : NoFill up missing offset samples with silence : YesDelete leading and trailing silent blocks : NoNull samples used in CRC calculations : YesUsed interface : Native Win32 interface for Win NT & 2000

Used output format : User Defined EncoderSelected bitrate : 896 kBit/sQuality : HighAdd ID3 tag : NoCommand line compressor : C:\Programme\Exact Audio Copy\Flac\flac.exeAdditional command line options : -8 -V -T "ARTIST=%artist%" -T "TITLE=%title%" -T "ALBUM=%albumtitle%" -T "DATE=%year%" -T "TRACKNUMBER=%tracknr%" -T "GENRE=%genre%" -T "PERFORMER=%albuminterpret%" -T "COMPOSER=%composer%" -T "ALBUMARTIST=%albumartist%" -T "DISCNUMBER=%cdnumber%" -T "TOTALDISCS=%totalcds%" -T "TOTALTRACKS=%numtracks%" -T "COMMENT=%comment%" %source% -o %dest%

TOC of the extracted CD

Track | Start | Length | Start sector | End sector --------------------------------------------------------- 1 | 0:00.00 | 4:25.17 | 0 | 19891 2 | 4:25.17 | 6:16.42 | 19892 | 48133 3 | 10:41.59 | 2:10.22 | 48134 | 57905 4 | 12:52.06 | 4:25.02 | 57906 | 77782 5 | 17:17.08 | 6:16.33 | 77783 | 106015 6 | 23:33.41 | 2:11.07 | 106016 | 115847 7 | 25:44.48 | 3:37.37 | 115848 | 132159 8 | 29:22.10 | 5:16.67 | 132160 | 155926 9 | 34:39.02 | 1:17.00 | 155927 | 161701

Range status and errors

Selected range

Filename C:\Netzordner\2012 - Parallel Sign (single) ASTOST\LAMA - Parallel Sign.wav

Peak level 100.0 % Extraction speed 4.1 X Range quality 99.9 % Test CRC 03C641EF Copy CRC 03C641EF Copy OK

No errors occurred

AccurateRip summary

Track 1 accurately ripped (confidence 1) [851AC087] (AR v1)Track 2 accurately ripped (confidence 1) [8FE225B7] (AR v1)Track 3 accurately ripped (confidence 1) [9EB7FA83] (AR v1)Track 4 accurately ripped (confidence 1) [9475BBE9] (AR v1)Track 5 accurately ripped (confidence 1) [653C0A71] (AR v1)Track 6 accurately ripped (confidence 1) [2E50B46D] (AR v1)Track 7 accurately ripped (confidence 1) [D35AE793] (AR v1)Track 8 accurately ripped (confidence 1) [D2CD2FB0] (AR v1)Track 9 accurately ripped (confidence 1) [5A1E732C] (AR v1)

All tracks accurately ripped

End of status report

---- CUETools DB Plugin V2.1.3

[CTDB TOCID: UaYAxkvj4bU.CUi3bmtlEDT7uZo-] found, Submit result: already submitted[8de8b6f4] (2/2) Accurately ripped

==== Log checksum 08906496136B0C546EA5570E49659FFC55E333F14EED4308BCA03DE868479EEA ====
[/spoiler]
[spoiler="[AR] Eureka Seven Ao ORIGINAL SOUNDTRACK 1"]
Дата выпуска: 27 июня 2012 г.
Каталог: SVWC-7860
Тип рипа: image+.cue
Продолжительность: 50.13
Наличие сканов в содержимом раздачи: да
Треклист:
1) Astral Ocean <アオ>;
2) IFO-RA272 “Nirvash' spec-M1 <ニルヴァーシュ1>;
3) Team Pied Piper <チーム.パイドパイパー1>;
4) Welcome Home <エウレカ>;
5) IFO-RA272 “Nirvash' spec-M2 <ニルヴァーシュ2>;
6) Girls Be Ambitious <少年少女>;
7) IFO-RA164 “Alleluia' <アレルヤ>;
8) Noah Noah <ノア>;
9) Got Butterflies <ドッキドキ>;
10) In Faith <狂信者のテーマ>;
11) Shimatonchu <磐戸島>;
12) Behind The Mask <技する者>;
13) Pied Piper Pipes <チーム.パイドパイパー2>;
14) IFO-RA301 “Kyrie' <キリエ>;
15) Sparkplug Revolutionary <改革者>;
16) Too Young To...? <若いぜ!>;
17) Tinsagu Nu Hana <てぃんさぐぬ花>;
18) Asadoya Yunta <安里屋ユンタ>;
19) Thatness and Thereness <2つの世界>;
20) OP Signal “REAL“ <急襲!>;
21) OP Signal “ALERT' <決死の磐戸島防衛戦>;
22) Ulterior Aim <米国の思惑>;
23) Generation Bleu <ゲネラシオン.ブル>;
24) Broken Wing <奪われる自由>;
25) Slipping Away w/U <2人の逃避行>;
26) Contortionist <歪んだ思想>;
27) In Flames <落胆>;
28) Shiver <悪寒>;
29) OP Signal “LIVE' <ライヴ感!>;
30) Anma Maman <母>.
Exact Audio Copy V1.0 beta 3 from 29. August 2011

EAC extraction logfile from 14. July 2012, 22:21

Nakamura Koji / EUREKA SEVEN AO ORIGINAL SOUNDTRACK 1

Used drive : SlimtypeDVD A DS8A5SH Adapter: 0 ID: 1

www.astost.comF.F.M encoded by Act_yegoRead mode : SecureUtilize accurate stream : YesDefeat audio cache : YesMake use of C2 pointers : No

Read offset correction : 6Overread into Lead-In and Lead-Out : NoFill up missing offset samples with silence : YesDelete leading and trailing silent blocks : NoNull samples used in CRC calculations : YesUsed interface : Native Win32 interface for Win NT & 2000

Used output format : Internal WAV RoutinesSample format : 44.100 Hz; 16 Bit; Stereo

TOC of the extracted CD

Track | Start | Length | Start sector | End sector --------------------------------------------------------- 1 | 0:00.00 | 1:41.34 | 0 | 7608 2 | 1:41.34 | 1:52.25 | 7609 | 16033 3 | 3:33.59 | 1:41.20 | 16034 | 23628 4 | 5:15.04 | 1:34.68 | 23629 | 30746 5 | 6:49.72 | 1:47.67 | 30747 | 38838 6 | 8:37.64 | 1:41.40 | 38839 | 46453 7 | 10:19.29 | 1:43.62 | 46454 | 54240 8 | 12:03.16 | 1:00.36 | 54241 | 58776 9 | 13:03.52 | 1:28.14 | 58777 | 65390 10 | 14:31.66 | 1:24.54 | 65391 | 71744 11 | 15:56.45 | 1:39.70 | 71745 | 79239 12 | 17:36.40 | 1:38.30 | 79240 | 86619 13 | 19:14.70 | 1:35.50 | 86620 | 93794 14 | 20:50.45 | 1:48.51 | 93795 | 101945 15 | 22:39.21 | 1:34.73 | 101946 | 109068 16 | 24:14.19 | 1:26.50 | 109069 | 115568 17 | 25:40.69 | 1:37.19 | 115569 | 122862 18 | 27:18.13 | 1:59.24 | 122863 | 131811 19 | 29:17.37 | 2:10.74 | 131812 | 141635 20 | 31:28.36 | 1:46.44 | 141636 | 149629 21 | 33:15.05 | 1:41.50 | 149630 | 157254 22 | 34:56.55 | 1:48.08 | 157255 | 165362 23 | 36:44.63 | 2:01.47 | 165363 | 174484 24 | 38:46.35 | 1:38.29 | 174485 | 181863 25 | 40:24.64 | 1:41.17 | 181864 | 189455 26 | 42:06.06 | 1:10.58 | 189456 | 194763 27 | 43:16.64 | 1:32.35 | 194764 | 201698 28 | 44:49.24 | 1:36.71 | 201699 | 208969 29 | 46:26.20 | 1:57.70 | 208970 | 217814 30 | 48:24.15 | 1:48.46 | 217815 | 225960

Range status and errors

Selected range

Filename D:\Act_yego\encoded\0713\EUREKA SEVEN AO ORIGINAL SOUNDTRACK 1\Nakamura Koji - EUREKA SEVEN AO ORIGINAL SOUNDTRACK 1.wav

Peak level 100.0 % Extraction speed 4.3 X Range quality 100.0 % Copy CRC 7A869DC9 Copy OK

No errors occurred

AccurateRip summary

Track 1 not present in databaseTrack 2 not present in databaseTrack 3 not present in databaseTrack 4 not present in databaseTrack 5 not present in databaseTrack 6 not present in databaseTrack 7 not present in databaseTrack 8 not present in databaseTrack 9 not present in databaseTrack 10 not present in databaseTrack 11 not present in databaseTrack 12 not present in databaseTrack 13 not present in databaseTrack 14 not present in databaseTrack 15 not present in databaseTrack 16 not present in databaseTrack 17 not present in databaseTrack 18 not present in databaseTrack 19 not present in databaseTrack 20 not present in databaseTrack 21 not present in databaseTrack 22 not present in databaseTrack 23 not present in databaseTrack 24 not present in databaseTrack 25 not present in databaseTrack 26 not present in databaseTrack 27 not present in databaseTrack 28 not present in databaseTrack 29 not present in databaseTrack 30 not present in database

None of the tracks are present in the AccurateRip database

End of status report

---- CUETools DB Plugin V2.1.3

[CTDB TOCID: ZT_PsrcHaBzoXABfdOeTq4kb_Yk-] disk not present in database, Submit result: ZT_PsrcHaBzoXABfdOeTq4kb_Yk- has been uploaded

==== Log checksum F70E90F6DEA040914230487B22D742B4F70B41BD30E20C11DFEA35A742287543 ====
[/spoiler]
Дата выпуска: 28 ноября 2012 г.
Каталог: SVWC-7889
Тип рипа: image+.cue
Продолжительность: 1.12.38
Наличие сканов в содержимом раздачи: нет
Треклист:
1) SECRET I: Emergence <降臨>;
2) OP Signal: 'Ambient';
3) Ulterior Aim: Surface;
4) Ex-Hero <大人の使命>;
5) Inside The Bleu <新しい社会、新しい体験>;
6) Johansson Book <秘密の真相>;
7) TRITON <自己犠牲>;
8) C.E.O. and The Captain <大人の生き方>;
9) The Rising <トゥルース>;
10) birth of a yunta...... <ナルの変化>;
11) Day in the Life <活気>;
12) Sisters of The System <ゴルディロックス>;
13) petit feud <親子喧嘩>;
14) Mirror Mirror;
15) Static Energy <クオーツ>;
16) SECRET II: Expansion <大軍隊>;
17) Ulterior Aim: Submerge;
18) Responsibility <選択>;
19) VERSUS SECRET <本当の姿>;
20) SCUB CORAL I: Exterior <溶け込む身体>;
21) SCUB CORAL II: Interior <謎・謎・謎>;
22) Shiver II;
23) SECRET III: Exposure <学ぶもの>;
24) SECRET IV: Adaptation;
25) visions of a yunta...... <願い>;
26) Psalms of a New Age <大きな選択>;
27) PARADOX;
28) RE: PARADOX;
29) The Awakening <覚醒>;
30) Apocalypse or A New Beginning <大砲>;
31) Parallel Sign (Short Version);
32) Seven Swell -based on 'Niji'- (Short Version);
33) Untitled.
-----------------------

DON'T MODIFY THIS FILE

-----------------------

PERFORMER: auCDtect Task Manager, ver. 1.5.1RC6 build 1.5.1.7Copyright (c) 2008-2010 y-soft. All rights reservedhttp://y-soft.org

ANALYZER: auCDtect: CD records authenticity detector, version 0.8.2Copyright (c) 2004 Oleg Berngardt. All rights reserved.Copyright (c) 2004 Alexander Djourik. All rights reserved.

FILE: ORIGINAL SOUNDTRACK 2.flac Size: 432032494 Hash: ED94BAFD87B2E8E2D5BD1368C94A03BE Accuracy: -m0 Conclusion: CDDA 100% Signature: E789883DE12841205A546F779BAB9190445B589E


[AR] — данное обозначение свидетельствует о том, что рип сделан в соответствии с [url=...3583832]данными[/url] настройками и является максимально точным.

Трекер:  [ 27-Ноя-2014 11:00 ]

  

Скачать .torrent

Размер .torrent файла 23 KB


Размер: 1.74 GB
Хэш (hash) релиза: a17047754f8fbe739268f23b35d90713d254202a

Еще никто не оставлял запись к записи скачать торрент Eureka Seven Ao Eureka Seven Astral Ocean . Будь первым!

!Обратная связь