Q Series Life ... | Tomb Raider 2018 720p HD TC NEW English X264 1GB | Godsmack

Скачать через торрент музыку Accel World бесплатно без регистрации torrent

Статистика раздачи
Размер:  4.16 GB   |    Зарегистрирован:  3 года 7 месяцев   |    .torrent скачан:  38 раз   |   
Раздают:  1  
   
загрузка...
 
Автор Сообщение

Galfimbul

avatar Galfimbul


Accel World / アクセル・ワールド

Год выпуска: 2012-2013 г.
Страна: Япония
Продолжительность: 5.57.23
Аудио кодек: FLAC (*.flac)
Тип рипа: image+.cue
Описание: раздача музыки, связанной с аниме Accel World.
[spoiler="[AR] Accel World OP Single - Chase the world (Avatar Edition) [May'n]"]
Дата выпуска: 09 мая 2012 г.
Каталог: WHV-1000300209
Тип рипа: image+.cue
Продолжительность: 12.48
Наличие сканов в содержимом раздачи: да
Треклист:
1) Chase the world;
2) Chase the world -BURST LINK Re-Mix-;
3) Chase the world -without May'n-.
Exact Audio Copy V1.0 beta 3 from 29. August 2011

EAC extraction logfile from 21. May 2012, 14:21

Unknown Artist / Unknown Title

Used drive : TSSTcorpCDDVDW SH-222AB Adapter: 0 ID: 0

Read mode : SecureUtilize accurate stream : YesDefeat audio cache : YesMake use of C2 pointers : No

Read offset correction : 6Overread into Lead-In and Lead-Out : NoFill up missing offset samples with silence : YesDelete leading and trailing silent blocks : NoNull samples used in CRC calculations : YesUsed interface : Native Win32 interface for Win NT & 2000

Used output format : Internal WAV RoutinesSample format : 44.100 Hz; 16 Bit; Stereo

TOC of the extracted CD

Track | Start | Length | Start sector | End sector --------------------------------------------------------- 1 | 0:00.00 | 3:44.63 | 0 | 16862 2 | 3:44.63 | 5:19.61 | 16863 | 40848 3 | 9:04.49 | 3:43.07 | 40849 | 57580

Range status and errors

Selected range

Filename F:\Music\MY CD\[EAC][120509] TVアニメ「アクセル・ワールド」OP「Chase the world」/May'n 【アバター盤】\Unknown Artist - Unknown Title.wav

Peak level 99.9 % Extraction speed 2.1 X Range quality 100.0 % Copy CRC 28E1A7FF Copy OK

No errors occurred

End of status report

==== Log checksum 8CA3D8F61B75F9FA4E1FF201E0AFD45F10C17551C428598A32E5FD8B6A039601 ====
[/spoiler]
[spoiler="Accel World OP Single - Chase the world [May'n]"]
Дата выпуска: 09 мая 2012 г.
Каталог: VTZL-45
Тип рипа: image+.cue
Продолжительность: 16.47
Наличие сканов в содержимом раздачи: да
Треклист:
1) Chase the world;
2) Hikari;
3) Chase the world (without May'n);
4) Hikari (without May'n).
Exact Audio Copy V1.0 beta 1 from 15. November 2010

EAC extraction logfile from 9. May 2012, 18:10

May'n / VTZL-45

Used drive : PIONEER DVD-RW DVR-216L Adapter: 0 ID: 3

Read mode : SecureUtilize accurate stream : YesDefeat audio cache : YesMake use of C2 pointers : No

Read offset correction : 66Overread into Lead-In and Lead-Out : NoFill up missing offset samples with silence : YesDelete leading and trailing silent blocks : NoNull samples used in CRC calculations : NoUsed interface : Native Win32 interface for Win NT & 2000

Used output format : Internal WAV RoutinesSample format : 44.100 Hz; 16 Bit; Stereo

TOC of the extracted CD

Track | Start | Length | Start sector | End sector --------------------------------------------------------- 1 | 0:00.00 | 3:49.10 | 0 | 17184 2 | 3:49.10 | 4:37.27 | 17185 | 37986 3 | 8:26.37 | 3:49.00 | 37987 | 55161 4 | 12:15.37 | 4:31.40 | 55162 | 75526

Range status and errors

Selected range

Filename D:\Desktop\VTZL-45.wav

Peak level 97.9 % Extraction speed 1.5 X Range quality 100.0 % Copy CRC CF45835C Copy OK

No errors occurred

End of status report
[/spoiler]
[spoiler="[AR] Accel World ED Single - unfinished [KOTOKO]"]
Дата выпуска: 16 мая 2012 г.
Каталог: WHV-1000300210
Тип рипа: image+.cue
Продолжительность: 19.35
Наличие сканов в содержимом раздачи: да
Треклист:
1) →unfinished→;
2) Sakura no Ame Moegi no Yo;
3) →unfinished→ Instrumental;
4) Sakura no Ame Moegi no Yo Instrumental.
Exact Audio Copy V1.0 beta 3 from 29. August 2011

EAC extraction logfile from 15. May 2012, 15:31

KOTOKO / →unfinished→

Used drive : SlimtypeDVD A DS8A5SH Adapter: 0 ID: 1

www.astost.comF.F.M encoded by Act_yegoRead mode : SecureUtilize accurate stream : YesDefeat audio cache : YesMake use of C2 pointers : No

Read offset correction : 6Overread into Lead-In and Lead-Out : NoFill up missing offset samples with silence : YesDelete leading and trailing silent blocks : NoNull samples used in CRC calculations : YesUsed interface : Native Win32 interface for Win NT & 2000

Used output format : Internal WAV RoutinesSample format : 44.100 Hz; 16 Bit; Stereo

TOC of the extracted CD

Track | Start | Length | Start sector | End sector --------------------------------------------------------- 1 | 0:00.00 | 4:42.03 | 0 | 21152 2 | 4:42.03 | 5:06.23 | 21153 | 44125 3 | 9:48.26 | 4:41.44 | 44126 | 65244 4 | 14:29.70 | 5:05.01 | 65245 | 88120

Range status and errors

Selected range

Filename D:\Act_yego\encoded\→unfinished→\KOTOKO - →unfinished→.wav

Peak level 100.0 % Extraction speed 3.3 X Range quality 99.9 % Copy CRC 61FC7B14 Copy OK

No errors occurred

AccurateRip summary

Track 1 not present in databaseTrack 2 not present in databaseTrack 3 not present in databaseTrack 4 not present in database

None of the tracks are present in the AccurateRip database

End of status report

---- CUETools DB Plugin V2.1.3

[CTDB TOCID: o7FXHXThecyGxbuK.1TrlZjbMKA-] found, Submit result: o7FXHXThecyGxbuK.1TrlZjbMKA- has been confirmed[a8040a4e] (1/1) Accurately ripped

==== Log checksum 4A0B2F83B2F925218C8D145C3C5AE89E41BE48245E6C3AFEAE2B9DE87AC2C820 ====
[/spoiler]
[spoiler="[AR] Accel World OP2 Single - Burst The Gravity [Altima]"]
Дата выпуска: 25 июля 2012 г.
Каталог: WHV-1000321904
Тип рипа: image+.cue
Продолжительность: 16.20
Наличие сканов в содержимом раздачи: нет
Треклист:
1) Burst The Gravity;
2) CYBER CYBER;
3) Burst The Gravity (Instrumental);
4) CYBER CYBER (Instrumental).
Exact Audio Copy V1.0 beta 3 from 29. August 2011

EAC extraction logfile from 22. July 2012, 17:43

ALTIMA / TVアニメ アクセル・ワールド 新OPテーマ「Burst The Gravity」[DVD付初回限定盤]

Used drive : HL-DT-STDVDRAM GT30N Adapter: 0 ID: 1

Read mode : SecureUtilize accurate stream : YesDefeat audio cache : YesMake use of C2 pointers : No

Read offset correction : 103Overread into Lead-In and Lead-Out : NoFill up missing offset samples with silence : YesDelete leading and trailing silent blocks : NoNull samples used in CRC calculations : YesUsed interface : Native Win32 interface for Win NT & 2000

Used output format : Internal WAV RoutinesSample format : 44.100 Hz; 16 Bit; Stereo

TOC of the extracted CD

Track | Start | Length | Start sector | End sector --------------------------------------------------------- 1 | 0:00.00 | 4:27.19 | 0 | 20043 2 | 4:27.19 | 3:44.08 | 20044 | 36851 3 | 8:11.27 | 4:26.64 | 36852 | 56865 4 | 12:38.16 | 3:42.21 | 56866 | 73536

Range status and errors

Selected range

Filename C:\Users\HiakruYakumo\Music\[EAC] [120725] [光[email protected]]TVアニメ アクセル・ワールド 新OPテーマ「Burst The Gravity」[DVD付初回限定盤]/ALTIMA(wav+cue+log)\「Burst The Gravity」.wav

Peak level 100.0 % Extraction speed 3.6 X Range quality 100.0 % Copy CRC 5DB8D14F Copy OK

No errors occurred

AccurateRip summary

Track 1 not present in databaseTrack 2 not present in databaseTrack 3 not present in databaseTrack 4 not present in database

None of the tracks are present in the AccurateRip database

End of status report

---- CUETools DB Plugin V2.1.3

[CTDB TOCID: YZVNRZTw0mhNT.Nc.LgN_3lUHH4-] disk not present in database, Submit result: YZVNRZTw0mhNT.Nc.LgN_3lUHH4- has been uploaded

==== Log checksum 23EECF4BA6418293F210DD6A6F4FB495C554388B1A48CA886F68D0B718887D15 ====
[/spoiler]
[spoiler="[AR] Accel World ED2 Single - Unite [Misawa Sachika]"]
Дата выпуска: 01 августа 2012 г.
Каталог: WHV-1000321906
Тип рипа: image+.cue
Продолжительность: 16.20
Наличие сканов в содержимом раздачи: да
Треклист:
1) Unite;
2) Twilight;
3) Unite - Instrumental;
4) Twilight - Instrumeental.
Exact Audio Copy V1.0 beta 3 from 29. August 2011

EAC extraction logfile from 31. July 2012, 16:57

三澤紗千香 / ユナイト

Used drive : SlimtypeDVD A DS8A5SH Adapter: 0 ID: 1

www.astost.comF.F.M encoded by Act_yegoRead mode : SecureUtilize accurate stream : YesDefeat audio cache : YesMake use of C2 pointers : No

Read offset correction : 6Overread into Lead-In and Lead-Out : NoFill up missing offset samples with silence : YesDelete leading and trailing silent blocks : NoNull samples used in CRC calculations : YesUsed interface : Native Win32 interface for Win NT & 2000

Used output format : Internal WAV RoutinesSample format : 44.100 Hz; 16 Bit; Stereo

TOC of the extracted CD

Track | Start | Length | Start sector | End sector --------------------------------------------------------- 1 | 0:00.00 | 3:51.02 | 0 | 17326 2 | 3:51.02 | 4:20.20 | 17327 | 36846 3 | 8:11.22 | 3:51.03 | 36847 | 54174 4 | 12:02.25 | 4:17.72 | 54175 | 73521

Range status and errors

Selected range

Filename D:\Act_yego\encoded\0731\ユナイト\三澤紗千香 - ユナイト.wav

Peak level 99.9 % Extraction speed 3.3 X Range quality 100.0 % Copy CRC AAA8542B Copy OK

No errors occurred

AccurateRip summary

Track 1 not present in databaseTrack 2 not present in databaseTrack 3 not present in databaseTrack 4 not present in database

None of the tracks are present in the AccurateRip database

End of status report

---- CUETools DB Plugin V2.1.3

[CTDB TOCID: L678xLlXHXugq6S9BChpYD5y1Jo-] found, Submit result: L678xLlXHXugq6S9BChpYD5y1Jo- has been confirmed[ce6830e4] (1/1) Accurately ripped

==== Log checksum B9C307F9C2B9088861359BFD73BA23A9F506A2C1E7E11811EBBA6CBFF0CCF4E4 ====
[/spoiler]
Дата выпуска: 25 июля 2012 г.
Каталог: WHV-1000312104
Тип рипа: image+.cue
Продолжительность: 51.48
Наличие сканов в содержимом раздачи: нет
Треклист:
1) Silver Wing;
2) Clear Days;
3) Plum Square;
4) Red Signal;
5) Vermilion Field;
6) Cafe Lounge;
7) White Air;
8) Peer Picture;
9) Gray Suspicion;
10) Blood History;
11) Glass Memory;
12) Leaf Season;
13) Blues Pig;
14) Honey Trap;
15) Scarlet Princess;
16) Yellow Circus;
17) Dazzle Illusion;
18) Black Out;
19) Ceramic Heart;
20) Sky Dream;
21) Iron Will;
22) Rainbow Aurora;
23) Golden Glory;
24) Re-incarnate (EX).
EAC 抓取日志文件从1. 八月t 2012, 14:52 用于 CD未知艺术家 / 未知标题

使用驱动器 :hp DVD-ROM TS-H353B Adapter: 0 ID: 1读取模式 :不使用 C2,使用精确流, 禁用缓存的安全模式组合读写偏移校正:0读取 Lead-In 和 Lead-Out : 否

所用输出模式:内部 WAV 函数 44.100 Hz;16 Bit;立体声

其他选项 : 用静音填充抓取中丢失偏移的采样 : 是 去除首尾静音块 : 否 Win NT 及 2000 本地 Win32 接口

范围状态及错误已选择范围 文件名 F:\AW\CDImage.wav

峰值电平 100.0 % 范围质量 100.0 % CRC 4F467BFB 复制成功

没有错误发生

状态报告结尾
Дата выпуска: 29 августа 2012 г.
Каталог: WHV-1000312103
Тип рипа: tracks
Продолжительность: 58.08
Наличие сканов в содержимом раздачи: да
Треклист:
1) sympathia;
2) minimalian;
3) our garden;
4) children's domain;
5) sunny bit;
6) boooo;
7) way home;
8) ivy cable;
9) burst link;
10) burst link (raio0);
11) accelerated world (OST edit);
12) inner paradise;
13) bugz;
14) pressure;
15) mad hacker;
16) flash control;
17) byebye;
18) resources;
19) sky segment;
20) silver wing;
21) alert sign;
22) alert sign (raio0);
23) core;
24) physical error;
25) command z;
26) clow-yuki.
-----------------------

DON'T MODIFY THIS FILE

-----------------------

PERFORMER: auCDtect Task Manager, ver. 1.5.1RC6 build 1.5.1.7Copyright (c) 2008-2010 y-soft. All rights reservedhttp://y-soft.org

ANALYZER: auCDtect: CD records authenticity detector, version 0.8.2Copyright (c) 2004 Oleg Berngardt. All rights reserved.Copyright (c) 2004 Alexander Djourik. All rights reserved.

FILE: 26 clow-yuki.flac Size: 10766582 Hash: D39F10CE5A9CAD21DAC5FFF719425157 Accuracy: -m0 Conclusion: CDDA 100% Signature: 3A9A4FFACC7C9A71BD2EB10ECDAA82E148FAA2F8FILE: 25 command z.flac Size: 18029538 Hash: FD2376283072F4B7B0A105AEF8737923 Accuracy: -m0 Conclusion: MPEG 95% Signature: 5DDAC3A74D9E367DDB36DD74AEFECBA3D8B69474FILE: 24 physical error.flac Size: 6633924 Hash: 7C07D88260A0D59DBB3D6B3F59958797 Accuracy: -m0 Conclusion: CDDA 87% Signature: D6DD986120A616278C38AA5F91461978DA92B66FFILE: 23 core.flac Size: 20453817 Hash: C994EB841C690B1077771B999961CE3C Accuracy: -m0 Conclusion: CDDA 99% Signature: 02BDD2070E5F760C2C8B0738C8F1C186331B15A8FILE: 22 alert sign (raio0).flac Size: 13436940 Hash: 8E18902A72A6F9C643F2D3CEEA914B14 Accuracy: -m0 Conclusion: CDDA 100% Signature: F94BFB0AA292532943171BB51DE4DD184D805352FILE: 21 alert sign.flac Size: 11651783 Hash: 0E3272DF49C86ED89F4BFC755003D143 Accuracy: -m0 Conclusion: CDDA 99% Signature: 599AF10CA20215B7C26477349223E88DA33BB559FILE: 20 silver wing.flac Size: 16084589 Hash: 77A41D0779E478FDA4C0975EACCAB9A0 Accuracy: -m0 Conclusion: CDDA 100% Signature: 071F7D73D352652A11210A34DAF4F20A876BA920FILE: 19 sky segment.flac Size: 12014566 Hash: B25B6646F10E6E29E3A4757AA864A481 Accuracy: -m0 Conclusion: CDDA 100% Signature: 094B833FC020CFD6B4D23CF1D36DDFFD40CB2D44FILE: 18 resources.flac Size: 4749162 Hash: ECEA68B768F9CAB537E1D1533A2F3D54 Accuracy: -m0 Conclusion: CDDA 100% Signature: 50FF46E1FB9651E748AA58BD206CA54E0A394C49FILE: 17 byebye.flac Size: 9465487 Hash: 5FF4760A149C4B82CBAEF4D90E4E0815 Accuracy: -m0 Conclusion: CDDA 100% Signature: CF46C3107F9A77500754217E312C4B6668FE3FA6FILE: 16 flash control.flac Size: 13750649 Hash: A91A2FBF139024C181A6DFAE36EF7BB8 Accuracy: -m0 Conclusion: CDDA 100% Signature: A43ED28A30AB410B6735F07B66F6372175EFBBBAFILE: 15 mad hacker.flac Size: 10621939 Hash: A09E287B40CE95B02CC9B44B74C8AD97 Accuracy: -m0 Conclusion: CDDA 100% Signature: 437011DF5F7E57C3A94FED853047286DC4C5D09DFILE: 14 pressure.flac Size: 9621133 Hash: BC84174460CF8C285157206D9B1D9D57 Accuracy: -m0 Conclusion: CDDA 100% Signature: 96F8DFFE8D5C843AD8E9F29E38B8DE14EB758739FILE: 13 bugz.flac Size: 18027019 Hash: 351C5470631CE6E3734C722F7D45CD38 Accuracy: -m0 Conclusion: CDDA 100% Signature: FDE98DCDB77D37E120959E21A03535E1ACF9867FFILE: 12 inner paradise.flac Size: 24937967 Hash: F9C5D636188193AE5589FB97DA1E6B5C Accuracy: -m0 Conclusion: CDDA 100% Signature: 439C5A40A625DBA371EE13521232B74CBF04C03AFILE: 11 accelerated world (OST edit).flac Size: 16967432 Hash: F18FC25E54A26F50F3E713B8F0347A9E Accuracy: -m0 Conclusion: CDDA 100% Signature: F91B1E588A01DA811A1CD494704150E94AC7F4C4FILE: 10 burst link (raio0).flac Size: 13601069 Hash: 233442B1565739A6C8477D2062FCD57A Accuracy: -m0 Conclusion: CDDA 100% Signature: AB2E7B123CA3862B3C1B0F459905720F6B774C0CFILE: 09 burst link.flac Size: 11023024 Hash: 92FD0DB36CB1153B42B4450AF26F9101 Accuracy: -m0 Conclusion: CDDA 100% Signature: 8E33373F0FF269B07B32A99BB62E0861911F883CFILE: 08 ivy cable.flac Size: 9959431 Hash: DBA845FEE1CABB12FD349FD134538F8D Accuracy: -m0 Conclusion: CDDA 100% Signature: 681B73030EB36AC410DEE52D74B7E3B4E3681956FILE: 07 way home.flac Size: 8717484 Hash: 7088EBCE6D58214016FD5273B9DA6BFE Accuracy: -m0 Conclusion: CDDA 99% Signature: 0DF1AFC3D64C7D1CD8C2BAADB0F51B79D58774F8FILE: 06 boooo.flac Size: 10971226 Hash: 9D529768BB94B191D53DDA55BCC2A4F0 Accuracy: -m0 Conclusion: MPEG 95% Signature: 312C78417F4E90A6D0020F1666E3CF24CC8AE5B4FILE: 05 sunny bit.flac Size: 7589902 Hash: 869DD4E44F393BFEB8FB6FFDC2CA2507 Accuracy: -m0 Conclusion: CDDA 87% Signature: 8DFCAF67292A00DAC5399E132816BE3009955831FILE: 04 children's domain.flac Size: 9277047 Hash: B744F9CCE29710CA4DFDE45265640321 Accuracy: -m0 Conclusion: CDDA 99% Signature: 272B49C7CBB263739DC24EC1A22DA64546C34612FILE: 03 our garden.flac Size: 7500479 Hash: DB179DA288E461CE96F9E1F7E8B805BF Accuracy: -m0 Conclusion: CDDA 100% Signature: A9C3E75EDD2426AF08C18294EED35B48083F1F09FILE: 02 minimalian.flac Size: 15987949 Hash: E089CAF338D720F630B2D6EB487B18AA Accuracy: -m0 Conclusion: CDDA 100% Signature: 41441C515C22AA8B494CC7FEF05092F531EBC4EBFILE: 01 sympathia.flac Size: 38051301 Hash: 0198FB2BCDF665ED86D2E874817AADD3 Accuracy: -m0 Conclusion: CDDA 100% Signature: E8F2857E7FF9B89BBFB030701C49707B066A080C
[spoiler="[AR] Accel World Original Soundtrack feat. MintJam"]
Дата выпуска: 26 сентября 2012 г.
Каталог: 1000313088
Тип рипа: image+.cue
Продолжительность: 1.06.01
Наличие сканов в содержимом раздачи: да
Треклист:
1) Quest for Genesis;
2) Scramble;
3) 炎の契約;
4) Encounter;
5) 大いなる暗黒世界;
6) Hallucination;
7) 疑心暗鬼;
8) 焦燥;
9) Tenderness;
10) Cursing;
11) Aggression;
12) Crisis;
13) Monster Machine;
14) 不動要塞;
15) ハルユキの苦悩;
16) Distance;
17) 闇の律動;
18) 加速研究会;
19) 過去との決別;
20) 闘志;
21) Silvery Wings;
22) Hallucination (Short Ver.);
23) Tenderness (Piano Ver.);
24) Silvery Wings (Short Strings Ver.).
Exact Audio Copy V1.0 beta 3 from 29. August 2011

EAC extraction logfile from 22. October 2012, 10:26

MintJam / Accel World Original Soundtrack feat.MintJam

Used drive : PIONEER BD-RW BDR-207 Adapter: 1 ID: 0

Read mode : SecureUtilize accurate stream : YesDefeat audio cache : YesMake use of C2 pointers : No

Read offset correction : 667Overread into Lead-In and Lead-Out : NoFill up missing offset samples with silence : YesDelete leading and trailing silent blocks : NoNull samples used in CRC calculations : YesUsed interface : Native Win32 interface for Win NT & 2000

Used output format : Internal WAV RoutinesSample format : 44.100 Hz; 16 Bit; Stereo

TOC of the extracted CD

Track | Start | Length | Start sector | End sector --------------------------------------------------------- 1 | 0:00.00 | 5:18.42 | 0 | 23891 2 | 5:18.42 | 2:41.32 | 23892 | 35998 3 | 7:59.74 | 1:55.25 | 35999 | 44648 4 | 9:55.24 | 2:47.17 | 44649 | 57190 5 | 12:42.41 | 2:08.07 | 57191 | 66797 6 | 14:50.48 | 3:49.58 | 66798 | 84030 7 | 18:40.31 | 1:43.48 | 84031 | 91803 8 | 20:24.04 | 2:02.39 | 91804 | 100992 9 | 22:26.43 | 2:06.45 | 100993 | 110487 10 | 24:33.13 | 1:45.37 | 110488 | 118399 11 | 26:18.50 | 2:32.31 | 118400 | 129830 12 | 28:51.06 | 2:48.25 | 129831 | 142455 13 | 31:39.31 | 3:04.52 | 142456 | 156307 14 | 34:44.08 | 4:20.68 | 156308 | 175875 15 | 39:05.01 | 2:01.73 | 175876 | 185023 16 | 41:06.74 | 2:47.08 | 185024 | 197556 17 | 43:54.07 | 2:33.34 | 197557 | 209065 18 | 46:27.41 | 4:06.73 | 209066 | 227588 19 | 50:34.39 | 3:07.14 | 227589 | 241627 20 | 53:41.53 | 2:24.31 | 241628 | 252458 21 | 56:06.09 | 4:03.35 | 252459 | 270718 22 | 60:09.44 | 2:00.13 | 270719 | 279731 23 | 62:09.57 | 2:06.25 | 279732 | 289206 24 | 64:16.07 | 1:45.26 | 289207 | 297107

Range status and errors

Selected range

Filename R:\SmallSea♪\Anime\アクセル・ワールド\Accel World Original Soundtrack feat.MintJam.wav

Peak level 100.0 % Extraction speed 7.9 X Range quality 99.9 % Test CRC EA82EAEB Copy CRC EA82EAEB Copy OK

No errors occurred

End of status report

==== Log checksum 81B800E14064D2ECB080A1E3E99432052F01706D1240D331235BE1590B823AD1 ====
[/spoiler]
Дата выпуска: 25 июля 2012 г.
Каталог: WHV-1000303035
Тип рипа: image+.cue
Продолжительность: 13.38
Наличие сканов в содержимом раздачи: да
Треклист:
1) Silver Wing;
2) Vermilion Field;
3) Silver Wing ~ Blood History.
Exact Audio Copy V1.0 beta 3 from 29. August 2011

EAC extraction logfile from 27. July 2012, 18:06

アクセル・ワールド 01 特典CD / re acceleration BGM feat.大島啓之

Used drive : Optiarc DVD RW AD-7240S Adapter: 5 ID: 0

Read mode : SecureUtilize accurate stream : YesDefeat audio cache : NoMake use of C2 pointers : Yes

Read offset correction : 18Overread into Lead-In and Lead-Out : NoFill up missing offset samples with silence : YesDelete leading and trailing silent blocks : NoNull samples used in CRC calculations : YesUsed interface : Native Win32 interface for Win NT & 2000

Used output format : Internal WAV RoutinesSample format : 44.100 Hz; 16 Bit; Stereo

TOC of the extracted CD

Track | Start | Length | Start sector | End sector --------------------------------------------------------- 1 | 0:00.00 | 3:54.22 | 0 | 17571 2 | 3:54.22 | 2:17.20 | 17572 | 27866 3 | 6:11.42 | 7:26.06 | 27867 | 61322

Range status and errors

Selected range

Filename B:\Upload\[BDMV][120725] アクセル・ワールド 01 (初回限定版)\特典CD\アクセル・ワールド 01 特典CD - re acceleration BGM feat.大島啓之.wav

Peak level 100.0 % Extraction speed 17.3 X Range quality 100.0 % Copy CRC BFAD4838 Copy OK

No errors occurred

End of status report
Дата выпуска: 29 августа 2012 г.
Каталог: WHV-1000303029
Тип рипа: image+.cue
Продолжительность: 14.21
Наличие сканов в содержимом раздачи: нет
Треклист:
1) byebye & way home;
2) accelerated world(OST edit).;
3) inner paradisc;
4) accelerated world(OST edit).
-----------------------

DON'T MODIFY THIS FILE

-----------------------

PERFORMER: auCDtect Task Manager, ver. 1.5.1RC6 build 1.5.1.7Copyright (c) 2008-2010 y-soft. All rights reservedhttp://y-soft.org

ANALYZER: auCDtect: CD records authenticity detector, version 0.8.2Copyright (c) 2004 Oleg Berngardt. All rights reserved.Copyright (c) 2004 Alexander Djourik. All rights reserved.

FILE: CDImage.flac Size: 99029014 Hash: 4A19101AF1DEF32C4AA0BE82D0B49326 Accuracy: -m0 Conclusion: CDDA 100% Signature: FECC0B9E92D9205B64F56AABB5A57717D57F6474
Дата выпуска: 26 сентября 2012 г.
Каталог: 1000303023-CD
Тип рипа: image+.cue
Продолжительность: 14.26
Наличие сканов в содержимом раздачи: нет
Треклист:
1) Silverly wings;
2) Hallucination;
3) Encounter.
-----------------------

DON'T MODIFY THIS FILE

-----------------------

PERFORMER: auCDtect Task Manager, ver. 1.5.1RC6 build 1.5.1.7Copyright (c) 2008-2010 y-soft. All rights reservedhttp://y-soft.org

ANALYZER: auCDtect: CD records authenticity detector, version 0.8.2Copyright (c) 2004 Oleg Berngardt. All rights reserved.Copyright (c) 2004 Alexander Djourik. All rights reserved.

FILE: CDImage.flac Size: 111955467 Hash: 1E4E58833D5E66DFBD4D964A072188FC Accuracy: -m0 Conclusion: CDDA 100% Signature: A9AD3FF22C1860F6560B843169EA931C15054F9A
Дата выпуска: 24 октября 2012 г.
Каталог: 1000303017-CD
Тип рипа: image+.cue
Продолжительность: 11.09
Наличие сканов в содержимом раздачи: нет
Треклист:
1) Re-incarnate (remixed by onoken);
2) Re-incarnate (remixed by MintJam).
-----------------------

DON'T MODIFY THIS FILE

-----------------------

PERFORMER: auCDtect Task Manager, ver. 1.5.1RC6 build 1.5.1.7Copyright (c) 2008-2010 y-soft. All rights reservedhttp://y-soft.org

ANALYZER: auCDtect: CD records authenticity detector, version 0.8.2Copyright (c) 2004 Oleg Berngardt. All rights reserved.Copyright (c) 2004 Alexander Djourik. All rights reserved.

FILE: CDImage.flac Size: 83382446 Hash: CD5B6AC4F6DEA9A0D4E8942973C06ABB Accuracy: -m0 Conclusion: CDDA 100% Signature: 84998729E648720C253A53CBBEDD7DA46684C1A4
Дата выпуска: 28 ноября 2012 г.
Каталог: 1000303011-CD
Тип рипа: tracks
Продолжительность: 10.41
Наличие сканов в содержимом раздачи: нет
Треклист:
1) sympathia;
2) sympathia (remix by mintjam).
Exact Audio Copy V1.0 beta 3 from 29. August 2011

EAC extraction logfile from 30. November 2012, 5:35

Unknown Artist / re acceleration image song sympathia

Used drive : HL-DT-STBD-RE BH10LS30 Adapter: 3 ID: 0

Read mode : Burst

Read offset correction : 0Overread into Lead-In and Lead-Out : NoFill up missing offset samples with silence : YesDelete leading and trailing silent blocks : NoNull samples used in CRC calculations : YesUsed interface : Native Win32 interface for Win NT & 2000

Used output format : Internal WAV RoutinesSample format : 44.100 Hz; 16 Bit; Stereo

TOC of the extracted CD

Track | Start | Length | Start sector | End sector --------------------------------------------------------- 1 | 0:00.00 | 5:26.13 | 0 | 24462 2 | 5:26.13 | 5:18.27 | 24463 | 48339

Track 1, Index 1

Peak level 99.8 % Extraction speed 13.5 X Copy OK

Track 2, Index 0

Peak level 0.0 % Extraction speed 23.1 X Copy OK

Track 2, Index 1

Peak level 99.9 % Extraction speed 22.6 X Copy OK

No errors occurred

End of status report

---- CUETools DB Plugin V2.1.3

[CTDB TOCID: b7ZoD5Bp1I0Pg0shxP0eBscB9H4-] disk not present in database, Submit result: insufficient quality
Дата выпуска: 26 декабря 2012 г.
Каталог: 1000303005-CD
Тип рипа: tracks
Продолжительность: 10.41
Наличие сканов в содержимом раздачи: нет
Треклист:
1) quest for genesis;
2) quest for genesis (remix by onoken)
Exact Audio Copy V1.0 beta 3 from 29. August 2011

EAC extraction logfile from 31. December 2012, 14:15

Unknown Artist / Unknown Title

Used drive : HL-DT-STBDDVDRW CH08LS10 Adapter: 4 ID: 0

Read mode : Burst

Read offset correction : 0Overread into Lead-In and Lead-Out : NoFill up missing offset samples with silence : YesDelete leading and trailing silent blocks : NoNull samples used in CRC calculations : YesUsed interface : Native Win32 interface for Win NT & 2000Gap handling : Not detected, thus appended to previous track

Used output format : Internal WAV RoutinesSample format : 44.100 Hz; 16 Bit; Stereo

TOC of the extracted CD

Track | Start | Length | Start sector | End sector --------------------------------------------------------- 1 | 0:00.00 | 6:05.11 | 0 | 27385 2 | 6:05.11 | 4:35.38 | 27386 | 48048

Track 1

Filename E:\shinsekai yori\Extra audrio cd\01 Track01.wav

Timing problem 0:00:22

Peak level 99.9 % Extraction speed 14.0 X Copy CRC 59422036 Copy finished

Track 2

Filename E:\shinsekai yori\Extra audrio cd\02 Track02.wav

Peak level 99.8 % Extraction speed 22.3 X Copy CRC 5A2078CA Copy OK

No errors occurred

End of status report

---- CUETools DB Plugin V2.1.3

[CTDB TOCID: _rpzexXpez7vTehDCamtzcMJJBo-] disk not present in database, Submit result: insufficient quality
Дата выпуска: 30 января 2013 г.
Каталог: 1000302999-CD
Тип рипа: tracks
Продолжительность: 09.53
Наличие сканов в содержимом раздачи: нет
Треклист:
1) re acceleration image song feat.yashikin;
2) Sleeping baby.
Exact Audio Copy V1.0 beta 3 from 29. August 2011

EAC extraction logfile from 31. January 2013, 18:39

Unknown Artist / Unknown Title

Used drive : HL-DT-STBDDVDRW CH08LS10 Adapter: 4 ID: 0

Read mode : Burst

Read offset correction : 0Overread into Lead-In and Lead-Out : NoFill up missing offset samples with silence : YesDelete leading and trailing silent blocks : NoNull samples used in CRC calculations : YesUsed interface : Native Win32 interface for Win NT & 2000Gap handling : Not detected, thus appended to previous track

Used output format : Internal WAV RoutinesSample format : 44.100 Hz; 16 Bit; Stereo

TOC of the extracted CD

Track | Start | Length | Start sector | End sector --------------------------------------------------------- 1 | 0:00.00 | 5:12.05 | 0 | 23404 2 | 5:12.05 | 4:40.40 | 23405 | 44444

Track 1

Filename E:\accel world vol.7\FullDisc\ACCEL_WORLD_7\extra audio cd\01 re acceleration image song feat.yashikin.wav

Timing problem 0:00:22

Peak level 99.8 % Extraction speed 13.2 X Copy CRC 04F62FF7 Copy finished

Track 2

Filename E:\accel world vol.7\FullDisc\ACCEL_WORLD_7\extra audio cd\02 Sleeping baby.wav

Peak level 100.0 % Extraction speed 21.8 X Copy CRC 8FD10A08 Copy OK

No errors occurred

End of status report

---- CUETools DB Plugin V2.1.3

[CTDB TOCID: ApvVpxUkGH5vWY8mtucOWLvpMYU-] disk not present in database, Submit result: insufficient quality
Дата выпуска: 27 февраля 2013 г.
Каталог: 1000302993-CD
Тип рипа: tracks
Продолжительность: 05.51
Наличие сканов в содержимом раздачи: нет
Треклист:
1) Fadeless memories
Exact Audio Copy V1.0 beta 3 from 29. August 2011

EAC extraction logfile from 1. March 2013, 16:16

Unknown Artist / Unknown Title

Used drive : HL-DT-STBDDVDRW CH08LS10 Adapter: 4 ID: 0

Read mode : Burst

Read offset correction : 0Overread into Lead-In and Lead-Out : NoFill up missing offset samples with silence : YesDelete leading and trailing silent blocks : NoNull samples used in CRC calculations : YesUsed interface : Native Win32 interface for Win NT & 2000Gap handling : Not detected, thus appended to previous track

Used output format : Internal WAV RoutinesSample format : 44.100 Hz; 16 Bit; Stereo

TOC of the extracted CD

Track | Start | Length | Start sector | End sector --------------------------------------------------------- 1 | 0:00.00 | 5:51.03 | 0 | 26327

Track 1

Filename E:\Accel world vol.8\extra audio cd\01 Fadeless memories.wav

Timing problem 0:00:22

Peak level 100.0 % Extraction speed 13.8 X Copy CRC B784EE4A Copy finished

No errors occurred

End of status report

---- CUETools DB Plugin V2.1.3

[CTDB TOCID: 32O8K3Xii6U6khbmY8fA_JuXrHM-] disk not present in database, Submit result: insufficient quality
Дата выпуска: 21 апреля 2012 г.
Каталог: 1000300208
Тип рипа: image+.cue
Продолжительность: 08.56
Наличие сканов в содержимом раздачи: да
Треклист:
1) Chase the world (TV size.);
2) →unfinished→ (TV size);
3) 黒雪姫&ハルユキ.
Exact Audio Copy V1.0 beta 3 from 29. August 2011

EAC extraction logfile from 15. May 2013, 17:49

アクセル・ワールド / SPECIAL SAMPLER DISC

Used drive : Optiarc DVD RW AD-7200S Adapter: 2 ID: 0

Read mode : SecureUtilize accurate stream : YesDefeat audio cache : NoMake use of C2 pointers : No

Read offset correction : 48Overread into Lead-In and Lead-Out : NoFill up missing offset samples with silence : YesDelete leading and trailing silent blocks : NoNull samples used in CRC calculations : YesUsed interface : Native Win32 interface for Win NT & 2000

Used output format : Monkey's Audio Lossless EncoderSelected bitrate : High Lossless CompressionQuality : HighAdd ID3 tag : YesCommand line compressor : C:\tool\Monkey's Audio\MAC.exe

TOC of the extracted CD

Track | Start | Length | Start sector | End sector --------------------------------------------------------- 1 | 0:00.00 | 1:37.55 | 0 | 7329 2 | 1:37.55 | 1:26.00 | 7330 | 13779 3 | 3:03.55 | 5:51.71 | 13780 | 40175

Range status and errors

Selected range

Filename D:\CD\アクセル・ワールド - SPECIAL SAMPLER DISC.wav

Peak level 100.0 % Extraction speed 5.8 X Range quality 100.0 % Copy CRC ECF254DB Copy OK

No errors occurred

End of status report


[AR] — данное обозначение свидетельствует о том, что рип сделан в соответствии с [url=...3583832]данными[/url] настройками и является максимально точным.
В: Когда тут появится "N-ый" альбом?
О: После его выхода (узнать дату выхода можно, например, на cdjapan), загрузки в интернеты и появления у меня свободного времени.

В: Почему скорость маленькая?
О: Моя исходящая скорость равна 1мбиту, ничего с этим поделать не могу.

В: А как называется трек из "N-ой" серии, играющий на "X" минуте?
О: Рекомендую скачать саундтрек и поискать самим — быстрее будет.

В: Почему треки не разделены?
О: Правилами запрещено менять форм-фактор. Да и раздачи образом мне больше нравятся, если честно.

В: Я нашёл ошибку в оформлении/раздаче.
О: Пожалуйста, напишите мне в личку об этом.

В: Как можно отслеживать релизы?
О: Используя фид на весь раздел остов в лосе (или только мои релизы).


Трекер:  [ 27-Ноя-2014 11:00 ]

  

Скачать .torrent

Размер .torrent файла 44 KB


Размер: 4.16 GB
Хэш (hash) релиза: 901e547fcfee427cfb2be614fbb70c7f1485238b

Торренты, похожие на Accel World скачать торрент

Форум Название Автор Размер S L Добавлен
Саундтреки к аниме (mp3) ·· (OST, Vocaloid) Ускоренный Мир / Accel World [TV+Movie] (OST Collection) - 2012-2016г., MP3 (tracks), 318-320 kbps [24 CD] Galfimbul 17922449071.67 GB 0 0 1489524382

23:46

14-Мар-17

Еще никто не оставлял запись к записи скачать торрент Accel World . Будь первым!

!Обратная связь