Chapter 174 | Фильмографии | VA - Hard Rock Attack - Collection [Vol.1-30 + Bonus] (2013-2018) MP3 320kbps

Скачать через торрент музыку Joe Hisaishi - Princess Mononoke Mononoke Hime бесплатно без регистрации torrent

Статистика раздачи
Размер:  299 MB   |    Зарегистрирован:  3 года 7 месяцев   |    .torrent скачан:  39 раз   |   
Раздают:  1  
   
загрузка...
 
Автор Сообщение

Galfimbul

avatar Galfimbul


Joe Hisaishi / Princess Mononoke
Жанр: Soundtrack
Композитор: Joe Hisaishi
Год выпуска: 1997 г.
Издатель (лейбл): Tokuma Japan Communications
Номер по каталогу: TCKA 71168
Страна: Japan

Аудио кодек: FLAC (*.flac)
Тип рипа: image+.cue
Режим рипа: test & copy
Битрейт аудио: lossless
Продолжительность: 01:03:10

Pелизер: sewerok
Наличие сканов в содержимом раздачи: нет

Треклист:
01. The Legend Of Ashitaka [0:01:39.47]
02. The Demon God [0:03:51.03]
03. The Journey To The West [0:02:32.72]
04. The Demon Power [0:00:36.00]
05. The Land Of The Impure [0:02:59.63]
06. The Encounter [0:00:52.00]
07. Kodamas [0:02:27.17]
08. The Forest Of The Gods [0:00:40.35]
09. Evening At The Ironworks [0:00:39.20]
10. The Demon God II - The Lost Mountains [0:00:56.43]
11. Lady Eboshi [0:02:48.22]
12. The Tatara Women Work Song [0:01:29.28]
13. The Furies [0:01:28.35]
14. The Young Man From The East [0:01:25.10]
15. Requiem [0:02:21.47]
16. Will To Live [0:00:31.45]
17. San And Ashitaka In The Forest Of The Deer God [0:01:39.23]
18. Princess Mononoke Theme Song (Mononoke-Hime) Instrumental Version [0:02:08.27]
19. Requiem II [0:02:14.38]
20. Princess Mononoke Theme Song (Mononoke-Hime) Performed By Yoshikazu Mera [0:03:32.07] Vocals: Yoshikazu Mera.
21. The Battle Drums [0:02:47.13]
22. The Battle In Front Of The Ironworks [0:01:25.72]
23. The Demon Power II [0:02:29.50]
24. Requiem III [0:00:55.18]
25. The Retreat [0:01:30.42]
26. The Demon God III [0:01:14.63]
27. Adagio Of Life And Death [0:02:08.32]
28. The World Of The Dead [0:01:27.38]
29. The World Of The Dead II [0:01:32.65]
30. Adagio Of Life And Death II [0:01:07.00]
31. Ashitaka And San [0:03:12.37]
32. Princess Mononoke Theme Song (Mononoke-Hime) Performed By Yoshikazu Mera [0:01:23.13] Vocals: Yoshikazu Mera.
33. The Legend Of Ashitaka Theme (End Credit) [0:05:01.37]
Exact Audio Copy V1.0 beta 3 from 29. August 2011

EAC extraction logfile from 2. May 2014, 17:52

Joe Hisaishi / Princess Mononoke

Used drive : TSSTcorpCD/DVDW TS-L632D Adapter: 0 ID: 0

Read mode : SecureUtilize accurate stream : YesDefeat audio cache : YesMake use of C2 pointers : No

Read offset correction : 6Overread into Lead-In and Lead-Out : NoFill up missing offset samples with silence : YesDelete leading and trailing silent blocks : NoNull samples used in CRC calculations : YesUsed interface : Native Win32 interface for Win NT & 2000

Used output format : User Defined EncoderSelected bitrate : 896 kBit/sQuality : HighAdd ID3 tag : NoCommand line compressor : C:\Program Files (x86)\Exact Audio Copy\FLAC\FLAC.EXEAdditional command line options : -8 -V -T "Date=%year%" -T "Genre=%genre%" -T "COMMENT=ripped by sewerok®" %source%

TOC of the extracted CD

Track | Start | Length | Start sector | End sector --------------------------------------------------------- 1 | 0:00.00 | 1:39.47 | 0 | 7471 2 | 1:39.47 | 3:51.03 | 7472 | 24799 3 | 5:30.50 | 2:32.72 | 24800 | 36271 4 | 8:03.47 | 0:36.00 | 36272 | 38971 5 | 8:39.47 | 2:59.63 | 38972 | 52459 6 | 11:39.35 | 0:52.00 | 52460 | 56359 7 | 12:31.35 | 2:27.17 | 56360 | 67401 8 | 14:58.52 | 0:40.35 | 67402 | 70436 9 | 15:39.12 | 0:39.20 | 70437 | 73381 10 | 16:18.32 | 0:56.43 | 73382 | 77624 11 | 17:15.00 | 2:48.22 | 77625 | 90246 12 | 20:03.22 | 1:29.28 | 90247 | 96949 13 | 21:32.50 | 1:28.35 | 96950 | 103584 14 | 23:01.10 | 1:25.10 | 103585 | 109969 15 | 24:26.20 | 2:21.47 | 109970 | 120591 16 | 26:47.67 | 0:31.45 | 120592 | 122961 17 | 27:19.37 | 1:39.23 | 122962 | 130409 18 | 28:58.60 | 2:08.27 | 130410 | 140036 19 | 31:07.12 | 2:14.38 | 140037 | 150124 20 | 33:21.50 | 3:32.07 | 150125 | 166031 21 | 36:53.57 | 2:47.13 | 166032 | 178569 22 | 39:40.70 | 1:25.72 | 178570 | 185016 23 | 41:06.67 | 2:29.50 | 185017 | 196241 24 | 43:36.42 | 0:55.18 | 196242 | 200384 25 | 44:31.60 | 1:30.42 | 200385 | 207176 26 | 46:02.27 | 1:14.63 | 207177 | 212789 27 | 47:17.15 | 2:08.32 | 212790 | 222421 28 | 49:25.47 | 1:27.38 | 222422 | 228984 29 | 50:53.10 | 1:32.65 | 228985 | 235949 30 | 52:26.00 | 1:07.00 | 235950 | 240974 31 | 53:33.00 | 3:12.37 | 240975 | 255411 32 | 56:45.37 | 1:23.13 | 255412 | 261649 33 | 58:08.50 | 5:01.37 | 261650 | 284261

Range status and errors

Selected range

Filename E:\Joe Hisaishi - Princess Mononoke (Soundtrack) [1997](TKCA-71168 Tokuma Japan Communications)\Joe Hisaishi - Princess Mononoke.wav

Peak level 99.4 % Extraction speed 2.0 X Range quality 100.0 % Test CRC F0A0055E Copy CRC F0A0055E Copy OK

No errors occurred

AccurateRip summary

Track 1 accurately ripped (confidence 29) [86364C6E] (AR v2)Track 2 accurately ripped (confidence 29) [C5AAB453] (AR v2)Track 3 accurately ripped (confidence 28) [6E6068BC] (AR v2)Track 4 accurately ripped (confidence 29) [43879F7B] (AR v2)Track 5 accurately ripped (confidence 28) [7B8D9AF4] (AR v2)Track 6 accurately ripped (confidence 27) [452D9770] (AR v2)Track 7 accurately ripped (confidence 28) [8AEE456D] (AR v2)Track 8 accurately ripped (confidence 28) [0BFBF40B] (AR v2)Track 9 accurately ripped (confidence 28) [42284414] (AR v2)Track 10 accurately ripped (confidence 28) [98871094] (AR v2)Track 11 accurately ripped (confidence 28) [CE2D4292] (AR v2)Track 12 accurately ripped (confidence 28) [0404263E] (AR v2)Track 13 accurately ripped (confidence 29) [9EFECDA1] (AR v2)Track 14 accurately ripped (confidence 28) [C8331865] (AR v2)Track 15 accurately ripped (confidence 28) [D16928C0] (AR v2)Track 16 accurately ripped (confidence 28) [7EE09439] (AR v2)Track 17 accurately ripped (confidence 28) [334E0DB5] (AR v2)Track 18 accurately ripped (confidence 28) [8FCFD2F5] (AR v2)Track 19 accurately ripped (confidence 27) [A20FCC6B] (AR v2)Track 20 accurately ripped (confidence 28) [44DB381B] (AR v2)Track 21 accurately ripped (confidence 28) [70590693] (AR v2)Track 22 accurately ripped (confidence 28) [E205A734] (AR v2)Track 23 accurately ripped (confidence 28) [C3ACE8DA] (AR v2)Track 24 accurately ripped (confidence 28) [A13E9369] (AR v2)Track 25 accurately ripped (confidence 28) [7D2E26CB] (AR v2)Track 26 accurately ripped (confidence 28) [5BB63285] (AR v2)Track 27 accurately ripped (confidence 28) [E130CA70] (AR v2)Track 28 accurately ripped (confidence 28) [6FB5B26E] (AR v2)Track 29 accurately ripped (confidence 28) [0ACFB263] (AR v2)Track 30 accurately ripped (confidence 28) [8EBE2286] (AR v2)Track 31 accurately ripped (confidence 28) [F6E29068] (AR v2)Track 32 accurately ripped (confidence 27) [8B2ADA5C] (AR v2)Track 33 accurately ripped (confidence 28) [E6744696] (AR v2)

All tracks accurately ripped

End of status report

---- CUETools DB Plugin V2.1.4

[CTDB TOCID: m_2V9TyrjwrTLshxY1yBPxzIdXU-] foundSubmit result: m_2V9TyrjwrTLshxY1yBPxzIdXU- has been confirmedTrack | CTDB Status 1 | (92/96) Accurately ripped, or (2/96) differs in 6167 samples @00:02:34,00:03:10,00:03:18,00:03:36,00:03:69,00:04:11-00:04:12,00:04:20-00:04:21,00:04:36-00:04:37,00:04:62-00:04:63,00:04:71,00:05:04-00:05:05,00:05:21-00:05:22,00:05:29-00:05:30,00:05:38-00:05:39,00:05:55-00:05:56,00:05:72-00:05:73,00:06:05-00:06:07,00:06:14-00:06:15,00:06:23-00:06:24,00:06:31-00:06:32,00:06:48-00:06:49,00:07:16-00:07:18,00:07:25,00:10:13,00:10:30,00:10:47,00:10:73,00:11:06,00:11:14-00:11:15,00:11:23-00:11:24,00:11:31-00:11:32,00:11:57-00:11:58,00:11:66-00:11:67,00:11:74-00:12:00,00:12:07-00:12:09,00:12:16-00:12:19,00:12:24-00:12:25,00:12:33-00:12:35,00:12:42,00:12:59-00:12:60,00:13:01-00:13:02,00:13:10,00:13:18-00:13:19,00:13:27,00:13:36-00:13:37,00:13:44,00:13:61-00:13:62,00:14:38-00:14:39,00:14:47,00:15:06,00:15:31-00:15:32,00:15:39-00:15:40,00:15:65-00:15:66,00:15:74-00:16:00,00:16:33-00:16:35,00:16:41-00:16:42,00:16:58-00:16:60,00:16:67-00:16:68,00:17:01,00:17:18-00:17:21,00:17:35-00:17:37,00:17:43-00:17:44,00:17:69-00:17:70,00:18:03-00:18:04,00:18:20-00:18:21,00:18:37-00:18:38,00:18:46-00:18:47,00:18:54-00:18:55,00:19:05-00:19:06,00:22:12-00:22:13,00:22:63-00:22:64,00:23:50,00:24:26,00:24:35,00:24:44,00:25:28-00:25:29,00:25:45-00:25:46,00:26:31,00:28:55-00:28:56,00:28:71-00:28:72,00:30:15-00:30:16,00:39:59,00:41:56,00:41:65,00:47:50-00:47:51,00:51:48,00:55:09-00:55:10,00:57:60-00:57:61,01:18:10,01:24:23,01:28:24-01:28:25,01:29:65,01:29:73-01:29:74,01:30:45-01:30:46,01:30:52,01:34:29,01:36:66-01:36:67,01:37:54,01:37:63,01:38:06-01:38:07,01:38:16-01:38:18 2 | (95/96) Accurately ripped 3 | (95/96) Accurately ripped 4 | (95/96) Accurately ripped 5 | (94/96) Accurately ripped 6 | (96/96) Accurately ripped 7 | (94/96) Accurately ripped 8 | (95/96) Accurately ripped 9 | (95/96) Accurately ripped 10 | (95/96) Accurately ripped 11 | (92/96) Accurately ripped 12 | (95/96) Accurately ripped 13 | (95/96) Accurately ripped 14 | (93/96) Accurately ripped 15 | (94/96) Accurately ripped 16 | (95/96) Accurately ripped 17 | (94/96) Accurately ripped 18 | (92/96) Accurately ripped 19 | (94/96) Accurately ripped 20 | (93/96) Accurately ripped 21 | (95/96) Accurately ripped 22 | (94/96) Accurately ripped 23 | (92/96) Accurately ripped 24 | (96/96) Accurately ripped 25 | (94/96) Accurately ripped 26 | (93/96) Accurately ripped 27 | (94/96) Accurately ripped 28 | (94/96) Accurately ripped 29 | (94/96) Accurately ripped 30 | (96/96) Accurately ripped 31 | (94/96) Accurately ripped 32 | (94/96) Accurately ripped 33 | (94/96) Accurately ripped

==== Log checksum E0B3AC4D6CF163CC08A50E93AD574E0953D591ACFA9DC75A8C1482C40C2AFC1B ====
[CUETools log; Date: 02.05.2014 17:55:10; Version: 2.1.4][CTDB TOCID: m_2V9TyrjwrTLshxY1yBPxzIdXU-] found.Track | CTDB Status 1 | (93/97) Accurately ripped, or (2/97) differs in 6167 samples @00:02:40-00:02:41,00:03:16-00:03:17,00:03:24-00:03:25,00:03:42-00:03:43,00:04:00-00:04:01,00:04:18-00:04:19,00:04:27,00:04:43,00:04:68-00:04:70,00:05:03,00:05:11-00:05:12,00:05:28-00:05:29,00:05:36-00:05:37,00:05:45,00:05:62-00:05:63,00:06:04-00:06:05,00:06:12-00:06:13,00:06:21,00:06:30,00:06:38,00:06:55-00:06:56,00:07:23-00:07:25,00:07:32,00:10:19-00:10:20,00:10:37,00:10:53,00:11:05,00:11:13,00:11:21-00:11:22,00:11:29-00:11:31,00:11:38-00:11:39,00:11:64,00:11:72-00:11:73,00:12:06-00:12:07,00:12:14-00:12:16,00:12:23-00:12:26,00:12:31-00:12:32,00:12:40-00:12:41,00:12:48-00:12:49,00:12:66,00:13:08,00:13:17,00:13:25,00:13:33-00:13:34,00:13:43,00:13:51,00:13:68,00:14:45,00:14:53-00:14:54,00:15:12-00:15:13,00:15:38-00:15:39,00:15:46-00:15:47,00:15:72,00:16:06,00:16:40-00:16:41,00:16:48,00:16:65-00:16:66,00:16:74,00:17:08,00:17:24-00:17:28,00:17:42-00:17:44,00:17:50-00:17:51,00:18:01-00:18:02,00:18:10,00:18:27-00:18:28,00:18:43-00:18:45,00:18:52-00:18:54,00:18:61-00:18:62,00:19:12,00:22:19,00:22:70-00:22:71,00:23:57,00:24:33,00:24:41-00:24:42,00:24:50-00:24:51,00:25:35,00:25:52,00:26:37,00:28:62,00:29:03,00:30:22,00:39:66,00:41:63,00:41:72,00:47:57,00:51:54,00:55:16,00:57:67,01:18:17,01:24:30,01:28:30-01:28:31,01:29:71,01:30:05,01:30:52,01:30:58-01:30:59,01:34:36,01:36:73,01:37:61,01:37:69-01:37:70,01:38:12-01:38:13,01:38:23-01:38:24 2 | (96/97) Accurately ripped 3 | (96/97) Accurately ripped 4 | (96/97) Accurately ripped 5 | (95/97) Accurately ripped 6 | (97/97) Accurately ripped 7 | (95/97) Accurately ripped 8 | (96/97) Accurately ripped 9 | (96/97) Accurately ripped 10 | (96/97) Accurately ripped 11 | (93/97) Accurately ripped 12 | (96/97) Accurately ripped 13 | (96/97) Accurately ripped 14 | (94/97) Accurately ripped 15 | (95/97) Accurately ripped 16 | (96/97) Accurately ripped 17 | (95/97) Accurately ripped 18 | (93/97) Accurately ripped 19 | (95/97) Accurately ripped 20 | (94/97) Accurately ripped 21 | (96/97) Accurately ripped 22 | (95/97) Accurately ripped 23 | (93/97) Accurately ripped 24 | (97/97) Accurately ripped 25 | (95/97) Accurately ripped 26 | (94/97) Accurately ripped 27 | (95/97) Accurately ripped 28 | (95/97) Accurately ripped 29 | (95/97) Accurately ripped 30 | (97/97) Accurately ripped 31 | (95/97) Accurately ripped 32 | (95/97) Accurately ripped 33 | (95/97) Accurately ripped[AccurateRip ID: 0046e429-066ca930-c60ece21] found.Track [ CRC | V2 ] Status 01 [6e724356|86364c6e] (019+029/119) Accurately ripped 02 [6827e3cc|c5aab453] (019+029/117) Accurately ripped 03 [5b307963|6e6068bc] (019+028/117) Accurately ripped 04 [b9e29706|43879f7b] (019+029/119) Accurately ripped 05 [3ec19adf|7b8d9af4] (019+028/116) Accurately ripped 06 [fda5c2ca|452d9770] (019+027/116) Accurately ripped 07 [74bd2fa3|8aee456d] (019+028/116) Accurately ripped 08 [f4809805|0bfbf40b] (019+028/118) Accurately ripped 09 [cef25721|42284414] (019+028/118) Accurately ripped 10 [ec2de055|98871094] (019+028/117) Accurately ripped 11 [cfb02349|ce2d4292] (019+028/118) Accurately ripped 12 [2452ffe3|0404263e] (019+028/117) Accurately ripped 13 [8bbcab29|9efecda1] (019+029/118) Accurately ripped 14 [e5d3a0c8|c8331865] (019+028/116) Accurately ripped 15 [e2aac863|d16928c0] (019+028/117) Accurately ripped 16 [ee0e9738|7ee09439] (019+028/115) Accurately ripped 17 [c5675d77|334e0db5] (019+028/115) Accurately ripped 18 [ea3a9045|8fcfd2f5] (020+028/116) Accurately ripped 19 [ddf1184e|a20fcc6b] (019+027/114) Accurately ripped 20 [fee92c67|44db381b] (019+028/115) Accurately ripped 21 [80fce106|70590693] (019+028/117) Accurately ripped 22 [e4a8bd5f|e205a734] (018+028/115) Accurately ripped 23 [bc44993d|c3ace8da] (018+028/115) Accurately ripped 24 [205d290f|a13e9369] (018+028/115) Accurately ripped 25 [9dbb4a6b|7d2e26cb] (019+028/116) Accurately ripped 26 [177435d8|5bb63285] (019+028/115) Accurately ripped 27 [f07ec7e8|e130ca70] (019+028/117) Accurately ripped 28 [89966287|6fb5b26e] (019+028/115) Accurately ripped 29 [9f3a9429|0acfb263] (019+028/115) Accurately ripped 30 [1be974f3|8ebe2286] (019+028/115) Accurately ripped 31 [85a10a7e|f6e29068] (019+028/115) Accurately ripped 32 [ee9c3c49|8b2ada5c] (019+027/114) Accurately ripped 33 [fdc4a425|e6744696] (019+028/113) Accurately rippedOffsetted by -2664: 01 [0b4170f2] (014/119) Accurately ripped 02 [777f6c60] (014/117) Accurately ripped 03 [cc590e80] (014/117) Accurately ripped 04 [de971d19] (014/119) Accurately ripped 05 [03aafcdf] (014/116) Accurately ripped 06 [bf247482] (014/116) Accurately ripped 07 [0b6245a5] (014/116) Accurately ripped 08 [835eb21b] (014/118) Accurately ripped 09 [b9865464] (014/118) Accurately ripped 10 [9b3169ad] (014/117) Accurately ripped 11 [95b8f7c6] (014/118) Accurately ripped 12 [8e496c7b] (014/117) Accurately ripped 13 [e1e39bc0] (014/118) Accurately ripped 14 [18ef28f1] (014/116) Accurately ripped 15 [80123f6e] (014/117) Accurately ripped 16 [52585079] (014/115) Accurately ripped 17 [704df7a6] (014/115) Accurately ripped 18 [319f7c53] (014/116) Accurately ripped 19 [2a56bac1] (014/114) Accurately ripped 20 [49eb8507] (014/115) Accurately ripped 21 [bd1c54ce] (014/117) Accurately ripped 22 [c8a34a48] (014/115) Accurately ripped 23 [89d6a0a4] (014/115) Accurately ripped 24 [e96451f3] (014/115) Accurately ripped 25 [6fbf30fe] (014/116) Accurately ripped 26 [da3b4b95] (014/115) Accurately ripped 27 [bee7cb4a] (014/117) Accurately ripped 28 [5be18b39] (014/115) Accurately ripped 29 [f7eb6d5a] (014/115) Accurately ripped 30 [410155a6] (014/115) Accurately ripped 31 [8eb6c4ae] (014/115) Accurately ripped 32 [c0ec75e4] (014/114) Accurately ripped 33 [83f83652] (014/113) Accurately rippedOffsetted by -2000: 01 [0143ec39] (004/119) Accurately ripped 02 [4b1fdb49] (004/117) Accurately ripped 03 [e1cc773b] (004/117) Accurately ripped 04 [36e2830e] (004/119) Accurately ripped 05 [c090bc59] (004/116) Accurately ripped 06 [a5e495c0] (004/116) Accurately ripped 07 [61a91f19] (004/116) Accurately ripped 08 [1e560f87] (004/118) Accurately ripped 09 [8a7f5b9e] (004/118) Accurately ripped 10 [fd0ade7b] (004/117) Accurately ripped 11 [f0166928] (004/118) Accurately ripped 12 [52315e59] (004/117) Accurately ripped 13 [dac6187f] (004/118) Accurately ripped 14 [97fc9cf9] (004/116) Accurately ripped 15 [a0d24776] (004/117) Accurately ripped 16 [e2f7cb36] (004/115) Accurately ripped 17 [8495d12d] (004/115) Accurately ripped 18 [c3aeb873] (004/116) Accurately ripped 19 [24e6e736] (004/114) Accurately ripped 20 [3d5fc9a7] (004/115) Accurately ripped 21 [a4218f96] (004/117) Accurately ripped 22 [68f366d0] (004/115) Accurately ripped 23 [5888f7c2] (004/115) Accurately ripped 24 [82b52155] (004/115) Accurately ripped 25 [6393197c] (004/116) Accurately ripped 26 [ffad0d27] (004/115) Accurately ripped 27 [25101071] (004/117) Accurately ripped 28 [17bbff81] (004/115) Accurately ripped 29 [3f736e4a] (004/115) Accurately ripped 30 [7d7b7a5b] (004/115) Accurately ripped 31 [52cab8de] (004/115) Accurately ripped 32 [2fc1a9c5] (004/114) Accurately ripped 33 [09834851] (004/113) Accurately rippedOffsetted by -1336: 01 [eeddf488] (002/119) Accurately ripped 02 [6d7049ea] (003/117) Accurately ripped 03 [3aca69ca] (003/117) Accurately ripped 04 [21670caf] (003/119) Accurately ripped 05 [12fb097e] (003/116) Accurately ripped 06 [2e698f13] (003/116) Accurately ripped 07 [f9819e3e] (003/116) Accurately ripped 08 [c3ee3c52] (003/118) Accurately ripped 09 [29f76439] (003/118) Accurately ripped 10 [5b42a8fc] (003/117) Accurately ripped 11 [382e51bb] (003/118) Accurately ripped 12 [2731dd76] (003/117) Accurately ripped 13 [15fc2abe] (003/118) Accurately ripped 14 [0ff0bd2f] (003/116) Accurately ripped 15 [29ff83a9] (003/117) Accurately ripped 16 [bb6071e6] (003/115) Accurately ripped 17 [3dc8f6ae] (003/115) Accurately ripped 18 [7851c433] (003/116) Accurately ripped 19 [d37f1371] (003/114) Accurately ripped 20 [30d40e47] (003/115) Accurately ripped 21 [8b26ca5e] (003/117) Accurately ripped 22 [f81f4788] (002/115) Accurately ripped 23 [1b550175] (002/115) Accurately ripped 24 [5bd89fde] (002/115) Accurately ripped 25 [85d5538e] (002/116) Accurately ripped 26 [e47a5425] (003/115) Accurately ripped 27 [48f2314b] (003/117) Accurately ripped 28 [12339f96] (003/115) Accurately ripped 29 [7ef3d7e7] (003/115) Accurately ripped 30 [551f4eef] (003/115) Accurately ripped 31 [16dead0e] (003/115) Accurately ripped 32 [ee9c6b2b] (003/114) Accurately ripped 33 [8ea33a0b] (003/113) Accurately rippedOffsetted by -669: 01 [cb29374f] (009/119) Accurately ripped 02 [2c3981e9] (009/117) Accurately ripped 03 [0db0f666] (009/117) Accurately ripped 04 [4630b561] (009/119) Accurately ripped 05 [ae3a3bde] (009/116) Accurately ripped 06 [e4e3a2da] (009/116) Accurately ripped 07 [dc43c836] (009/116) Accurately ripped 08 [71f5dbc0] (009/118) Accurately ripped 09 [0223aece] (009/118) Accurately ripped 10 [78f7aa5f] (009/117) Accurately ripped 11 [36f9e973] (009/118) Accurately ripped 12 [e2bac15b] (009/117) Accurately ripped 13 [8a9241ce] (009/118) Accurately ripped 14 [ae8898ab] (009/116) Accurately ripped 15 [1e978cb9] (009/117) Accurately ripped 16 [6851b363] (009/115) Accurately ripped 17 [f76ac900] (009/115) Accurately ripped 18 [89b5caca] (009/116) Accurately ripped 19 [9cc52084] (009/114) Accurately ripped 20 [5af90abb] (009/115) Accurately ripped 21 [4118618f] (009/117) Accurately ripped 22 [396cbc09] (009/115) Accurately ripped 23 [391eac5b] (009/115) Accurately ripped 24 [55b93cba] (009/115) Accurately ripped 25 [bfc59bff] (009/116) Accurately ripped 26 [7f944b9a] (009/115) Accurately ripped 27 [0432efab] (009/117) Accurately ripped 28 [00cd6466] (009/115) Accurately ripped 29 [62f792cd] (009/115) Accurately ripped 30 [b6b80ef9] (009/115) Accurately ripped 31 [d16c8d24] (009/115) Accurately ripped 32 [33f761ad] (009/114) Accurately ripped 33 [ccab4860] (009/113) Accurately rippedOffsetted by -2030: 01 [cc914d38] (002/119) Accurately ripped 02 [14e30d6e] (002/117) Accurately ripped 03 [71dbca5f] (002/117) Accurately ripped 04 [bdc75abe] (002/119) Accurately ripped 05 [ce279e4f] (002/116) Accurately ripped 06 [c57a9ef4] (002/116) Accurately ripped 07 [260a9c37] (002/116) Accurately ripped 08 [4425103d] (002/118) Accurately ripped 09 [74e4e475] (002/118) Accurately ripped 10 [934636c0] (002/117) Accurately ripped 11 [1df63cf2] (002/118) Accurately ripped 12 [b25f7351] (002/117) Accurately ripped 13 [0c862552] (002/118) Accurately ripped 14 [4fb7b866] (002/116) Accurately ripped 15 [1920f384] (002/117) Accurately ripped 16 [aa738f52] (002/115) Accurately ripped 17 [468b476f] (002/115) Accurately ripped 18 [9044c5cd] (002/116) Accurately ripped 19 [433a7d12] (002/114) Accurately ripped 20 [1a789b5f] (002/115) Accurately ripped 21 [8ee5f37c] (002/117) Accurately ripped 22 [73b231d1] (002/115) Accurately ripped 23 [eb1fc296] (002/115) Accurately ripped 24 [e7e13f32] (002/115) Accurately ripped 25 [9780b29e] (002/116) Accurately ripped 26 [f304e809] (002/115) Accurately ripped 27 [846ba9c4] (002/117) Accurately ripped 28 [95ff8783] (002/115) Accurately ripped 29 [14fb75d7] (002/115) Accurately ripped 30 [7676df21] (002/115) Accurately ripped 31 [b20781e2] (002/115) Accurately ripped 32 [b8be4538] (002/114) Accurately ripped 33 [7d514138] (000/113) No match (V2 was not tested)Offsetted by -1945: 01 [479811e7] (000/119) No match (V2 was not tested) 02 [32f3a199] (000/117) No match (V2 was not tested) 03 [25009893] (000/117) No match (V2 was not tested) 04 [7c8d7adc] (002/119) Accurately ripped 05 [9b6f3195] (000/116) No match (V2 was not tested) 06 [f88d1877] (002/116) Accurately ripped 07 [42d9b36d] (000/116) No match (V2 was not tested) 08 [9329e271] (002/118) Accurately ripped 09 [6b371e5a] (002/118) Accurately ripped 10 [00f275ad] (002/117) Accurately ripped 11 [41611ca7] (002/118) Accurately ripped 12 [9066f631] (002/117) Accurately ripped 13 [b728006c] (002/118) Accurately ripped 14 [3c07376d] (000/116) No match (V2 was not tested) 15 [02577bde] (002/117) Accurately ripped 16 [cf3ba292] (000/115) No match (V2 was not tested) 17 [52116677] (000/115) No match (V2 was not tested) 18 [dd158110] (000/116) No match (V2 was not tested) 19 [fd83a2eb] (000/114) No match (V2 was not tested) 20 [d2b2492b] (000/115) No match (V2 was not tested) 21 [75b9831b] (002/117) Accurately ripped 22 [12601b12] (002/115) Accurately ripped 23 [a95f7043] (002/115) Accurately ripped 24 [ccb5f871] (002/115) Accurately ripped 25 [65a22985] (002/116) Accurately ripped 26 [da2011dc] (000/115) No match (V2 was not tested) 27 [7d415ebf] (002/117) Accurately ripped 28 [1b3b3174] (000/115) No match (V2 was not tested) 29 [b8198e75] (000/115) No match (V2 was not tested) 30 [332e19fb] (000/115) No match (V2 was not tested) 31 [a4309dac] (000/115) No match (V2 was not tested) 32 [6c146f59] (000/114) No match (V2 was not tested) 33 [b880eb18] (000/113) No match (V2 was not tested)Offsetted by -71: 01 [f63c0236] (000/119) No match (V2 was not tested) 02 [3305ed4e] (000/117) No match (V2 was not tested) 03 [000235c7] (000/117) No match (V2 was not tested) 04 [699a695c] (000/119) No match (V2 was not tested) 05 [426cb8e8] (000/116) No match (V2 was not tested) 06 [28b8d67e] (000/116) No match (V2 was not tested) 07 [6b18ff60] (000/116) No match (V2 was not tested) 08 [7b42f0c2] (000/118) No match (V2 was not tested) 09 [ac2d8e86] (000/118) No match (V2 was not tested) 10 [2c391459] (000/117) No match (V2 was not tested) 11 [6df8ebf5] (000/118) No match (V2 was not tested) 12 [7ee744f5] (000/117) No match (V2 was not tested) 13 [bfc158ab] (000/118) No match (V2 was not tested) 14 [a64390bd] (000/116) No match (V2 was not tested) 15 [00cafc6d] (000/117) No match (V2 was not tested) 16 [3c3049f2] (000/115) No match (V2 was not tested) 17 [8a1f989f] (000/115) No match (V2 was not tested) 18 [0c889a4e] (000/116) No match (V2 was not tested) 19 [072a78a5] (000/114) No match (V2 was not tested) 20 [9b3d8323] (000/115) No match (V2 was not tested) 21 [5fcdab51] (000/117) No match (V2 was not tested) 22 [a3193ba0] (000/115) No match (V2 was not tested) 23 [c1a11779] (000/115) No match (V2 was not tested) 24 [d7c80bd3] (000/115) No match (V2 was not tested) 25 [52f367ab] (000/116) No match (V2 was not tested) 26 [124b98fa] (000/115) No match (V2 was not tested) 27 [10d030c9] (000/117) No match (V2 was not tested) 28 [bc0fafa5] (000/115) No match (V2 was not tested) 29 [050880c4] (000/115) No match (V2 was not tested) 30 [899c3181] (000/115) No match (V2 was not tested) 31 [67063b90] (000/115) No match (V2 was not tested) 32 [93c08f4f] (000/114) No match (V2 was not tested) 33 [8d8af19c] (000/113) No match (V2 was not tested)

Track Peak [ CRC32 ] [W/O NULL] [ LOG ] -- 99,4 [F0A0055E] [17070056] CRC32 01 99,2 [0DD787A2] [B3D70F69] 02 99,2 [1E3FE4B5] [180EDE6D] 03 99,2 [CEFFEAE7] [CB09AB89] 04 99,2 [33B4F87C] [109CBF72] 05 99,2 [F410E637] [B5FC255A] 06 73,0 [816338AC] [D39F6792] 07 92,8 [6FDF2D8F] [1D428D16] 08 25,7 [B8F6A56B] [7FD36409] 09 80,5 [493FB201] [00F2A953] 10 99,2 [0B4C250C] [CC91A7EC] 11 99,2 [D8436FF7] [557B949D] 12 99,2 [C27C97DF] [4D0DD450] 13 99,2 [083C61E9] [626F5AA3] 14 99,2 [7B5C0D01] [D849F315] 15 99,2 [8A63950A] [367EE1C9] 16 99,2 [8CB25734] [F0CD7E0B] 17 97,0 [91FED25A] [90979B4D] 18 96,9 [FDCBA692] [D068CDE7] 19 99,2 [A26613C4] [6EA0950B] 20 73,2 [B9F1C82F] [8E7AAAE6] 21 99,4 [B58D3130] [B45CED80] 22 99,2 [3AC32BDC] [55BBF0B1] 23 99,2 [297007C9] [9B5DA854] 24 99,2 [47FDF07F] [19C66F7A] 25 99,2 [3413DE0A] [96B6B6A8] 26 99,2 [5A559980] [59ECA8E2] 27 99,2 [7E25C795] [8FDAA56A] 28 99,2 [432D6597] [04A9034E] 29 99,2 [BDB9A997] [ED3B118A] 30 99,2 [21DAAF3B] [5E1B5132] 31 99,2 [C17D3A0E] [8072E2DE] 32 55,1 [5DCB28A9] [364D3A05] 33 99,2 [E74A26E7] [3A4D33A1]
[url]...2430530[/url] - правильный рип


Трекер:  [ 27-Ноя-2014 11:00 ]

  

Скачать .torrent

Размер .torrent файла 12 KB


Размер: 299 MB
Хэш (hash) релиза: 5c9ff918f5062cd3976dc211703f78ac93ff912b

Еще никто не оставлял запись к записи скачать торрент Joe Hisaishi - Princess Mononoke Mononoke Hime . Будь первым!

!Обратная связь