THE CANTERBURY TALES 1080p
Из Лос-Анджелеса в Вегас

Скачать через торрент музыку бесплатно без регистрации torrent

Статистика раздачи
Размер:  250 MB   |    Зарегистрирован:  3 года 4 месяца   |    .torrent скачан:  47 раз   |   
Раздают:  1  
   
загрузка...
 
Автор Сообщение

Galfimbul

avatar Galfimbul


All That Jazz - Ghibli Jazz

Жанр: OST, Jazz, Covers
Носитель: CD
Страна-производитель диска: Япония
Год издания: 2009
Издатель (лейбл): Srevoc
Номер по каталогу: SRVC-1015
Аудио кодек: FLAC (*.flac)
Тип рипа: tracks+.cue
Битрейт аудио: lossless
Продолжительность: 37:36
Источник (релизер): JJKWCD (what)
Наличие сканов в содержимом раздачи: нет

Треклист:
01. Kimi wo Nosete (Laputa) (3:00)
02. Umi no Mieru Machi (Kiki) (3:44)
03. Yasashisa ni Tsutsumareta Nara (Kiki) (2:42)
04. Kaze no Toorimichi (Totoro) (3:36)
05. Tonari no Totoro (Totoro) (3:30)
06. Jinsei no Merry-Go-Round (Howl) (3:20)
07. Country Road (Mimi wo Sumaseba) (3:47)
08. Mononoke Hime (Mononoke) (2:20)
09. Kaze no Tani no Nausicaa (Nausicaa) (3:08)
10. Nausicaa Requiem (Nausicaa) (1:52)
11. Toki ni ha Mukashi no Hanashi Wo (Porco) (3:45)
12. Gake no Ue no Ponyo (Ponyo) (2:52)
Exact Audio Copy V1.0 beta 3 from 29. August 2011

EAC extraction logfile from 30. May 2014, 20:55

All That Jazz / Ghibli Jazz

Used drive : HL-DT-STDVDRAM GH24NS50 Adapter: 2 ID: 1

Read mode : SecureUtilize accurate stream : YesDefeat audio cache : YesMake use of C2 pointers : No

Read offset correction : 667Overread into Lead-In and Lead-Out : NoFill up missing offset samples with silence : YesDelete leading and trailing silent blocks : NoNull samples used in CRC calculations : YesUsed interface : Native Win32 interface for Win NT & 2000Gap handling : Appended to previous track

Used output format : User Defined EncoderSelected bitrate : 1024 kBit/sQuality : HighAdd ID3 tag : NoCommand line compressor : D:\Program Files\FLAC\flac.exeAdditional command line options : -8 -V -T "ARTIST=%artist%" -T "TITLE=%title%" -T "ALBUM=%albumtitle%" -T "DATE=%year%" -T "TRACKNUMBER=%tracknr%" -T "TOTALTRACKS=%numtracks%" -T "GENRE=%genre%" -T "ALBUMARTIST=%albumartist%" -T "ALBUM ARTIST=%albumartist%" -T "COMMENT=EAC Secure Mode, Test & Copy, AccurateRip, FLAC -8" %source%

TOC of the extracted CD

Track | Start | Length | Start sector | End sector --------------------------------------------------------- 1 | 0:00.00 | 2:59.67 | 0 | 13491 2 | 2:59.67 | 3:44.01 | 13492 | 30292 3 | 6:43.68 | 2:42.31 | 30293 | 42473 4 | 9:26.24 | 3:35.47 | 42474 | 58645 5 | 13:01.71 | 3:29.58 | 58646 | 74378 6 | 16:31.54 | 3:19.39 | 74379 | 89342 7 | 19:51.18 | 3:46.65 | 89343 | 106357 8 | 23:38.08 | 2:19.57 | 106358 | 116839 9 | 25:57.65 | 3:08.21 | 116840 | 130960 10 | 29:06.11 | 1:51.70 | 130961 | 139355 11 | 30:58.06 | 3:45.37 | 139356 | 156267 12 | 34:43.43 | 2:51.59 | 156268 | 169151

Track 1

Filename D:\All That Jazz - (2009) Ghibli Jazz (Srevoc SRVC-1015) [FLAC]\01 - 君をのせて [天空の城ラピュタ].wav

Pre-gap length 0:00:02.00

Peak level 98.8 % Extraction speed 0.8 X Track quality 99.9 % Test CRC 53B6B06D Copy CRC 53B6B06D Accurately ripped (confidence 11) [A0E3030C] (AR v2) Copy OK

Track 2

Filename D:\All That Jazz - (2009) Ghibli Jazz (Srevoc SRVC-1015) [FLAC]\02 - 海の見える街 [魔女の宅急便].wav

Pre-gap length 0:00:01.31

Peak level 98.8 % Extraction speed 1.1 X Track quality 100.0 % Test CRC 938DB8FC Copy CRC 938DB8FC Accurately ripped (confidence 11) [A260D947] (AR v2) Copy OK

Track 3

Filename D:\All That Jazz - (2009) Ghibli Jazz (Srevoc SRVC-1015) [FLAC]\03 - やさしさに包まれたなら [魔女の宅急便].wav

Pre-gap length 0:00:01.62

Peak level 96.4 % Extraction speed 1.1 X Track quality 100.0 % Test CRC 25E30061 Copy CRC 25E30061 Accurately ripped (confidence 11) [34166A73] (AR v2) Copy OK

Track 4

Filename D:\All That Jazz - (2009) Ghibli Jazz (Srevoc SRVC-1015) [FLAC]\04 - 風の通り道 [となりのトトロ].wav

Pre-gap length 0:00:01.39

Peak level 98.8 % Extraction speed 1.2 X Track quality 100.0 % Test CRC B5CD5135 Copy CRC B5CD5135 Accurately ripped (confidence 11) [A3122853] (AR v2) Copy OK

Track 5

Filename D:\All That Jazz - (2009) Ghibli Jazz (Srevoc SRVC-1015) [FLAC]\05 - となりのトトロ [となりのトトロ].wav

Pre-gap length 0:00:01.13

Peak level 93.3 % Extraction speed 1.3 X Track quality 100.0 % Test CRC DD93F021 Copy CRC DD93F021 Accurately ripped (confidence 11) [CD7733DB] (AR v2) Copy OK

Track 6

Filename D:\All That Jazz - (2009) Ghibli Jazz (Srevoc SRVC-1015) [FLAC]\06 - 人生のメリーゴーランド [ハウルの動く城].wav

Pre-gap length 0:00:01.10

Peak level 98.8 % Extraction speed 1.2 X Track quality 99.9 % Test CRC 1EB5CA94 Copy CRC 1EB5CA94 Accurately ripped (confidence 11) [0ACF0A70] (AR v2) Copy OK

Track 7

Filename D:\All That Jazz - (2009) Ghibli Jazz (Srevoc SRVC-1015) [FLAC]\07 - カントリーロード [耳をすませば].wav

Pre-gap length 0:00:01.39

Peak level 95.3 % Extraction speed 1.5 X Track quality 100.0 % Test CRC 5CE306BE Copy CRC 5CE306BE Accurately ripped (confidence 11) [08B71F12] (AR v2) Copy OK

Track 8

Filename D:\All That Jazz - (2009) Ghibli Jazz (Srevoc SRVC-1015) [FLAC]\08 - もののけ姫 [もののけ姫].wav

Pre-gap length 0:00:00.45

Peak level 98.8 % Extraction speed 1.1 X Track quality 99.9 % Test CRC 513798C2 Copy CRC 513798C2 Accurately ripped (confidence 11) [A47063F2] (AR v2) Copy OK

Track 9

Filename D:\All That Jazz - (2009) Ghibli Jazz (Srevoc SRVC-1015) [FLAC]\09 - 風の谷のナウシカ [風の谷のナウシカ].wav

Pre-gap length 0:00:00.24

Peak level 98.8 % Extraction speed 1.6 X Track quality 100.0 % Test CRC D61E3425 Copy CRC D61E3425 Accurately ripped (confidence 11) [D16FD220] (AR v2) Copy OK

Track 10

Filename D:\All That Jazz - (2009) Ghibli Jazz (Srevoc SRVC-1015) [FLAC]\10 - ナウシカ・レクイエム [風の谷のナウシカ].wav

Peak level 98.8 % Extraction speed 1.4 X Track quality 100.0 % Test CRC 6E638688 Copy CRC 6E638688 Accurately ripped (confidence 11) [B80C550A] (AR v2) Copy OK

Track 11

Filename D:\All That Jazz - (2009) Ghibli Jazz (Srevoc SRVC-1015) [FLAC]\11 - 時には昔の話を [紅の豚].wav

Pre-gap length 0:00:00.55

Peak level 98.8 % Extraction speed 1.7 X Track quality 100.0 % Test CRC 3AAA9EA9 Copy CRC 3AAA9EA9 Accurately ripped (confidence 11) [DDB60C97] (AR v2) Copy OK

Track 12

Filename D:\All That Jazz - (2009) Ghibli Jazz (Srevoc SRVC-1015) [FLAC]\12 - 崖の上のポニョ [崖の上のポニョ].wav

Pre-gap length 0:00:02.31

Peak level 98.8 % Extraction speed 1.7 X Track quality 100.0 % Test CRC 3267BE42 Copy CRC 3267BE42 Accurately ripped (confidence 11) [58D2565E] (AR v2) Copy OK

All tracks accurately ripped

No errors occurred

End of status report

---- CUETools DB Plugin V2.1.3

[CTDB TOCID: wGbtunJZVkDbp0I0OZFk12Lg5OA-] found, Submit result: already submitted[dd984b2a] (19/19) Accurately ripped

==== Log checksum 6BEBF949D346120DA34DB9AFAF930F9DB79735CE8575FA40AFFA7BDC54E79D7C ====
REM GENRE JazzREM DATE 2009REM DISCID AA08CF0CREM COMMENT "ExactAudioCopy v1.0b3"PERFORMER "All That Jazz"TITLE "Ghibli Jazz"FILE "01 - Kimi wo Nosete (Laputa).wav" WAVE TRACK 01 AUDIO TITLE "Kimi wo Nosete (Laputa)" PERFORMER "All That Jazz" INDEX 01 00:00:00 TRACK 02 AUDIO TITLE "Umi no Mieru Machi (Kiki)" PERFORMER "All That Jazz" INDEX 00 02:58:36FILE "02 - Umi no Mieru Machi (Kiki).wav" WAVE INDEX 01 00:00:00 TRACK 03 AUDIO TITLE "Yasashisa ni Tsutsumareta Nara (Kiki)" PERFORMER "All That Jazz" INDEX 00 03:42:14FILE "03 - Yasashisa ni Tsutsumareta Nara (Kiki).wav" WAVE INDEX 01 00:00:00 TRACK 04 AUDIO TITLE "Kaze no Toorimichi (Totoro)" PERFORMER "All That Jazz" INDEX 00 02:40:67FILE "04 - Kaze no Toorimichi (Totoro).wav" WAVE INDEX 01 00:00:00 TRACK 05 AUDIO TITLE "Tonari no Totoro (Totoro)" PERFORMER "All That Jazz" INDEX 00 03:34:34FILE "05 - Tonari no Totoro (Totoro).wav" WAVE INDEX 01 00:00:00 TRACK 06 AUDIO TITLE "Jinsei no Merry-Go-Round (Howl)" PERFORMER "All That Jazz" INDEX 00 03:28:48FILE "06 - Jinsei no Merry-Go-Round (Howl).wav" WAVE INDEX 01 00:00:00 TRACK 07 AUDIO TITLE "Country Road (Mimi wo Sumaseba)" PERFORMER "All That Jazz" INDEX 00 03:18:00FILE "07 - Country Road (Mimi wo Sumaseba).wav" WAVE INDEX 01 00:00:00 TRACK 08 AUDIO TITLE "Mononoke Hime (Mononoke)" PERFORMER "All That Jazz" INDEX 00 03:46:20FILE "08 - Mononoke Hime (Mononoke).wav" WAVE INDEX 01 00:00:00 TRACK 09 AUDIO TITLE "Kaze no Tani no Nausicaa (Nausicaa)" PERFORMER "All That Jazz" INDEX 00 02:19:33FILE "09 - Kaze no Tani no Nausicaa (Nausicaa).wav" WAVE INDEX 01 00:00:00FILE "10 - Nausicaa Requiem (Nausicaa).wav" WAVE TRACK 10 AUDIO TITLE "Nausicaa Requiem (Nausicaa)" PERFORMER "All That Jazz" INDEX 01 00:00:00 TRACK 11 AUDIO TITLE "Toki ni ha Mukashi no Hanashi Wo (Porco)" PERFORMER "All That Jazz" INDEX 00 01:51:15FILE "11 - Toki ni ha Mukashi no Hanashi Wo (Porco).wav" WAVE INDEX 01 00:00:00 TRACK 12 AUDIO TITLE "Gake no Ue no Ponyo (Ponyo)" PERFORMER "All That Jazz" INDEX 00 03:43:06FILE "12 - Gake no Ue no Ponyo (Ponyo).wav" WAVE INDEX 01 00:00:00
[CUETools log; Date: 31.05.2014 23:23:48; Version: 2.1.4][CTDB TOCID: wGbtunJZVkDbp0I0OZFk12Lg5OA-] found.Track | CTDB Status 1 | (19/19) Accurately ripped 2 | (19/19) Accurately ripped 3 | (19/19) Accurately ripped 4 | (19/19) Accurately ripped 5 | (19/19) Accurately ripped 6 | (19/19) Accurately ripped 7 | (19/19) Accurately ripped 8 | (19/19) Accurately ripped 9 | (19/19) Accurately ripped 10 | (19/19) Accurately ripped 11 | (19/19) Accurately ripped 12 | (19/19) Accurately ripped[AccurateRip ID: 0011348a-009fc97f-aa08cf0c] found.Track [ CRC | V2 ] Status 01 [557cf6a9|a0e3030c] (09+11/20) Accurately ripped 02 [e9575f43|a260d947] (09+11/20) Accurately ripped 03 [dc12b25b|34166a73] (09+11/20) Accurately ripped 04 [9a028f6d|a3122853] (09+11/20) Accurately ripped 05 [1653f1d9|cd7733db] (09+11/20) Accurately ripped 06 [77b56b63|0acf0a70] (09+11/20) Accurately ripped 07 [5b574eed|08b71f12] (09+11/20) Accurately ripped 08 [21edc0b3|a47063f2] (09+11/20) Accurately ripped 09 [a67d5a8e|d16fd220] (09+11/20) Accurately ripped 10 [8bc68781|b80c550a] (09+11/20) Accurately ripped 11 [3976e291|ddb60c97] (09+11/20) Accurately ripped 12 [82ab933b|58d2565e] (09+11/20) Accurately ripped

Track Peak [ CRC32 ] [W/O NULL] [ LOG ] -- 98,8 [251A668C] [51AF0C84] 01 98,8 [53B6B06D] [BFE962A9] CRC32 02 98,8 [938DB8FC] [CD00CF81] CRC32 03 96,4 [25E30061] [FA8C9DEE] CRC32 04 98,8 [B5CD5135] [F0F0F7DA] CRC32 05 93,3 [DD93F021] [F9C7C04B] CRC32 06 98,8 [1EB5CA94] [DF1CE910] CRC32 07 95,3 [5CE306BE] [490D882B] CRC32 08 98,8 [513798C2] [C826103D] CRC32 09 98,8 [D61E3425] [E49C087C] CRC32 10 98,8 [6E638688] [5DA86F90] CRC32 11 98,8 [3AAA9EA9] [AA491CC2] CRC32 12 98,8 [3267BE42] [B87F5937] CRC32


Трекер:  [ 27-Ноя-2014 11:00 ]

  

Скачать .torrent

Размер .torrent файла 21 KB


Размер: 250 MB
Хэш (hash) релиза: 0aace49870ddda704f948fac2ef786868a59c5a4

Еще никто не оставлял запись к записи скачать торрент . Будь первым!

!Обратная связь