The Sinner | Comments: 0 | Informática

Скачать через торрент музыку A.D.POLICE File Soundtrack бесплатно без регистрации torrent

Статистика раздачи
Размер:  807 MB   |    Зарегистрирован:  3 года 7 месяцев   |    .torrent скачан:  45 раз   |   
Раздают:  1  
   
загрузка...
 
Автор Сообщение

Galfimbul

avatar Galfimbul


A.D.POLICE File Original Animation Series Soundtrack
Жанр: Score/Soundtrack || Композиторы: Rey Magtoto, Nonoy Tan, Toto Gentica, IDENTITY CRISIS(THE GOLD), Ed Formoso, Kaoru Mizuta, Rene Novelles, Raffy Amaranto & vocal by Lou Bonnevie
Год выпуска: 1990-1991 || Производитель: Japan || Аудио кодек: FLAC (*.flac) || Тип рипа: tracks+.cue || Битрейт аудио: lossless || Продолжительность: 00:02:05:33 || Источник: what.cd [axelord]
Дополнительная информация: Релиз с измененными тэгами и индексной картой (*.cue), оригинальный лог (*.log) файл от программы EAC изменениям не подвергался.

AD.POLICE File-1 Phantom Lady:
01. Toto Gentica - Theme of The AD.POLICE [2:15]
02. Rey Magtoto - Rockin' The Beat (feat. Lou Bonnevie) [3:29]
03. IDENTITY CRISIS - Memory In The Future [4:33]
04. IDENTITY CRISIS - Dog Soldiers [3:37]
05. Toto Gentica - Metaphysical Crime [2:08]
06. Nonoy Tan - Heatbreaker (feat. Lou Bonnevie) [3:19]
07. IDENTITY CRISIS - Phantom Lady [5:50]
08. IDENTITY CRISIS - Deadend City [3:39]
09. Toto Gentica - Junkyard of Dream [3:18]
10. Toto Gentica - Happy Days Are Here Again (feat. Lou Bonnevie) [4:33]
11. Toto Gentica - Flash Back [3:26]
12. Lou Bonnevie - What A Fool I Am [4:11]
http://vgmdb.net/album/23782
Exact Audio Copy V1.0 beta 3 from 29. August 2011

EAC extraction logfile from 28. October 2011, 15:04

Various Artists / AD.POLICE File-1 Phantom Lady [AMD-0001]

Used drive : ASUS DRW-24B1ST a Adapter: 1 ID: 1

Read mode : SecureUtilize accurate stream : YesDefeat audio cache : YesMake use of C2 pointers : No

Read offset correction : 6Overread into Lead-In and Lead-Out : NoFill up missing offset samples with silence : YesDelete leading and trailing silent blocks : NoNull samples used in CRC calculations : YesUsed interface : Native Win32 interface for Win NT & 2000Gap handling : Appended to previous track

Used output format : User Defined EncoderSelected bitrate : 128 kBit/sQuality : HighAdd ID3 tag : YesCommand line compressor : C:\apps\Audio\Encoders\flac-1.2.1-win\flac.exeAdditional command line options : -T "albumartist=%albumartist%" -T "artist=%artist%" -T "title=%title%" -T "album=%albumtitle%" -T "date=%year%" -T "tracknumber=%tracknr%" -T "genre=%genre%" -5 %source%

TOC of the extracted CD

Track | Start | Length | Start sector | End sector --------------------------------------------------------- 1 | 0:00.00 | 2:15.10 | 0 | 10134 2 | 2:15.10 | 3:29.20 | 10135 | 25829 3 | 5:44.30 | 4:33.17 | 25830 | 46321 4 | 10:17.47 | 3:37.20 | 46322 | 62616 5 | 13:54.67 | 2:07.40 | 62617 | 72181 6 | 16:02.32 | 3:18.55 | 72182 | 87086 7 | 19:21.12 | 5:49.60 | 87087 | 113321 8 | 25:10.72 | 3:39.13 | 113322 | 129759 9 | 28:50.10 | 3:18.12 | 129760 | 144621 10 | 32:08.22 | 4:33.28 | 144622 | 165124 11 | 36:41.50 | 3:26.10 | 165125 | 180584 12 | 40:07.60 | 4:11.02 | 180585 | 199411

Track 1

Filename C:\music-flc\Soundtrack-Anime\Various Artists-AD.POLICE File-1 Phantom Lady [AMD-0001]-1990\01-Theme of the AD.POLICE.wav

Pre-gap length 0:00:02.00

Peak level 89.1 % Extraction speed 3.3 X Track quality 99.9 % Test CRC C18A712E Copy CRC C18A712E Track not present in AccurateRip database Copy OK

Track 2

Filename C:\music-flc\Soundtrack-Anime\Various Artists-AD.POLICE File-1 Phantom Lady [AMD-0001]-1990\02-Rockin The Beat.wav

Peak level 100.0 % Extraction speed 5.2 X Track quality 100.0 % Test CRC 3CEDED34 Copy CRC 3CEDED34 Track not present in AccurateRip database Copy OK

Track 3

Filename C:\music-flc\Soundtrack-Anime\Various Artists-AD.POLICE File-1 Phantom Lady [AMD-0001]-1990\03-Memory In The Future.wav

Peak level 82.9 % Extraction speed 5.0 X Track quality 99.9 % Test CRC FAF211A8 Copy CRC FAF211A8 Track not present in AccurateRip database Copy OK

Track 4

Filename C:\music-flc\Soundtrack-Anime\Various Artists-AD.POLICE File-1 Phantom Lady [AMD-0001]-1990\04-Dog Soldiers.wav

Peak level 83.8 % Extraction speed 6.2 X Track quality 100.0 % Test CRC 83B51B3E Copy CRC 83B51B3E Track not present in AccurateRip database Copy OK

Track 5

Filename C:\music-flc\Soundtrack-Anime\Various Artists-AD.POLICE File-1 Phantom Lady [AMD-0001]-1990\05-Metaphysical Crime.wav

Peak level 93.2 % Extraction speed 5.8 X Track quality 100.0 % Test CRC 8A376DE0 Copy CRC 8A376DE0 Track not present in AccurateRip database Copy OK

Track 6

Filename C:\music-flc\Soundtrack-Anime\Various Artists-AD.POLICE File-1 Phantom Lady [AMD-0001]-1990\06-Heatbreaker.wav

Peak level 100.0 % Extraction speed 6.7 X Track quality 100.0 % Test CRC FC8EFA17 Copy CRC FC8EFA17 Track not present in AccurateRip database Copy OK

Track 7

Filename C:\music-flc\Soundtrack-Anime\Various Artists-AD.POLICE File-1 Phantom Lady [AMD-0001]-1990\07-Phantom Lady.wav

Peak level 82.2 % Extraction speed 7.6 X Track quality 100.0 % Test CRC 54EB788E Copy CRC 54EB788E Track not present in AccurateRip database Copy OK

Track 8

Filename C:\music-flc\Soundtrack-Anime\Various Artists-AD.POLICE File-1 Phantom Lady [AMD-0001]-1990\08-Deadend City.wav

Peak level 86.5 % Extraction speed 7.4 X Track quality 100.0 % Test CRC 610AE050 Copy CRC 610AE050 Track not present in AccurateRip database Copy OK

Track 9

Filename C:\music-flc\Soundtrack-Anime\Various Artists-AD.POLICE File-1 Phantom Lady [AMD-0001]-1990\09-Junkyard Of Dream.wav

Peak level 90.2 % Extraction speed 6.9 X Track quality 100.0 % Test CRC 34CB14BB Copy CRC 34CB14BB Track not present in AccurateRip database Copy OK

Track 10

Filename C:\music-flc\Soundtrack-Anime\Various Artists-AD.POLICE File-1 Phantom Lady [AMD-0001]-1990\10-Happy Days Are Here Again.wav

Peak level 100.0 % Extraction speed 8.4 X Track quality 100.0 % Test CRC 4F600CED Copy CRC 4F600CED Track not present in AccurateRip database Copy OK

Track 11

Filename C:\music-flc\Soundtrack-Anime\Various Artists-AD.POLICE File-1 Phantom Lady [AMD-0001]-1990\11-Flash Back.wav

Peak level 90.8 % Extraction speed 8.5 X Track quality 100.0 % Test CRC 6060EA41 Copy CRC 6060EA41 Track not present in AccurateRip database Copy OK

Track 12

Filename C:\music-flc\Soundtrack-Anime\Various Artists-AD.POLICE File-1 Phantom Lady [AMD-0001]-1990\12-What A Fool I Am.wav

Peak level 96.2 % Extraction speed 7.5 X Track quality 99.9 % Test CRC 513519CD Copy CRC 513519CD Track not present in AccurateRip database Copy OK

None of the tracks are present in the AccurateRip database

No errors occurred

End of status report

==== Log checksum 9EE20DD7317E8F20DD2998FEFD6DDF87CCF235250383271158CBF427BD436C0D ====
REM GENRE SoundtrackREM DATE 1991REM DISCID 920A620CREM COMMENT "ExactAudioCopy v1.0b3"PERFORMER "Various Artists"TITLE "AD.POLICE File-1 Phantom Lady"FILE "01. Theme of The AD.POLICE.wav" WAVE TRACK 01 AUDIO TITLE "Theme of The AD.POLICE" PERFORMER "Toto Gentica" INDEX 01 00:00:00FILE "02. Rockin' The Beat (feat. Lou Bonnevie).wav" WAVE TRACK 02 AUDIO TITLE "Rockin' The Beat (feat. Lou Bonnevie)" PERFORMER "Rey Magtoto" INDEX 01 00:00:00FILE "03. Memory In The Future.wav" WAVE TRACK 03 AUDIO TITLE "Memory In The Future" PERFORMER "IDENTITY CRISIS" INDEX 01 00:00:00FILE "04. Dog Soldiers.wav" WAVE TRACK 04 AUDIO TITLE "Dog Soldiers" PERFORMER "IDENTITY CRISIS" INDEX 01 00:00:00FILE "05. Metaphysical Crime.wav" WAVE TRACK 05 AUDIO TITLE "Metaphysical Crime" PERFORMER "Toto Gentica" INDEX 01 00:00:00FILE "06. Heatbreaker (feat. Lou Bonnevie).wav" WAVE TRACK 06 AUDIO TITLE "Heatbreaker (feat. Lou Bonnevie)" PERFORMER "Nonoy Tan" INDEX 01 00:00:00FILE "07. Phantom Lady.wav" WAVE TRACK 07 AUDIO TITLE "Phantom Lady" PERFORMER "IDENTITY CRISIS" INDEX 01 00:00:00FILE "08. Deadend City.wav" WAVE TRACK 08 AUDIO TITLE "Deadend City" PERFORMER "IDENTITY CRISIS" INDEX 01 00:00:00FILE "09. Junkyard Of Dream.wav" WAVE TRACK 09 AUDIO TITLE "Junkyard Of Dream" PERFORMER "Toto Gentica" INDEX 01 00:00:00FILE "10. Happy Days Are Here Again (feat. Lou Bonnevie).wav" WAVE TRACK 10 AUDIO TITLE "Happy Days Are Here Again (feat. Lou Bonnevie)" PERFORMER "Lou Bonnevie" INDEX 01 00:00:00FILE "11. Flash Back.wav" WAVE TRACK 11 AUDIO TITLE "Flash Back" PERFORMER "Toto Gentica" INDEX 01 00:00:00FILE "12. Lou Bonnevie - What A Fool I Am.wav" WAVE TRACK 12 AUDIO TITLE "What A Fool I Am" PERFORMER "Lou Bonnevie" INDEX 01 00:00:00
-----------------------

DON'T MODIFY THIS FILE

-----------------------

PERFORMER: auCDtect Task Manager, ver. 1.6.0 RC1 build 1.6.0.1Copyright (c) 2008-2010 y-soft. All rights reservedhttp://y-soft.org

ANALYZER: auCDtect: CD records authenticity detector, version 0.8.2Copyright (c) 2004 Oleg Berngardt. All rights reserved.Copyright (c) 2004 Alexander Djourik. All rights reserved.

FILE: 01. Theme of The AD.POLICE.flac Size: 16594412 Hash: FC131C4539F8A54BFCC64A4ECCF9CCCE Accuracy: -m0 Conclusion: CDDA 100% Signature: 5ED5D89423CDBB7E9855A05C9FE0FC8091A43989FILE: 02. Rockin' The Beat (feat. Lou Bonnevie).flac Size: 23435145 Hash: DCDF5B3284735EA0154D1787327E886B Accuracy: -m0 Conclusion: CDDA 100% Signature: 0B968C3D8DA84375C817EDF5A1258933EEB837DCFILE: 03. Memory In The Future.flac Size: 32578509 Hash: 2866A17034AAA7F8A5A5032F1DE094D8 Accuracy: -m0 Conclusion: CDDA 100% Signature: 5E540F6A95A7EDA719EE4FC2E44D661FDA56989AFILE: 04. Dog Soldiers.flac Size: 26955201 Hash: 5B6911A004D06367FA9D3574FCE54AC1 Accuracy: -m0 Conclusion: CDDA 100% Signature: E3C28D989A403B09FCE99FC613C8D06A01B90527FILE: 05. Metaphysical Crime.flac Size: 13776894 Hash: 38CB2030CB4C3450DB5A146B977FA0D0 Accuracy: -m0 Conclusion: CDDA 99% Signature: 6E3862A1AFF4FEEBE579A768DAE369F43BB07104FILE: 06. Heatbreaker (feat. Lou Bonnevie).flac Size: 23328221 Hash: F27481D55F788B16E6A34119FFA3BAA2 Accuracy: -m0 Conclusion: CDDA 100% Signature: A1C9709C23F9A2D463ED74D326C6243C49863380FILE: 07. Phantom Lady.flac Size: 43163613 Hash: C7275BCD0EFBDBE4CEE081E2273C391A Accuracy: -m0 Conclusion: CDDA 100% Signature: 604EE42ED6479324999C9746F087BC3F413FDD1DFILE: 08. Deadend City.flac Size: 28565558 Hash: B5FB0371AC47963B4C167CAA147094D8 Accuracy: -m0 Conclusion: CDDA 99% Signature: B4FDEB299FF5C90C7228835761995B285BCAA337FILE: 09. Junkyard of Dream.flac Size: 21231432 Hash: 64574753E4C61028D65E03EE258E2A01 Accuracy: -m0 Conclusion: CDDA 100% Signature: 876D6E841A89191FCC8B01590C5A8B030B3BCC3BFILE: 10. Happy Days Are Here Again (feat. Lou Bonnevie).flac Size: 30556886 Hash: 11088AFFB37924B9705A88013EF76AC7 Accuracy: -m0 Conclusion: CDDA 100% Signature: E80790D0166B10170443A26E61DFA64270D3B544FILE: 11. Flash Back.flac Size: 22666154 Hash: E6C2DFCC74A160F0B76E0C241667DF86 Accuracy: -m0 Conclusion: CDDA 100% Signature: EA2FB259D4903C9030635C65C37158627095EA5CFILE: 12. Lou Bonnevie - What A Fool I Am.flac Size: 28378307 Hash: 76F6014A28D977CED8F8CB8B3132898E Accuracy: -m0 Conclusion: CDDA 99% Signature: F3ECCAE76D1362DFEA7177E29E373738509D0B87
[CUETools log; Date: 10.06.2014 15:51:21; Version: 2.1.4][CTDB TOCID: Mfx3f9qm0qpfO8aBpWnlxjA7fOs-] found.Track | CTDB Status 1 | (1/1) Accurately ripped 2 | (1/1) Accurately ripped 3 | (1/1) Accurately ripped 4 | (1/1) Accurately ripped 5 | (1/1) Accurately ripped 6 | (1/1) Accurately ripped 7 | (1/1) Accurately ripped 8 | (1/1) Accurately ripped 9 | (1/1) Accurately ripped 10 | (1/1) Accurately ripped 11 | (1/1) Accurately ripped 12 | (1/1) Accurately ripped[AccurateRip ID: 0012e007-00b310b6-920a620c] found.Track [ CRC | V2 ] Status 01 [dad9da0f|603c7100] (0+1/1) Accurately ripped 02 [1bee2a96|d627c98f] (0+1/1) Accurately ripped 03 [90477ca5|04239d25] (0+1/1) Accurately ripped 04 [cc262056|e4ef3b01] (0+1/1) Accurately ripped 05 [29ef4f20|bccee3ef] (0+1/1) Accurately ripped 06 [293f94b3|6994309c] (0+1/1) Accurately ripped 07 [214f2419|5c059efc] (0+1/1) Accurately ripped 08 [1a968896|9b21b6bc] (0+1/1) Accurately ripped 09 [27a5620e|c9517e7e] (0+1/1) Accurately ripped 10 [4a43fae6|788f0a39] (0+1/1) Accurately ripped 11 [bf828586|31a7b3e8] (0+1/1) Accurately ripped 12 [019ac03d|31fb84a8] (0+1/1) Accurately ripped

Track Peak [ CRC32 ] [W/O NULL] [ LOG ] -- 100,0 [C82B602D] [C50F5B26] 01 89,1 [C18A712E] [910DE11F] CRC32 02 100,0 [3CEDED34] [A1EC756A] CRC32 03 82,9 [FAF211A8] [D62E5610] CRC32 04 83,8 [83B51B3E] [1FD66D45] CRC32 05 93,2 [8A376DE0] [50F9975E] CRC32 06 100,0 [FC8EFA17] [4EA42323] CRC32 07 82,2 [54EB788E] [16D7A186] CRC32 08 86,5 [610AE050] [F8D9D7CE] CRC32 09 90,2 [34CB14BB] [31006BED] CRC32 10 100,0 [4F600CED] [4B1BBAA5] CRC32 11 90,8 [6060EA41] [1AD0AD87] CRC32 12 96,2 [513519CD] [3DCF20E2] CRC32

AD.POLICE File-2 The Ripper:
01. Rene Novelles - Love Me Tonight (feat. Lou Bonnevie) [3:59]
02. Toto Gentica - Paradise Loop [2:08]
03. Toto Gentica - Shadow Walker [2:40]
04. Toto Gentica - Young Hearts, Young Minds (feat. Lou Bonnevie) [3:15]
05. Kaoru Mizutani - The Ripper [4:36]
06. Raffy Amaranto - Words & Music (feat. Lou Bonnevie) [3:56]
07. Kaoru Mizutani - Gal Cop [2:10]
08. IDENTITY CRISIS - Imagining October (feat. Lou Bonnevie) [4:36]
09. IDENTITY CRISIS - When The Sun Will Shine (feat. Lou Bonnevie) [3:52]
10. IDENTITY CRISIS - Cyber Bank [4:51]
11. IDENTITY CRISIS - Tracer [4:28]
12. Ed Formoso - I Need Your Love (feat. Lou Bonnevie) [5:38]
http://vgmdb.net/album/23785
Exact Audio Copy V1.0 beta 3 from 29. August 2011

EAC extraction logfile from 24. March 2012, 18:54

Various Artists / AD.POLICE File-2 The Ripper [BCCM-3]

Used drive : ASUS DRW-24B1ST a Adapter: 4 ID: 0

Read mode : SecureUtilize accurate stream : YesDefeat audio cache : YesMake use of C2 pointers : No

Read offset correction : 6Overread into Lead-In and Lead-Out : NoFill up missing offset samples with silence : YesDelete leading and trailing silent blocks : NoNull samples used in CRC calculations : YesUsed interface : Native Win32 interface for Win NT & 2000Gap handling : Appended to previous track

Used output format : User Defined EncoderSelected bitrate : 32 kBit/sQuality : HighAdd ID3 tag : NoCommand line compressor : C:\Users\BryanH\Downloads\apps\Audio\Encoders\flac-1.2.1-win\flac.exeAdditional command line options : -T "albumartist=%albumartist%" -T "artist=%artist%" -T "title=%title%" -T "album=%albumtitle%" -T "date=%year%" -T "tracknumber=%tracknr%" -T "genre=%genre%" -5 %source%

TOC of the extracted CD

Track | Start | Length | Start sector | End sector --------------------------------------------------------- 1 | 0:00.00 | 3:58.70 | 0 | 17919 2 | 3:58.70 | 2:07.40 | 17920 | 27484 3 | 6:06.35 | 2:39.40 | 27485 | 39449 4 | 8:46.00 | 3:14.47 | 39450 | 54046 5 | 12:00.47 | 4:36.10 | 54047 | 74756 6 | 16:36.57 | 3:56.33 | 74757 | 92489 7 | 20:33.15 | 2:10.30 | 92490 | 102269 8 | 22:43.45 | 4:36.05 | 102270 | 122974 9 | 27:19.50 | 3:51.42 | 122975 | 140341 10 | 31:11.17 | 4:51.23 | 140342 | 162189 11 | 36:02.40 | 4:28.22 | 162190 | 182311 12 | 40:30.62 | 5:38.25 | 182312 | 207686

Track 1

Filename C:\music-flc\Various Artists-AD.POLICE File-2 The Ripper [BCCM-3]-1990\01-Love Me Tonight.wav

Pre-gap length 0:00:02.00

Peak level 100.0 % Extraction speed 3.4 X Track quality 100.0 % Test CRC E2A066B3 Copy CRC E2A066B3 Track not present in AccurateRip database Copy OK

Track 2

Filename C:\music-flc\Various Artists-AD.POLICE File-2 The Ripper [BCCM-3]-1990\02-Paradise Loop.wav

Pre-gap length 0:00:01.50

Peak level 95.4 % Extraction speed 3.3 X Track quality 100.0 % Test CRC 8D880188 Copy CRC 8D880188 Track not present in AccurateRip database Copy OK

Track 3

Filename C:\music-flc\Various Artists-AD.POLICE File-2 The Ripper [BCCM-3]-1990\03-Shadow Walker.wav

Pre-gap length 0:00:01.50

Peak level 100.0 % Extraction speed 3.7 X Track quality 100.0 % Test CRC 6098C561 Copy CRC 6098C561 Track not present in AccurateRip database Copy OK

Track 4

Filename C:\music-flc\Various Artists-AD.POLICE File-2 The Ripper [BCCM-3]-1990\04-Young Hearts, Young Minds.wav

Pre-gap length 0:00:01.50

Peak level 99.3 % Extraction speed 4.0 X Track quality 100.0 % Test CRC 698F4A05 Copy CRC 698F4A05 Track not present in AccurateRip database Copy OK

Track 5

Filename C:\music-flc\Various Artists-AD.POLICE File-2 The Ripper [BCCM-3]-1990\05-The Ripper.wav

Pre-gap length 0:00:01.49

Peak level 100.0 % Extraction speed 4.6 X Track quality 100.0 % Test CRC F9B7BD7F Copy CRC F9B7BD7F Track not present in AccurateRip database Copy OK

Track 6

Filename C:\music-flc\Various Artists-AD.POLICE File-2 The Ripper [BCCM-3]-1990\06-Words & Music.wav

Pre-gap length 0:00:01.49

Peak level 99.2 % Extraction speed 4.8 X Track quality 100.0 % Test CRC EEE2549E Copy CRC EEE2549E Track not present in AccurateRip database Copy OK

Track 7

Filename C:\music-flc\Various Artists-AD.POLICE File-2 The Ripper [BCCM-3]-1990\07-Gal Cop.wav

Pre-gap length 0:00:01.50

Peak level 93.3 % Extraction speed 4.4 X Track quality 100.0 % Test CRC BD06F0E1 Copy CRC BD06F0E1 Track not present in AccurateRip database Copy OK

Track 8

Filename C:\music-flc\Various Artists-AD.POLICE File-2 The Ripper [BCCM-3]-1990\08-Imagining October.wav

Pre-gap length 0:00:01.50

Peak level 99.2 % Extraction speed 5.3 X Track quality 100.0 % Test CRC 8A6B30ED Copy CRC 8A6B30ED Track not present in AccurateRip database Copy OK

Track 9

Filename C:\music-flc\Various Artists-AD.POLICE File-2 The Ripper [BCCM-3]-1990\09-When the Sun Will Shine.wav

Pre-gap length 0:00:01.50

Peak level 86.9 % Extraction speed 5.4 X Track quality 100.0 % Test CRC 85D39367 Copy CRC 85D39367 Track not present in AccurateRip database Copy OK

Track 10

Filename C:\music-flc\Various Artists-AD.POLICE File-2 The Ripper [BCCM-3]-1990\10-Cyber Bank.wav

Pre-gap length 0:00:01.49

Peak level 85.4 % Extraction speed 5.8 X Track quality 100.0 % Test CRC 9C19D9B5 Copy CRC 9C19D9B5 Track not present in AccurateRip database Copy OK

Track 11

Filename C:\music-flc\Various Artists-AD.POLICE File-2 The Ripper [BCCM-3]-1990\11-Tracer.wav

Pre-gap length 0:00:01.50

Peak level 100.0 % Extraction speed 6.0 X Track quality 100.0 % Test CRC 2046FC35 Copy CRC 2046FC35 Track not present in AccurateRip database Copy OK

Track 12

Filename C:\music-flc\Various Artists-AD.POLICE File-2 The Ripper [BCCM-3]-1990\12-I Need Your Love.wav

Pre-gap length 0:00:01.49

Peak level 99.2 % Extraction speed 5.4 X Track quality 99.9 % Test CRC C5F16384 Copy CRC C5F16384 Track not present in AccurateRip database Copy OK

None of the tracks are present in the AccurateRip database

No errors occurred

End of status report

---- CUETools DB Plugin V2.1.3

[CTDB TOCID: U55sPAxY_SSUAcv2TnQJzvueRXI-] found, Submit result: already submitted[2ed415a1] (1/1) Accurately ripped

==== Log checksum 08C5D86BF0A8F99030D859135033B535AE0DF2D4EDD0E2114811BEE085937931 ====
REM GENRE SoundtrackREM DATE 1990REM DISCID 9E0AD10CREM COMMENT "ExactAudioCopy v1.0b3"PERFORMER "Various Artists"TITLE "AD.POLICE File-2 The Ripper"FILE "01. Love Me Tonight (feat. Lou Bonnevie).wav" WAVE TRACK 01 AUDIO TITLE "Love Me Tonight (feat. Lou Bonnevie)" PERFORMER "Rene Novelles" INDEX 01 00:00:00 TRACK 02 AUDIO TITLE "Paradise Loop" PERFORMER "Toto Gentica" INDEX 00 03:57:32FILE "02. Paradise Loop.wav" WAVE INDEX 01 00:00:00 TRACK 03 AUDIO TITLE "Shadow Walker" PERFORMER "Toto Gentica" INDEX 00 02:06:02FILE "03. Shadow Walker.wav" WAVE INDEX 01 00:00:00 TRACK 04 AUDIO TITLE "Young Hearts, Young Minds (feat. Lou Bonnevie)" PERFORMER "Toto Gentica" INDEX 00 02:38:02FILE "04. Young Hearts, Young Minds (feat. Lou Bonnevie).wav" WAVE INDEX 01 00:00:00 TRACK 05 AUDIO TITLE "The Ripper" PERFORMER "Kaoru Mizutani" INDEX 00 03:13:10FILE "05. The Ripper.wav" WAVE INDEX 01 00:00:00 TRACK 06 AUDIO TITLE "Words & Music (feat. Lou Bonnevie)" PERFORMER "Raffy Amaranto" INDEX 00 04:34:48FILE "06. Words & Music (feat. Lou Bonnevie).wav" WAVE INDEX 01 00:00:00 TRACK 07 AUDIO TITLE "Gal Cop" PERFORMER "Kaoru Mizutani" INDEX 00 03:54:70FILE "07. Gal Cop.wav" WAVE INDEX 01 00:00:00 TRACK 08 AUDIO TITLE "Imagining October (feat. Lou Bonnevie)" PERFORMER "IDENTITY CRISIS" INDEX 00 02:08:67FILE "08. Imagining October (feat. Lou Bonnevie).wav" WAVE INDEX 01 00:00:00 TRACK 09 AUDIO TITLE "When The Sun Will Shine (feat. Lou Bonnevie)" PERFORMER "IDENTITY CRISIS" INDEX 00 04:34:42FILE "09. When The Sun Will Shine (feat. Lou Bonnevie).wav" WAVE INDEX 01 00:00:00 TRACK 10 AUDIO TITLE "Cyber Bank" PERFORMER "IDENTITY CRISIS" INDEX 00 03:50:05FILE "10. Cyber Bank.wav" WAVE INDEX 01 00:00:00 TRACK 11 AUDIO TITLE "Tracer" PERFORMER "IDENTITY CRISIS" INDEX 00 04:49:60FILE "11. Tracer.wav" WAVE INDEX 01 00:00:00 TRACK 12 AUDIO TITLE "I Need Your Love (feat. Lou Bonnevie)" PERFORMER "Ed Formoso" INDEX 00 04:26:60FILE "12. I Need Your Love (feat. Lou Bonnevie).wav" WAVE INDEX 01 00:00:00
-----------------------

DON'T MODIFY THIS FILE

-----------------------

PERFORMER: auCDtect Task Manager, ver. 1.6.0 RC1 build 1.6.0.1Copyright (c) 2008-2010 y-soft. All rights reservedhttp://y-soft.org

ANALYZER: auCDtect: CD records authenticity detector, version 0.8.2Copyright (c) 2004 Oleg Berngardt. All rights reserved.Copyright (c) 2004 Alexander Djourik. All rights reserved.

FILE: 01. Love Me Tonight (feat. Lou Bonnevie).flac Size: 28458644 Hash: 95861C413601C1D51F428AF388855A34 Accuracy: -m0 Conclusion: CDDA 100% Signature: 45B5F48C528E27DEF7B55C157AF9DB05E3BD7A95FILE: 02. Paradise Loop.flac Size: 13959807 Hash: 6574E15894EA0B8EB047BA4DAC380680 Accuracy: -m0 Conclusion: CDDA 100% Signature: 852B59176E85FFF224C53D2DCB3B14127D7ACF72FILE: 03. Shadow Walker.flac Size: 15763107 Hash: C3E844368F1374141C28721BAE9A8AFE Accuracy: -m0 Conclusion: CDDA 100% Signature: DDD481489E9C2E492F2A226B0A21029BC6F25DA2FILE: 04. Young Hearts, Young Minds (feat. Lou Bonnevie).flac Size: 22795094 Hash: AD5637C2A39B1276F931BD01FF090D98 Accuracy: -m0 Conclusion: CDDA 94% Signature: 012A19B6C9A0A14F2FCBC3ADE81808B86D304CC9FILE: 05. The Ripper.flac Size: 31965521 Hash: 5BC3CD1A3286F31F04293643C2EF1000 Accuracy: -m0 Conclusion: CDDA 99% Signature: 1C5531FD9DA894E081ADC21BCFBF8EE29B2C4A27FILE: 06. Words & Music (feat. Lou Bonnevie).flac Size: 27558243 Hash: 877E947E5AFE5D7D49C71A7346C00F42 Accuracy: -m0 Conclusion: CDDA 99% Signature: 7ACFB2F52F09F38BE1CB3DF36900747E92881A0DFILE: 07. Gal Cop.flac Size: 11294827 Hash: 84659AF39EC02318F905B9B6D1AFEDDF Accuracy: -m0 Conclusion: CDDA 100% Signature: 573F12795C2B9F5F3CC75C2813B38CD305082F5BFILE: 08. Imagining October (feat. Lou Bonnevie).flac Size: 32246755 Hash: 75B505D0833FD61FDEE149D13129A037 Accuracy: -m0 Conclusion: CDDA 100% Signature: 8214E9C7EF7D9F3296DD157C6CC98C6D0FB2FD81FILE: 09. When The Sun Will Shine (feat. Lou Bonnevie).flac Size: 27643381 Hash: 348ACEC8EC773B4CE3EF7ED867434646 Accuracy: -m0 Conclusion: CDDA 100% Signature: BC966AD8DF5EB1160A3B7A48BC4C3830C829C2D6FILE: 10. Cyber Bank.flac Size: 33915377 Hash: 9872992028FEF5F08F808D2DA55B961C Accuracy: -m0 Conclusion: CDDA 100% Signature: 2EA30C77A5AC0CC3841B9A0C088BE44818BB9C24FILE: 11. Tracer.flac Size: 28444849 Hash: B21D956D4A9350480397E7077EBC64C7 Accuracy: -m0 Conclusion: CDDA 100% Signature: F9A4572E929B99A5BB404178A148D5DB4102BE7EFILE: 12. I Need Your Love (feat. Lou Bonnevie).flac Size: 36671707 Hash: 1D35ACDE55B64B0257429FED43FBA4C0 Accuracy: -m0 Conclusion: CDDA 99% Signature: EA67CC1579C456F80C0E3980057E8AA7019A8475
[CUETools log; Date: 10.06.2014 16:44:00; Version: 2.1.4][CTDB TOCID: U55sPAxY_SSUAcv2TnQJzvueRXI-] found.Track | CTDB Status 1 | (1/1) Accurately ripped 2 | (1/1) Accurately ripped 3 | (1/1) Accurately ripped 4 | (1/1) Accurately ripped 5 | (1/1) Accurately ripped 6 | (1/1) Accurately ripped 7 | (1/1) Accurately ripped 8 | (1/1) Accurately ripped 9 | (1/1) Accurately ripped 10 | (1/1) Accurately ripped 11 | (1/1) Accurately ripped 12 | (1/1) Accurately ripped[AccurateRip ID: 0012acf5-00b1a637-9e0ad10c] found.Track [ CRC | V2 ] Status 01 [5c82a31d|727596a4] (0+1/1) Accurately ripped 02 [e5dfcb05|f77324cb] (0+1/1) Accurately ripped 03 [6e5b4dc6|b8c6415a] (0+1/1) Accurately ripped 04 [badf435d|c4a68fd5] (0+1/1) Accurately ripped 05 [1b2574fd|407b8d23] (0+1/1) Accurately ripped 06 [53d1abba|628c968f] (0+1/1) Accurately ripped 07 [e95fed86|29a3621b] (0+1/1) Accurately ripped 08 [a8cd498e|1d87449c] (0+1/1) Accurately ripped 09 [51b37178|ae882d0f] (0+1/1) Accurately ripped 10 [3c955bb4|354aa0fc] (0+1/1) Accurately ripped 11 [fa57ebf6|3ee744b6] (0+1/1) Accurately ripped 12 [9d8cfabf|a51ec603] (0+1/1) Accurately ripped

Track Peak [ CRC32 ] [W/O NULL] [ LOG ] -- 100,0 [BD8A49BC] [C0B62556] 01 100,0 [E2A066B3] [E3737C94] CRC32 02 95,4 [8D880188] [5F4DA7F9] CRC32 03 100,0 [6098C561] [993E96C7] CRC32 04 99,3 [698F4A05] [A606601D] CRC32 05 100,0 [F9B7BD7F] [0C3F6B68] CRC32 06 99,2 [EEE2549E] [5C9FD967] CRC32 07 93,3 [BD06F0E1] [9DD81D4D] CRC32 08 99,2 [8A6B30ED] [C0F19CBE] CRC32 09 86,9 [85D39367] [145F8724] CRC32 10 85,4 [9C19D9B5] [45F4CA97] CRC32 11 100,0 [2046FC35] [E9548A11] CRC32 12 99,2 [C5F16384] [8314CA26] CRC32

AD.POLICE File-3 The Man Who Bite His Tongue:
01. Toto Gentica - Iron Heart [3:15]
02. Toto Gentica - Out of Order [2:05]
03. Nonoy Tan - I'm Every Girl (feat. Lou Bonnevie) [3:41]
04. Ed Formoso - Our Dance (feat. Lou Bonnevie) [4:42]
05. Ed Formoso - Excuse Me (feat. Lou Bonnevie) [4:08]
06. Toto Gentica - Cry Cry Cry (feat. Lou Bonnevie) [3:06]
07. Kaoru Mizutami - Endless Dream [3:28]
08. Lou Bonnevie - Never Given Up [3:51]
09. Lou Bonnevie - Turning Showbiz [4:08]
10. Kaoru Mizutani - Endless Dream [2:41]
http://vgmdb.net/album/36112
Exact Audio Copy V1.0 beta 3 from 29. August 2011

EAC extraction logfile from 17. October 2011, 14:07

Various Artists / AD.POLICE File-3 The Man Who Bite His Tongue [BCCM-8]

Used drive : ASUS DRW-24B1ST a Adapter: 1 ID: 1

Read mode : SecureUtilize accurate stream : YesDefeat audio cache : YesMake use of C2 pointers : No

Read offset correction : 6Overread into Lead-In and Lead-Out : NoFill up missing offset samples with silence : YesDelete leading and trailing silent blocks : NoNull samples used in CRC calculations : YesUsed interface : Native Win32 interface for Win NT & 2000Gap handling : Appended to previous track

Used output format : User Defined EncoderSelected bitrate : 128 kBit/sQuality : HighAdd ID3 tag : YesCommand line compressor : C:\apps\Audio\Encoders\flac-1.2.1-win\flac.exeAdditional command line options : -T "albumartist=%albumartist%" -T "artist=%artist%" -T "title=%title%" -T "album=%albumtitle%" -T "date=%year%" -T "tracknumber=%tracknr%" -T "genre=%genre%" -5 %source%

TOC of the extracted CD

Track | Start | Length | Start sector | End sector --------------------------------------------------------- 1 | 0:00.00 | 3:14.58 | 0 | 14607 2 | 3:14.58 | 2:05.17 | 14608 | 23999 3 | 5:20.00 | 3:40.38 | 24000 | 40537 4 | 9:00.38 | 4:42.15 | 40538 | 61702 5 | 13:42.53 | 4:08.37 | 61703 | 80339 6 | 17:51.15 | 3:06.00 | 80340 | 94289 7 | 20:57.15 | 3:28.15 | 94290 | 109904 8 | 24:25.30 | 3:51.35 | 109905 | 127264 9 | 28:16.65 | 4:08.30 | 127265 | 145894 10 | 32:25.20 | 2:40.50 | 145895 | 157944

Track 1

Filename C:\music-flc\Soundtrack-Anime\Various Artists-AD.POLICE File-3 The Man Who Bite His Tongue [BCCM-8]-1991\01-Iron Heart.wav

Pre-gap length 0:00:02.00

Peak level 96.3 % Extraction speed 4.8 X Track quality 100.0 % Test CRC 01A6BAA6 Copy CRC 01A6BAA6 Track not present in AccurateRip database Copy OK

Track 2

Filename C:\music-flc\Soundtrack-Anime\Various Artists-AD.POLICE File-3 The Man Who Bite His Tongue [BCCM-8]-1991\02-Out of Order.wav

Pre-gap length 0:00:01.38

Peak level 63.7 % Extraction speed 4.7 X Track quality 100.0 % Test CRC CB861AA8 Copy CRC CB861AA8 Track not present in AccurateRip database Copy OK

Track 3

Filename C:\music-flc\Soundtrack-Anime\Various Artists-AD.POLICE File-3 The Man Who Bite His Tongue [BCCM-8]-1991\03-I'm Every Girl.wav

Pre-gap length 0:00:01.37

Peak level 83.9 % Extraction speed 5.6 X Track quality 100.0 % Test CRC 0C32B9DF Copy CRC 0C32B9DF Track not present in AccurateRip database Copy OK

Track 4

Filename C:\music-flc\Soundtrack-Anime\Various Artists-AD.POLICE File-3 The Man Who Bite His Tongue [BCCM-8]-1991\04-Our Dance.wav

Pre-gap length 0:00:01.38

Peak level 78.4 % Extraction speed 5.4 X Track quality 99.9 % Test CRC 62CF24B0 Copy CRC 62CF24B0 Track not present in AccurateRip database Copy OK

Track 5

Filename C:\music-flc\Soundtrack-Anime\Various Artists-AD.POLICE File-3 The Man Who Bite His Tongue [BCCM-8]-1991\05-Excuse Me.wav

Pre-gap length 0:00:01.38

Peak level 77.7 % Extraction speed 6.7 X Track quality 100.0 % Test CRC 1D7F9B1C Copy CRC 1D7F9B1C Track not present in AccurateRip database Copy OK

Track 6

Filename C:\music-flc\Soundtrack-Anime\Various Artists-AD.POLICE File-3 The Man Who Bite His Tongue [BCCM-8]-1991\06-Cry Cry Cry.wav

Pre-gap length 0:00:01.37

Peak level 90.2 % Extraction speed 6.8 X Track quality 100.0 % Test CRC 4C2BA659 Copy CRC 4C2BA659 Track not present in AccurateRip database Copy OK

Track 7

Filename C:\music-flc\Soundtrack-Anime\Various Artists-AD.POLICE File-3 The Man Who Bite His Tongue [BCCM-8]-1991\07-Endless Dream.wav

Pre-gap length 0:00:01.37

Peak level 88.5 % Extraction speed 7.2 X Track quality 100.0 % Test CRC 9986DF1B Copy CRC 9986DF1B Track not present in AccurateRip database Copy OK

Track 8

Filename C:\music-flc\Soundtrack-Anime\Various Artists-AD.POLICE File-3 The Man Who Bite His Tongue [BCCM-8]-1991\08-Never Given Up.wav

Pre-gap length 0:00:01.37

Peak level 86.8 % Extraction speed 7.7 X Track quality 100.0 % Test CRC 93933508 Copy CRC 93933508 Track not present in AccurateRip database Copy OK

Track 9

Filename C:\music-flc\Soundtrack-Anime\Various Artists-AD.POLICE File-3 The Man Who Bite His Tongue [BCCM-8]-1991\09-Turning Showbiz.wav

Pre-gap length 0:00:01.37

Peak level 92.0 % Extraction speed 8.1 X Track quality 100.0 % Test CRC F90802BB Copy CRC F90802BB Track not present in AccurateRip database Copy OK

Track 10

Filename C:\music-flc\Soundtrack-Anime\Various Artists-AD.POLICE File-3 The Man Who Bite His Tongue [BCCM-8]-1991\10-Endless Dream.wav

Pre-gap length 0:00:01.37

Peak level 45.1 % Extraction speed 6.1 X Track quality 99.9 % Test CRC 5433C32F Copy CRC 5433C32F Track not present in AccurateRip database Copy OK

None of the tracks are present in the AccurateRip database

No errors occurred

End of status report

==== Log checksum 1E4ED9740C76930D3A897BC2EF203D8E0169766793F56FE4797D7D6EABE04F16 ====
REM GENRE SoundtrackREM DATE 1991REM DISCID 8D08390AREM COMMENT "ExactAudioCopy v1.0b3"PERFORMER "Various Artists"TITLE "AD.POLICE File-3 The Man Who Bite His Tongue"FILE "01. Iron Heart.wav" WAVE TRACK 01 AUDIO TITLE "Iron Heart" PERFORMER "Toto Gentica" INDEX 01 00:00:00 TRACK 02 AUDIO TITLE "Out of Order" PERFORMER "Toto Gentica" INDEX 00 03:13:20FILE "02. Out of Order.wav" WAVE INDEX 01 00:00:00 TRACK 03 AUDIO TITLE "I'm Every Girl (feat. Lou Bonnevie)" PERFORMER "Nonoy Tan" INDEX 00 02:03:55FILE "03. I'm Every Girl (feat. Lou Bonnevie).wav" WAVE INDEX 01 00:00:00 TRACK 04 AUDIO TITLE "Our Dance (feat. Lou Bonnevie)" PERFORMER "Ed Formoso" INDEX 00 03:39:00FILE "04. Our Dance (feat. Lou Bonnevie).wav" WAVE INDEX 01 00:00:00 TRACK 05 AUDIO TITLE "Excuse Me (feat. Lou Bonnevie)" PERFORMER "Ed Formoso" INDEX 00 04:40:52FILE "05. Excuse Me (feat. Lou Bonnevie).wav" WAVE INDEX 01 00:00:00 TRACK 06 AUDIO TITLE "Cry Cry Cry (feat. Lou Bonnevie)" PERFORMER "Toto Gentica" INDEX 00 04:07:00FILE "06. Cry Cry Cry (feat. Lou Bonnevie).wav" WAVE INDEX 01 00:00:00 TRACK 07 AUDIO TITLE "Endless Dream" PERFORMER "Kaoru Mizutami" INDEX 00 03:04:38FILE "07. Endless Dream.wav" WAVE INDEX 01 00:00:00 TRACK 08 AUDIO TITLE "Never Given Up" PERFORMER "Lou Bonnevie" INDEX 00 03:26:53FILE "08. Never Given Up.wav" WAVE INDEX 01 00:00:00 TRACK 09 AUDIO TITLE "Turning Showbiz" PERFORMER "Lou Bonnevie" INDEX 00 03:49:73FILE "09. Turning Showbiz.wav" WAVE INDEX 01 00:00:00 TRACK 10 AUDIO TITLE "Endless Dream" PERFORMER "Kaoru Mizutani" INDEX 00 04:06:68FILE "10. Endless Dream.wav" WAVE INDEX 01 00:00:00
-----------------------

DON'T MODIFY THIS FILE

-----------------------

PERFORMER: auCDtect Task Manager, ver. 1.6.0 RC1 build 1.6.0.1Copyright (c) 2008-2010 y-soft. All rights reservedhttp://y-soft.org

ANALYZER: auCDtect: CD records authenticity detector, version 0.8.2Copyright (c) 2004 Oleg Berngardt. All rights reserved.Copyright (c) 2004 Alexander Djourik. All rights reserved.

FILE: 01. Iron Heart.flac Size: 20337421 Hash: FA0A8D8895F3958EBDC0212817B3DF4C Accuracy: -m0 Conclusion: CDDA 100% Signature: EAB66AA8E01968D5828BF3EFCFCD06EEAA74A43FFILE: 02. Out of Order.flac Size: 11216482 Hash: 9F22FFCFF2D8A8A30F7CCF12EE924C9A Accuracy: -m0 Conclusion: CDDA 100% Signature: 423580A30B3B5CB5936AF0B5B5BD908DB7E26D5DFILE: 03. I'm Every Girl (feat. Lou Bonnevie).flac Size: 22894870 Hash: A90BA398664F2488661EE3496338A576 Accuracy: -m0 Conclusion: CDDA 100% Signature: CA16E755FBD7356AE8E025823BB9B5877F95FCF4FILE: 04. Our Dance (feat. Lou Bonnevie).flac Size: 31838263 Hash: 78201B05E897691D17194A736C786CAC Accuracy: -m0 Conclusion: CDDA 100% Signature: 0764A6D4460CEA42779CEBFDBAF30E9B84D4B552FILE: 05. Excuse Me (feat. Lou Bonnevie).flac Size: 27777995 Hash: A49F0DA16E905B4AA1698BE14C1434E9 Accuracy: -m0 Conclusion: CDDA 100% Signature: 5A79B341EA327F00B8EA43F102A2D6BCD0B21396FILE: 06. Cry Cry Cry (feat. Lou Bonnevie).flac Size: 19726034 Hash: EC181AE9E86C756A447E197E87D9AF2F Accuracy: -m0 Conclusion: CDDA 99% Signature: BDDA2CCB90A3FF511D3B1805BBE49FD4D7FE8B09FILE: 07. Endless Dream.flac Size: 21734197 Hash: C8334DE110D5E884A796A26A6C3A9FA9 Accuracy: -m0 Conclusion: CDDA 100% Signature: 4767D0649B66F0D30D81AFEE8B5EDBE2A99D85B9FILE: 08. Never Given Up.flac Size: 24168202 Hash: 18D233EF5E8E4E12D9453983ADB27D71 Accuracy: -m0 Conclusion: CDDA 100% Signature: E0BF3F7AF35BAF66722BF5D655647D0BA3D79EF3FILE: 09. Turning Showbiz.flac Size: 26777783 Hash: 4BD1534DDCF2BEA54365416A4C212DB3 Accuracy: -m0 Conclusion: CDDA 100% Signature: E99F4D8BA8D92EC4AFDF9F751221639C03E15AC3FILE: 10. Endless Dream.flac Size: 15017727 Hash: B01242E23FC1670028E85B0EE4B63392 Accuracy: -m0 Conclusion: CDDA 100% Signature: 3195D288A4D8C4A321385FC5DEF34C8638369CA0
[CUETools log; Date: 10.06.2014 17:16:42; Version: 2.1.4][CTDB TOCID: EjzKO0Xr6ceY8aUzCAmFJgw8tno-] found.Track | CTDB Status 1 | (1/1) Accurately ripped 2 | (1/1) Accurately ripped 3 | (1/1) Accurately ripped 4 | (1/1) Accurately ripped 5 | (1/1) Accurately ripped 6 | (1/1) Accurately ripped 7 | (1/1) Accurately ripped 8 | (1/1) Accurately ripped 9 | (1/1) Accurately ripped 10 | (1/1) Accurately ripped[AccurateRip ID: 000d11a9-0069d18c-8d08390a] disk not present in database.

Track Peak [ CRC32 ] [W/O NULL] [ LOG ] -- 96,3 [0B9BEF51] [593C99FF] 01 96,3 [01A6BAA6] [63925B10] CRC32 02 63,7 [CB861AA8] [AD791B43] CRC32 03 83,9 [0C32B9DF] [F83FF829] CRC32 04 78,4 [62CF24B0] [83BF5359] CRC32 05 77,7 [1D7F9B1C] [1E88D6B4] CRC32 06 90,2 [4C2BA659] [A07709B4] CRC32 07 88,5 [9986DF1B] [DA5D5A3A] CRC32 08 86,8 [93933508] [E073752F] CRC32 09 92,0 [F90802BB] [A6797FD0] CRC32 10 45,1 [5433C32F] [DA8883CF] CRC32

[url=...3252417]R.G. Soundtracks[/url]

Трекер:  [ 27-Ноя-2014 11:00 ]

  

Скачать .torrent

Размер .torrent файла 21 KB


Размер: 807 MB
Хэш (hash) релиза: 4fbd0beacd74ce085f3892b50e06ca6e9970f9ce

Еще никто не оставлял запись к записи скачать торрент A.D.POLICE File Soundtrack . Будь первым!

!Обратная связь