Animation | Space Battleship Yamato 2010 Subtitle Indonesia | Документальные

Скачать через торрент музыку Воспоминания о будущем Memories бесплатно без регистрации torrent

Статистика раздачи
Размер:  435 MB   |    Зарегистрирован:  3 года 7 месяцев   |    .torrent скачан:  40 раз   |   
Раздают:  1  
   
загрузка...
 
Автор Сообщение

Galfimbul

avatar Galfimbul


Воспоминания о будущем / Memories
Композитор: Takkyu Ishino, Yoko Kanno, Jun Miyake and Hiroyuki Nagashima
Год выпуска: 1996 г.
Страна: Япония/США
Аудио кодек: FLAC (*.flac)
Тип рипа: tracks+.cue
Битрейт аудио: lossless
Продолжительность: 01:20:29
Наличие сканов в содержимом раздачи: нет
Prologue
01 - Takkyu Ishino - Prologue

Magnetic Rose
02 - Yoko Kanno - Chorale
03 - Yoko Kanno - Cosmos
04 - Yoko Kanno - Madama Butterfly
05 - Yoko Kanno - Memories
06 - Yoko Kanno - Sickness
07 - Yoko Kanno - Tosca
08 - Yoko Kanno - Radio / Mad Butterfly
09 - Yoko Kanno - Emily
10 - Yoko Kanno - End
11 - Yoko Kanno - Chorale (Reprise)

Stink Bomb
12 - Jun Miyake - Good Morning Yamanashi
13 - Jun Miyake - Nobuo's Groove I
14 - Jun Miyake - Capsule of Blue
15 - Jun Miyake - Sketches of Smell
16 - Jun Miyake - Six Steps to Heaven
17 - Jun Miyake - Nobuo's Groove I
18 - Jun Miyake - Mad Funny Balance Town
19 - Jun Miyake - Five Steps to Heaven
20 - Jun Miyake - Nobuo's Groove III
21 - Jun Miyake - Walkin'
22 - Jun Miyake - In a Smell Way
23 - Jun Miyake - Workin'
24 - Jun Miyake - Four Steps to Heaven
25 - Jun Miyake - Battle Dance
26 - Jun Miyake - At the Corner
27 - Jun Miyake - Someday Our Prince Will Come
28 - Jun Miyake - Relaxn'
29 - Jun Miyake - Ants
Exact Audio Copy V1.0 beta 2 from 29. April 2011

EAC extraction logfile from 15. July 2011, 16:37

Various / Memories OST

Used drive : HL-DT-STDVDRAM GH24LS50 Adapter: 3 ID: 0

Read mode : SecureUtilize accurate stream : YesDefeat audio cache : YesMake use of C2 pointers : No

Read offset correction : 667Overread into Lead-In and Lead-Out : NoFill up missing offset samples with silence : YesDelete leading and trailing silent blocks : NoNull samples used in CRC calculations : YesUsed interface : Native Win32 interface for Win NT & 2000Gap handling : Appended to previous track

Used output format : User Defined EncoderSelected bitrate : 128 kBit/sQuality : HighAdd ID3 tag : NoCommand line compressor : C:\Program Files (x86)\FLAC\flac.exeAdditional command line options : -V -8 -T "artist=%artist%" -T "title=%title%" -T "album=%albumtitle%" -T "date=%year%" -T "tracknumber=%tracknr%" -T "genre=%genre%" %source%

TOC of the extracted CD

Track | Start | Length | Start sector | End sector --------------------------------------------------------- 1 | 0:00.00 | 0:37.12 | 0 | 2786 2 | 0:37.12 | 4:02.72 | 2787 | 21008 3 | 4:40.09 | 2:45.56 | 21009 | 33439 4 | 7:25.65 | 1:59.16 | 33440 | 42380 5 | 9:25.06 | 3:28.09 | 42381 | 57989 6 | 12:53.15 | 3:38.35 | 57990 | 74374 7 | 16:31.50 | 2:01.56 | 74375 | 83505 8 | 18:33.31 | 5:25.29 | 83506 | 107909 9 | 23:58.60 | 2:36.31 | 107910 | 119640 10 | 26:35.16 | 3:24.34 | 119641 | 134974 11 | 29:59.50 | 2:00.25 | 134975 | 143999 12 | 32:00.00 | 0:45.23 | 144000 | 147397 13 | 32:45.23 | 1:41.36 | 147398 | 155008 14 | 34:26.59 | 0:37.00 | 155009 | 157783 15 | 35:03.59 | 0:41.05 | 157784 | 160863 16 | 35:44.64 | 1:54.52 | 160864 | 169465 17 | 37:39.41 | 1:15.24 | 169466 | 175114 18 | 38:54.65 | 1:14.10 | 175115 | 180674 19 | 40:09.00 | 1:18.72 | 180675 | 186596 20 | 41:27.72 | 1:10.67 | 186597 | 191913 21 | 42:38.64 | 1:07.07 | 191914 | 196945 22 | 43:45.71 | 1:48.68 | 196946 | 205113 23 | 45:34.64 | 1:26.69 | 205114 | 211632 24 | 47:01.58 | 1:24.60 | 211633 | 217992 25 | 48:26.43 | 3:07.41 | 217993 | 232058 26 | 51:34.09 | 1:14.38 | 232059 | 237646 27 | 52:48.47 | 2:45.43 | 237647 | 250064 28 | 55:34.15 | 1:37.10 | 250065 | 257349 29 | 57:11.25 | 1:44.52 | 257350 | 265201

Track 1

Filename C:\Users\Vince\Desktop\Memories Original Motion Picture Soundtrack\Memories OST Disc 1\01 Prologue.wav

Pre-gap length 0:00:02.00

Peak level 90.8 % Extraction speed 0.4 X Track quality 99.7 % Test CRC 30591DF6 Copy CRC 30591DF6 Accurately ripped (confidence 2) [348AE007] (AR v1) Copy OK

Track 2

Filename C:\Users\Vince\Desktop\Memories Original Motion Picture Soundtrack\Memories OST Disc 1\02 Chorale.wav

Peak level 98.9 % Extraction speed 1.1 X Track quality 100.0 % Test CRC 9AA805FC Copy CRC 9AA805FC Accurately ripped (confidence 2) [242CF8E7] (AR v1) Copy OK

Track 3

Filename C:\Users\Vince\Desktop\Memories Original Motion Picture Soundtrack\Memories OST Disc 1\03 Cosmos.wav

Peak level 48.5 % Extraction speed 1.2 X Track quality 100.0 % Test CRC B0153AF7 Copy CRC B0153AF7 Accurately ripped (confidence 2) [3DA2F2C2] (AR v1) Copy OK

Track 4

Filename C:\Users\Vince\Desktop\Memories Original Motion Picture Soundtrack\Memories OST Disc 1\04 Madama Butterfly.wav

Pre-gap length 0:00:00.01

Peak level 99.0 % Extraction speed 0.9 X Track quality 99.9 % Test CRC 38321C63 Copy CRC 38321C63 Accurately ripped (confidence 2) [CC9D206B] (AR v1) Copy OK

Track 5

Filename C:\Users\Vince\Desktop\Memories Original Motion Picture Soundtrack\Memories OST Disc 1\05 Memories.wav

Peak level 77.6 % Extraction speed 1.2 X Track quality 99.9 % Test CRC F7BF783F Copy CRC F7BF783F Accurately ripped (confidence 2) [A5485796] (AR v1) Copy OK

Track 6

Filename C:\Users\Vince\Desktop\Memories Original Motion Picture Soundtrack\Memories OST Disc 1\06 Sickness.wav

Peak level 83.7 % Extraction speed 1.3 X Track quality 99.9 % Test CRC F84A1B37 Copy CRC F84A1B37 Accurately ripped (confidence 2) [DAFDE892] (AR v1) Copy OK

Track 7

Filename C:\Users\Vince\Desktop\Memories Original Motion Picture Soundtrack\Memories OST Disc 1\07 Tosca.wav

Pre-gap length 0:00:00.01

Peak level 84.1 % Extraction speed 1.3 X Track quality 100.0 % Test CRC 32EA32B5 Copy CRC 32EA32B5 Accurately ripped (confidence 2) [00B32DE2] (AR v1) Copy OK

Track 8

Filename C:\Users\Vince\Desktop\Memories Original Motion Picture Soundtrack\Memories OST Disc 1\08 Radio~Mad Butterfly.wav

Peak level 99.2 % Extraction speed 1.7 X Track quality 100.0 % Test CRC 683CCC1A Copy CRC 683CCC1A Accurately ripped (confidence 2) [B3B9516E] (AR v1) Copy OK

Track 9

Filename C:\Users\Vince\Desktop\Memories Original Motion Picture Soundtrack\Memories OST Disc 1\09 Emily.wav

Peak level 99.1 % Extraction speed 1.6 X Track quality 100.0 % Test CRC 9F8E63CE Copy CRC 9F8E63CE Accurately ripped (confidence 2) [99FAE469] (AR v1) Copy OK

Track 10

Filename C:\Users\Vince\Desktop\Memories Original Motion Picture Soundtrack\Memories OST Disc 1\10 End.wav

Peak level 99.3 % Extraction speed 1.7 X Track quality 100.0 % Test CRC 00FC255A Copy CRC 00FC255A Accurately ripped (confidence 2) [498A608E] (AR v1) Copy OK

Track 11

Filename C:\Users\Vince\Desktop\Memories Original Motion Picture Soundtrack\Memories OST Disc 1\11 Chorale (Reprise).wav

Peak level 98.5 % Extraction speed 1.6 X Track quality 100.0 % Test CRC 38925E10 Copy CRC 38925E10 Accurately ripped (confidence 2) [8E4EEA92] (AR v1) Copy OK

Track 12

Filename C:\Users\Vince\Desktop\Memories Original Motion Picture Soundtrack\Memories OST Disc 1\12 Good Morning Yamanashi.wav

Peak level 99.2 % Extraction speed 1.1 X Track quality 100.0 % Test CRC E4654C27 Copy CRC E4654C27 Accurately ripped (confidence 2) [7F4E2ED6] (AR v1) Copy OK

Track 13

Filename C:\Users\Vince\Desktop\Memories Original Motion Picture Soundtrack\Memories OST Disc 1\13 Nobuo's Groove I.wav

Pre-gap length 0:00:00.01

Peak level 98.8 % Extraction speed 1.5 X Track quality 100.0 % Test CRC 4372CD02 Copy CRC 4372CD02 Accurately ripped (confidence 2) [2FA40094] (AR v1) Copy OK

Track 14

Filename C:\Users\Vince\Desktop\Memories Original Motion Picture Soundtrack\Memories OST Disc 1\14 Capsule of Blue.wav

Peak level 97.8 % Extraction speed 1.0 X Track quality 100.0 % Test CRC E07A6636 Copy CRC E07A6636 Accurately ripped (confidence 2) [49CFE88C] (AR v1) Copy OK

Track 15

Filename C:\Users\Vince\Desktop\Memories Original Motion Picture Soundtrack\Memories OST Disc 1\15 Sketches of Smell.wav

Peak level 98.2 % Extraction speed 1.0 X Track quality 100.0 % Test CRC C601F909 Copy CRC C601F909 Accurately ripped (confidence 2) [667FBD54] (AR v1) Copy OK

Track 16

Filename C:\Users\Vince\Desktop\Memories Original Motion Picture Soundtrack\Memories OST Disc 1\16 Six Steps to Heaven.wav

Peak level 98.8 % Extraction speed 1.7 X Track quality 100.0 % Test CRC 395B8ED4 Copy CRC 395B8ED4 Accurately ripped (confidence 2) [68A42037] (AR v1) Copy OK

Track 17

Filename C:\Users\Vince\Desktop\Memories Original Motion Picture Soundtrack\Memories OST Disc 1\17 Nobuo's Groove II.wav

Peak level 98.8 % Extraction speed 1.1 X Track quality 99.8 % Test CRC 8CEF92F4 Copy CRC 8CEF92F4 Accurately ripped (confidence 2) [53D8B864] (AR v1) Copy OK

Track 18

Filename C:\Users\Vince\Desktop\Memories Original Motion Picture Soundtrack\Memories OST Disc 1\18 Mad Funny Balance Town.wav

Peak level 88.3 % Extraction speed 1.5 X Track quality 100.0 % Test CRC CF1AC87C Copy CRC CF1AC87C Accurately ripped (confidence 2) [03509249] (AR v1) Copy OK

Track 19

Filename C:\Users\Vince\Desktop\Memories Original Motion Picture Soundtrack\Memories OST Disc 1\19 Five Steps to Heaven.wav

Peak level 99.7 % Extraction speed 1.5 X Track quality 100.0 % Test CRC 2BA40069 Copy CRC 2BA40069 Accurately ripped (confidence 2) [5B5B884D] (AR v1) Copy OK

Track 20

Filename C:\Users\Vince\Desktop\Memories Original Motion Picture Soundtrack\Memories OST Disc 1\20 Nobuo's Groove III.wav

Peak level 98.8 % Extraction speed 1.4 X Track quality 100.0 % Test CRC 73EB4218 Copy CRC 73EB4218 Accurately ripped (confidence 2) [1D6F8DEC] (AR v1) Copy OK

Track 21

Filename C:\Users\Vince\Desktop\Memories Original Motion Picture Soundtrack\Memories OST Disc 1\21 Walkin'.wav

Peak level 99.0 % Extraction speed 1.5 X Track quality 100.0 % Test CRC D99A2479 Copy CRC D99A2479 Accurately ripped (confidence 2) [B4709537] (AR v1) Copy OK

Track 22

Filename C:\Users\Vince\Desktop\Memories Original Motion Picture Soundtrack\Memories OST Disc 1\22 In a Smell Way.wav

Peak level 99.4 % Extraction speed 1.3 X Track quality 99.9 % Test CRC 12CC753D Copy CRC 12CC753D Accurately ripped (confidence 2) [F6F010F3] (AR v1) Copy OK

Track 23

Filename C:\Users\Vince\Desktop\Memories Original Motion Picture Soundtrack\Memories OST Disc 1\23 Workin'.wav

Peak level 99.6 % Extraction speed 1.6 X Track quality 100.0 % Test CRC 99018BE7 Copy CRC 99018BE7 Accurately ripped (confidence 2) [3D9BF4EB] (AR v1) Copy OK

Track 24

Filename C:\Users\Vince\Desktop\Memories Original Motion Picture Soundtrack\Memories OST Disc 1\24 Four Steps to Heaven.wav

Peak level 99.5 % Extraction speed 1.7 X Track quality 100.0 % Test CRC ED3E56D1 Copy CRC ED3E56D1 Accurately ripped (confidence 2) [BC33D615] (AR v1) Copy OK

Track 25

Filename C:\Users\Vince\Desktop\Memories Original Motion Picture Soundtrack\Memories OST Disc 1\25 Battle Dance.wav

Peak level 97.7 % Extraction speed 1.7 X Track quality 99.9 % Test CRC B3F11E4D Copy CRC B3F11E4D Accurately ripped (confidence 2) [DBCA9C9B] (AR v1) Copy OK

Track 26

Filename C:\Users\Vince\Desktop\Memories Original Motion Picture Soundtrack\Memories OST Disc 1\26 At the Corner.wav

Peak level 98.9 % Extraction speed 1.6 X Track quality 100.0 % Test CRC C099BA46 Copy CRC C099BA46 Accurately ripped (confidence 2) [925E3332] (AR v1) Copy OK

Track 27

Filename C:\Users\Vince\Desktop\Memories Original Motion Picture Soundtrack\Memories OST Disc 1\27 Someday Our Prince Will Come.wav

Peak level 99.0 % Extraction speed 2.0 X Track quality 100.0 % Test CRC 6A6D447C Copy CRC 6A6D447C Accurately ripped (confidence 2) [0F37C8B1] (AR v1) Copy OK

Track 28

Filename C:\Users\Vince\Desktop\Memories Original Motion Picture Soundtrack\Memories OST Disc 1\28 Relaxn'.wav

Peak level 98.8 % Extraction speed 1.8 X Track quality 100.0 % Test CRC A8A987CD Copy CRC A8A987CD Accurately ripped (confidence 2) [92E50A0C] (AR v1) Copy OK

Track 29

Filename C:\Users\Vince\Desktop\Memories Original Motion Picture Soundtrack\Memories OST Disc 1\29 Ants.wav

Peak level 99.1 % Extraction speed 1.9 X Track quality 100.0 % Test CRC A3CB806B Copy CRC A3CB806B Accurately ripped (confidence 2) [F581CC91] (AR v1) Copy OK

All tracks accurately ripped

No errors occurred

End of status report
-----------------------

DON'T MODIFY THIS FILE

-----------------------

PERFORMER: auCDtect Task Manager, ver. 1.6.0 RC1 build 1.6.0.1Copyright (c) 2008-2010 y-soft. All rights reservedhttp://y-soft.org

ANALYZER: auCDtect: CD records authenticity detector, version 0.8.2Copyright (c) 2004 Oleg Berngardt. All rights reserved.Copyright (c) 2004 Alexander Djourik. All rights reserved.

FILE: 29 Ants.flac Size: 10100947 Hash: A3ACA293A6B28747ADF01A09022EEE3D Accuracy: -m0 Conclusion: CDDA 100% Signature: 9CE8839E4D586F3C67CB2E8B0CBF7270A7F21B0DFILE: 28 Relaxn'.flac Size: 9079460 Hash: 36B629641E30B2B5E650BF92C42AF66E Accuracy: -m0 Conclusion: CDDA 100% Signature: 58BB75460AD1421C5738F21F7E175405A253E29CFILE: 27 Someday Our Prince Will Come.flac Size: 16562776 Hash: 7D99E7783A02F4A80934851DE97DD2D4 Accuracy: -m0 Conclusion: CDDA 100% Signature: D3DA9E8277ADEF45B9DC44A4AFCB5109C7A78ADBFILE: 26 At the Corner.flac Size: 6777610 Hash: 40015B62D1225539A16B26B304FD3D5E Accuracy: -m0 Conclusion: CDDA 100% Signature: EA99440CC0FED895B6EFEFF2B20CC7578204967FFILE: 25 Battle Dance.flac Size: 23828021 Hash: D8070A8CADDE56C13F3441EF5EB83738 Accuracy: -m0 Conclusion: CDDA 100% Signature: 4D2272BEF061E86B43A5893A406095770DB18024FILE: 24 Four Steps to Heaven.flac Size: 8591596 Hash: 81A9D2EF9B6C7225C82EB64C0C05D063 Accuracy: -m0 Conclusion: CDDA 100% Signature: D1F59C06AA0DF0A9B5D5659309803A08BF750BF9FILE: 23 Workin'.flac Size: 8686888 Hash: 836B50FBA2D991BE8F69AE48A73E1BAA Accuracy: -m0 Conclusion: CDDA 100% Signature: 455A20BDE7146052DA5DD579AE3F9732BFFBA767FILE: 22 In a Smell Way.flac Size: 10730594 Hash: 96F7A8391971F0BCA8AD9C8554579527 Accuracy: -m0 Conclusion: CDDA 100% Signature: DCA755AF3BE2ED1198C0A9D0DF018D42D076A9A3FILE: 21 Walkin'.flac Size: 6450951 Hash: 3DE9ACEFD92F7BF1D5C5CEE7A79D488B Accuracy: -m0 Conclusion: CDDA 100% Signature: 0D5832D6D2477BE9D7DFACD893878CE2BB891AC8FILE: 20 Nobuo's Groove III.flac Size: 8050321 Hash: B890AF382CD00F22EB457FDDE9C2113B Accuracy: -m0 Conclusion: CDDA 100% Signature: 20E5934367B4DCDFB8A6637670B7EBE8064B0776FILE: 19 Five Steps to Heaven.flac Size: 8209691 Hash: 7DB374A9F04AC59B7A5719DD5022E594 Accuracy: -m0 Conclusion: CDDA 100% Signature: BCD4D6A20AA4A0D6A5A5005A45014C74205B0ED5FILE: 18 Mad Funny Balance Town.flac Size: 8256579 Hash: 5F7FDCE298DC776D6BACCEB6C051C9AA Accuracy: -m0 Conclusion: CDDA 100% Signature: 903D092B38F5CD8C46DFAB09CC8EDD9DEC88CB3CFILE: 17 Nobuo's Groove II.flac Size: 8437284 Hash: 30EFA166E9BA62C6F1C3B783C3426A95 Accuracy: -m0 Conclusion: CDDA 100% Signature: 697E5D939DAF5A1CC62E13E970CEC176D30F13C5FILE: 16 Six Steps to Heaven.flac Size: 12918499 Hash: D9184C50E9BAFDF3C7399FD60E00A109 Accuracy: -m0 Conclusion: CDDA 100% Signature: 8E53888E1C4F6D623D7A2EB7B94A71645C8565A8FILE: 15 Sketches of Smell.flac Size: 3977134 Hash: C5F1256D89979C312B1CD1056C28E844 Accuracy: -m0 Conclusion: CDDA 100% Signature: B6A56A53AC7C7637350BBEE3487B8462AB99676BFILE: 14 Capsule of Blue.flac Size: 3242910 Hash: 3901987B1BAFBF67CFA8186ABEF84AFE Accuracy: -m0 Conclusion: CDDA 99% Signature: 83570B53121AEA3B3C6FFA1803969AC36998BE24FILE: 13 Nobuo's Groove I.flac Size: 12128112 Hash: F47675C48F8D533C3623A7ECA8E08495 Accuracy: -m0 Conclusion: CDDA 100% Signature: 0765962A9533C37627ACB58D0056CB688934D6C0FILE: 12 Good Morning Yamanashi.flac Size: 4044191 Hash: C6DF8AF9CE90921C58D2DFF8A1B959CD Accuracy: -m0 Conclusion: CDDA 100% Signature: 13AF29DBB5A6D229BA43312F8A29A8A73AC84E94FILE: 11 Chorale (Reprise).flac Size: 9780511 Hash: 95D13C5BC3C7C28FB093CD0D508A36A0 Accuracy: -m0 Conclusion: CDDA 100% Signature: FDDFC7B1F444C0DA621344F4FCE5C1DA006C4B31FILE: 10 End.flac Size: 18192867 Hash: A85CC5FA4A19E5267B6F06D02B971F10 Accuracy: -m0 Conclusion: CDDA 100% Signature: D11C2389B07084B582FBF6E226D04CA46D2F2F6EFILE: 09 Emily.flac Size: 13157432 Hash: 00A83FFB608901287FC6BA4488CD72AE Accuracy: -m0 Conclusion: CDDA 100% Signature: A6C315981D8E32A61D9B7B1EF664A565735D0530FILE: 08 Radio~Mad Butterfly.flac Size: 28624402 Hash: 4B34A8E50681310535B170250723EBD5 Accuracy: -m0 Conclusion: CDDA 100% Signature: 8E6AC0A8A25CDB3CAF31E59DD6DB67AAD3E675F2FILE: 07 Tosca.flac Size: 7655377 Hash: 58E4092B6742649DDA747A18D6AA5E8F Accuracy: -m0 Conclusion: CDDA 100% Signature: 297370F9F875E89360DDC9D280AD1CF0DCA1AEBAFILE: 06 Sickness.flac Size: 17761322 Hash: 97D268026A81CEF434EE7C69ACB8C1C0 Accuracy: -m0 Conclusion: CDDA 100% Signature: 46969F8669788506A3748EC6EB03DCB24AB987E7FILE: 05 Memories.flac Size: 17353707 Hash: 933DF020C1830F98CCC13F3D368DC090 Accuracy: -m0 Conclusion: CDDA 100% Signature: 464F84C5E5C19203BDE8DF76ADFB968023E2BD78FILE: 04 Madama Butterfly.flac Size: 10570504 Hash: 090332B5166EEAAA22AA5569F0992047 Accuracy: -m0 Conclusion: CDDA 99% Signature: 397D7258A3322B9589A07646142E14F496968CE1FILE: 03 Cosmos.flac Size: 10935171 Hash: 7C94102DE9FF516306CA76F81BE2BE8A Accuracy: -m0 Conclusion: CDDA 100% Signature: F22347827F70556F867EADAAE4A7B7A077A38E0FFILE: 02 Chorale.flac Size: 19396290 Hash: C168B49A797C538EA6124B427FEB425C Accuracy: -m0 Conclusion: CDDA 100% Signature: 71F593266A8D3BFD6733B8E547FEF7752DE21238FILE: 01 Prologue.flac Size: 2482765 Hash: 15083591071E09E65B0A8E26B3EDD8F4 Accuracy: -m0 Conclusion: CDDA 100% Signature: F84CE640F4809518261E5E286BA45C6378811161
Cannon Fodder
01 - Hiroyuki Nagashima - A Boy and a Portrait
02 - Hiroyuki Nagashima - Morning in the City
03 - Hiroyuki Nagashima - Song of the Soldiers
04 - Hiroyuki Nagashima - A Boy's Dream
05 - Hiroyuki Nagashima - The Cannon's Fanfare
06 - Hiroyuki Nagashima - Gun Crew's March
07 - Hiroyuki Nagashima - Lunch Time
08 - Hiroyuki Nagashima - The Cannon's Fanfare (Reprise)
09 - Hiroyuki Nagashima - Disciplinary Measures
10 - Hiroyuki Nagashima - Evening Falls
11 - Hiroyuki Nagashima - A Boy and a Portrait (Reprise)

In Yer Memory
12 - Takkyu Ishino - In Yer Memory
Exact Audio Copy V1.0 beta 2 from 29. April 2011

EAC extraction logfile from 15. July 2011, 17:23

Various / Memories - OST (Disk #2)

Used drive : HL-DT-STDVDRAM GH24LS50 Adapter: 3 ID: 0

Read mode : SecureUtilize accurate stream : YesDefeat audio cache : YesMake use of C2 pointers : No

Read offset correction : 667Overread into Lead-In and Lead-Out : NoFill up missing offset samples with silence : YesDelete leading and trailing silent blocks : NoNull samples used in CRC calculations : YesUsed interface : Native Win32 interface for Win NT & 2000Gap handling : Appended to previous track

Used output format : User Defined EncoderSelected bitrate : 128 kBit/sQuality : HighAdd ID3 tag : NoCommand line compressor : C:\Program Files (x86)\FLAC\flac.exeAdditional command line options : -V -8 -T "artist=%artist%" -T "title=%title%" -T "album=%albumtitle%" -T "date=%year%" -T "tracknumber=%tracknr%" -T "genre=%genre%" %source%

TOC of the extracted CD

Track | Start | Length | Start sector | End sector --------------------------------------------------------- 1 | 0:00.00 | 0:22.58 | 0 | 1707 2 | 0:22.58 | 1:49.17 | 1708 | 9899 3 | 2:12.00 | 0:35.54 | 9900 | 12578 4 | 2:47.54 | 0:53.49 | 12579 | 16602 5 | 3:41.28 | 4:07.04 | 16603 | 35131 6 | 7:48.32 | 2:13.58 | 35132 | 45164 7 | 10:02.15 | 1:50.32 | 45165 | 53446 8 | 11:52.47 | 0:29.07 | 53447 | 55628 9 | 12:21.54 | 0:37.05 | 55629 | 58408 10 | 12:58.59 | 0:39.22 | 58409 | 61355 11 | 13:38.06 | 1:19.68 | 61356 | 67348 12 | 14:57.74 | 6:35.20 | 67349 | 96993

Track 1

Filename C:\Users\Vince\Desktop\Memories Original Motion Picture Soundtrack\Memories OST Disc 2\01 A Boy and a Portrait.wav

Pre-gap length 0:00:02.00

Peak level 98.8 % Extraction speed 0.4 X Track quality 100.0 % Test CRC 62E7C952 Copy CRC 62E7C952 Accurately ripped (confidence 2) [67BFE36C] (AR v1) Copy OK

Track 2

Filename C:\Users\Vince\Desktop\Memories Original Motion Picture Soundtrack\Memories OST Disc 2\02 Morning in the City.wav

Peak level 99.0 % Extraction speed 0.7 X Track quality 99.9 % Test CRC 058FE88A Copy CRC 058FE88A Accurately ripped (confidence 2) [602F19B7] (AR v1) Copy OK

Track 3

Filename C:\Users\Vince\Desktop\Memories Original Motion Picture Soundtrack\Memories OST Disc 2\03 Song of the Soldiers.wav

Peak level 99.0 % Extraction speed 0.6 X Track quality 100.0 % Test CRC 741C7987 Copy CRC 741C7987 Accurately ripped (confidence 2) [CB8BA937] (AR v1) Copy OK

Track 4

Filename C:\Users\Vince\Desktop\Memories Original Motion Picture Soundtrack\Memories OST Disc 2\04 A Boy's Dream.wav

Peak level 99.1 % Extraction speed 0.7 X Track quality 100.0 % Test CRC 546F7217 Copy CRC 546F7217 Accurately ripped (confidence 2) [4ACB429C] (AR v1) Copy OK

Track 5

Filename C:\Users\Vince\Desktop\Memories Original Motion Picture Soundtrack\Memories OST Disc 2\05 The Cannon's Fanfare.wav

Peak level 99.3 % Extraction speed 1.3 X Track quality 100.0 % Test CRC FE12185C Copy CRC FE12185C Accurately ripped (confidence 2) [CB4D3709] (AR v1) Copy OK

Track 6

Filename C:\Users\Vince\Desktop\Memories Original Motion Picture Soundtrack\Memories OST Disc 2\06 Gun Crew's March.wav

Peak level 99.3 % Extraction speed 1.0 X Track quality 99.9 % Test CRC 80635E7E Copy CRC 80635E7E Accurately ripped (confidence 2) [858034D8] (AR v1) Copy OK

Track 7

Filename C:\Users\Vince\Desktop\Memories Original Motion Picture Soundtrack\Memories OST Disc 2\07 Lunch Time.wav

Peak level 82.3 % Extraction speed 1.1 X Track quality 100.0 % Test CRC E5AFE6CB Copy CRC E5AFE6CB Accurately ripped (confidence 2) [93DFBDFB] (AR v1) Copy OK

Track 8

Filename C:\Users\Vince\Desktop\Memories Original Motion Picture Soundtrack\Memories OST Disc 2\08 The Cannon's Fanfare (Reprise).wav

Peak level 99.2 % Extraction speed 0.6 X Track quality 100.0 % Test CRC 111FA9C0 Copy CRC 111FA9C0 Accurately ripped (confidence 2) [D78BC520] (AR v1) Copy OK

Track 9

Filename C:\Users\Vince\Desktop\Memories Original Motion Picture Soundtrack\Memories OST Disc 2\09 Disciplinary Measures.wav

Peak level 99.4 % Extraction speed 0.7 X Track quality 100.0 % Test CRC B28AD1E1 Copy CRC B28AD1E1 Accurately ripped (confidence 2) [78739893] (AR v1) Copy OK

Track 10

Filename C:\Users\Vince\Desktop\Memories Original Motion Picture Soundtrack\Memories OST Disc 2\10 Evening Falls.wav

Peak level 98.7 % Extraction speed 0.8 X Track quality 100.0 % Test CRC 4E131604 Copy CRC 4E131604 Accurately ripped (confidence 2) [4EF04049] (AR v1) Copy OK

Track 11

Filename C:\Users\Vince\Desktop\Memories Original Motion Picture Soundtrack\Memories OST Disc 2\11 A Boy and a Portrait (Reprise).wav

Peak level 99.2 % Extraction speed 1.1 X Track quality 100.0 % Test CRC F646567E Copy CRC F646567E Accurately ripped (confidence 2) [C97F0B78] (AR v1) Copy OK

Track 12

Filename C:\Users\Vince\Desktop\Memories Original Motion Picture Soundtrack\Memories OST Disc 2\12 In Yer Memory.wav

Peak level 99.5 % Extraction speed 1.7 X Track quality 100.0 % Test CRC EF7BAC42 Copy CRC EF7BAC42 Accurately ripped (confidence 2) [9CCBC823] (AR v1) Copy OK

All tracks accurately ripped

No errors occurred

End of status report
-----------------------

DON'T MODIFY THIS FILE

-----------------------

PERFORMER: auCDtect Task Manager, ver. 1.6.0 RC1 build 1.6.0.1Copyright (c) 2008-2010 y-soft. All rights reservedhttp://y-soft.org

ANALYZER: auCDtect: CD records authenticity detector, version 0.8.2Copyright (c) 2004 Oleg Berngardt. All rights reserved.Copyright (c) 2004 Alexander Djourik. All rights reserved.

FILE: 12 In Yer Memory.flac Size: 43345441 Hash: 3E590077C00DAE6DDD967E8CC62BB698 Accuracy: -m0 Conclusion: CDDA 100% Signature: D7C0136215912FC76CC9E9D3CF1FFDDDB0370B1CFILE: 11 A Boy and a Portrait (Reprise).flac Size: 7875492 Hash: 30E8506F336DC7C8FDC38B5C71C8E42A Accuracy: -m0 Conclusion: CDDA 99% Signature: 40FFB3F7327E95D71611495BBF76E0829BCDB10DFILE: 10 Evening Falls.flac Size: 3470772 Hash: AFD82D7D7909116608A4BBD9694C46C0 Accuracy: -m0 Conclusion: CDDA 100% Signature: F522656C9388A1BA7C4549E1EC3C67F9859EFE46FILE: 09 Disciplinary Measures.flac Size: 3787957 Hash: 0AE8BFAE29FDFCE3AC3D2016F3C785ED Accuracy: -m0 Conclusion: CDDA 100% Signature: EEC063D5988EB1B62BD4A33F899ECABE763CED1CFILE: 08 The Cannon's Fanfare (Reprise).flac Size: 3062162 Hash: 8150B563B326F6B6AA47D58437D9E9C5 Accuracy: -m0 Conclusion: CDDA 100% Signature: AFA743DAC76F55A28E73CC990CEBD39E77A1D0CFFILE: 07 Lunch Time.flac Size: 10442694 Hash: 6E5B7364F9EF0104572ACD9C55463880 Accuracy: -m0 Conclusion: CDDA 100% Signature: D316118C525A16BC66750632DB833F0BCF075378FILE: 06 Gun Crew's March.flac Size: 13195495 Hash: FD7EF8C4711F69D3CEFFD3B76F4F40CD Accuracy: -m0 Conclusion: CDDA 100% Signature: 7156031508715D147AB273EE81542908E8AE919DFILE: 05 The Cannon's Fanfare.flac Size: 24996171 Hash: 12A54F61C1BDEDEFEF4D6D6151E770DB Accuracy: -m0 Conclusion: CDDA 100% Signature: 165AF17A7D4116BE01A4EE33D59DD8B0A5DCCAB5FILE: 04 A Boy's Dream.flac Size: 4872485 Hash: 60AF9BEF3E6698CA6FA60946DDA8F6E7 Accuracy: -m0 Conclusion: CDDA 100% Signature: D3309B0B094BB420F9318B260F5C84E41FD64470FILE: 03 Song of the Soldiers.flac Size: 2861110 Hash: 66426419078182CA8440C64B0D8916C2 Accuracy: -m0 Conclusion: CDDA 99% Signature: BBB9BC1CA22F3E798B04E33C77F08990E9D2291DFILE: 02 Morning in the City.flac Size: 9896801 Hash: BEAA5E64458FD4108ECBF4302C395154 Accuracy: -m0 Conclusion: CDDA 100% Signature: F0CBD082B5B06319F78D4DF1C8ABA5322E300B5EFILE: 01 A Boy and a Portrait.flac Size: 2253564 Hash: 97BEE3EECC0260DC36AADBE7650D7F11 Accuracy: -m0 Conclusion: CDDA 100% Signature: B475065B4EB2F30AE58CE4DDE679DB66E202C335
Доп. информация: ребята, первый раз в этом разделе делаю. если что не так - не ругайте)

Трекер:  [ 27-Ноя-2014 11:00 ]

  

Скачать .torrent

Размер .torrent файла 20 KB


Размер: 435 MB
Хэш (hash) релиза: 6b352ea2d91c3697c71a8e7b00866a8cd2e29c3f

Еще никто не оставлял запись к записи скачать торрент Воспоминания о будущем Memories . Будь первым!

!Обратная связь