The X Files 10.Sezon | Télécharger La Momie (2017) | Jonathan Rhys Meyers

Скачать через торрент музыку Chuunibyou demo Koi ga Shitai! Chunibyo demo Koi ga Shitai! бесплатно без регистрации torrent

Статистика раздачи
Размер:  5.34 GB   |    Зарегистрирован:  3 года 7 месяцев   |    .torrent скачан:  46 раз   |   
Раздают:  1  
   
загрузка...
 
Автор Сообщение

Galfimbul

avatar Galfimbul


Chuunibyou demo Koi ga Shitai! / Chunibyo demo Koi ga Shitai! / Regardless of My Adolescent Delusions of Grandeur, I Want a Date! / 中二病でも恋がしたい!
Год выпуска: 2012-2014 г.
Страна: Япония
Продолжительность: 9.27.58
Аудио кодек: FLAC (*.flac)
Тип рипа: image+.cue
Описание: раздача музыки, связанной с аниме Chuunibyou demo Koi ga Shitai!.
Обновляться будет по мере появления дисков в сети.
[spoiler="[AR] Chuunibyou Demo Koi ga Shitai OP Single - Sparking Daydream [ZAQ]"]
Дата выпуска: 24 октября 2012 г.
Каталог: LACM-34012
Тип рипа: image+.cue
Продолжительность: 16.17
Наличие сканов в содержимом раздачи: да
Треклист:
1) Sparkling Daydream;
2) Monochrome Monster;
3) Inside Identity;
4) Sparkling Daydream (off Vocal).
Exact Audio Copy V1.0 beta 3 from 29. August 2011

EAC extraction logfile from 23. October 2012, 14:39

ZAQ / Sparkling Daydream

Used drive : SlimtypeDVD A DS8A5SH Adapter: 0 ID: 0

www.astost.comMGRT encoded by Act_yego & nalanchenRead mode : SecureUtilize accurate stream : YesDefeat audio cache : YesMake use of C2 pointers : No

Read offset correction : 6Overread into Lead-In and Lead-Out : NoFill up missing offset samples with silence : YesDelete leading and trailing silent blocks : NoNull samples used in CRC calculations : YesUsed interface : Native Win32 interface for Win NT & 2000

Used output format : Internal WAV RoutinesSample format : 44.100 Hz; 16 Bit; Stereo

TOC of the extracted CD

Track | Start | Length | Start sector | End sector --------------------------------------------------------- 1 | 0:00.00 | 4:09.73 | 0 | 18747 2 | 4:09.73 | 3:33.46 | 18748 | 34768 3 | 7:43.44 | 4:22.47 | 34769 | 54465 4 | 12:06.16 | 4:10.52 | 54466 | 73267

Range status and errors

Selected range

Filename D:\Act_yego\encoded\1023\Sparkling Daydream\ZAQ - Sparkling Daydream.wav

Peak level 98.8 % Extraction speed 3.3 X Range quality 100.0 % Copy CRC 60A0E349 Copy OK

No errors occurred

AccurateRip summary

Track 1 not present in databaseTrack 2 not present in databaseTrack 3 not present in databaseTrack 4 not present in database

None of the tracks are present in the AccurateRip database

End of status report

---- CUETools DB Plugin V2.1.3

[CTDB TOCID: AvAJehoUPLiqsk2mvEb7ySy5dEM-] disk not present in database, Submit result: AvAJehoUPLiqsk2mvEb7ySy5dEM- has been uploaded

==== Log checksum 3D9C41340570D92E7FEB0CF194676256E1D8063D6B5E2FE4B6D6C5F49076EF0A ====
Video Attributes:
Video compression mode: MPEG-2
TV system: 525/60 (NTSC)
Aspect Ratio: 16:9
Display Mode: Both Pan&scan and Letterbox
Source picture resolution: 720x480 (525/60)
Frame Rate: 30.00
Source picture letterboxed: Not letterboxed

Audio Attributes:
Audio Coding mode: LPCM
Sampling Rate: 48kHz
Audio application mode: Not Specified
Number of Audio channels: 2.0
Bitrate: 1536 Kbps
Number of Audio streams: 1
[spoiler="[AR] Chuunibyou Demo Koi ga Shitai ED Single - INSIDE INDETITY [Black Raison detre (Uchida Maaya, Akasaki Chinatsu, Asakura Azumi, Uesaka Sumire)]"]
Дата выпуска: 21 ноября 2012 г.
Каталог: LACM-14026
Тип рипа: image+.cue
Продолжительность: 17.13
Наличие сканов в содержимом раздачи: да
Треклист:
1) INSIDE IDENTITY;
2) OUTSIDER;
3) INSIDE IDENTITY (off vocal);
4) OUTSIDER (off vocal).
Exact Audio Copy V1.0 beta 3 from 29. August 2011

EAC extraction logfile from 18. November 2012, 12:44

Black Raison detre(内田真礼・赤崎千夏・浅倉杏美・上坂すみれ) / INSIDE IDENTITY

Used drive : SlimtypeBD E DS4E1S Adapter: 0 ID: 2

Read mode : SecureUtilize accurate stream : YesDefeat audio cache : YesMake use of C2 pointers : Yes

Read offset correction : 6Overread into Lead-In and Lead-Out : NoFill up missing offset samples with silence : YesDelete leading and trailing silent blocks : NoNull samples used in CRC calculations : YesUsed interface : Native Win32 interface for Win NT & 2000

Used output format : Internal WAV RoutinesSample format : 44.100 Hz; 16 Bit; Stereo

TOC of the extracted CD

Track | Start | Length | Start sector | End sector --------------------------------------------------------- 1 | 0:00.00 | 4:22.10 | 0 | 19659 2 | 4:22.10 | 4:15.05 | 19660 | 38789 3 | 8:37.15 | 4:22.05 | 38790 | 58444 4 | 12:59.20 | 4:13.38 | 58445 | 77457

Range status and errors

Selected range

Filename D:\图片\Black Raison detre(内田真礼・赤崎千夏・浅倉杏美・上坂すみれ) - INSIDE IDENTITY.wav

Peak level 100.0 % Extraction speed 5.1 X Range quality 100.0 % Test CRC 982051CF Copy CRC 982051CF Copy OK

No errors occurred

End of status report

==== Log checksum 055BBE47776B861D11A67132C3E8220EF3397C8D77691DA271B835151D9B630B ====
[/spoiler]
[spoiler="[AR] Chuunibyou Demo Koi ga Shitai Vocal Mini Album Dark Iris Musical Grammar"]
Дата выпуска: 26 декабря 2012 г.
Каталог: LACA-15262
Тип рипа: image+.cue
Продолжительность: 23.53
Наличие сканов в содержимом раздачи: да
Треклист:
1) Kimi e (Chuunibyou demo Koi ga Shitai! Lite OP Theme);
2) Kakusei Ragnarok -Ankoku Mokushiroku-;
3) Deinabayotte☆Masarimo;
4) Hirune-bu Diary;
5) Dark Death Decoration;
6) Shikkoku ni Odoru Kodaku Haou-bushi (Chuunibyou demo Koi ga Shitai! Lite ED Theme).
Exact Audio Copy V1.0 beta 3 from 29. August 2011

EAC extraction logfile from 22. December 2012, 18:02

小鳥遊六花 , 丹生谷森夏, 五月七日くみん, 凸守早苗, ZAQ / TVアニメ『中二病でも恋がしたい』ボーカルミニアルバム暗黒虹彩楽典

Used drive : TSSTcorpDVD+-RW TS-L633C Adapter: 0 ID: 1

Read mode : SecureUtilize accurate stream : YesDefeat audio cache : NoMake use of C2 pointers : Yes

Read offset correction : 0Overread into Lead-In and Lead-Out : NoFill up missing offset samples with silence : YesDelete leading and trailing silent blocks : NoNull samples used in CRC calculations : YesUsed interface : Native Win32 interface for Win NT & 2000

Used output format : Internal WAV RoutinesSample format : 44.100 Hz; 16 Bit; Stereo

TOC of the extracted CD

Track | Start | Length | Start sector | End sector --------------------------------------------------------- 1 | 0:00.00 | 3:06.47 | 0 | 13996 2 | 3:06.47 | 4:12.06 | 13997 | 32902 3 | 7:18.53 | 4:39.15 | 32903 | 53842 4 | 11:57.68 | 4:39.55 | 53843 | 74822 5 | 16:37.48 | 3:50.32 | 74823 | 92104 6 | 20:28.05 | 3:25.14 | 92105 | 107493

Range status and errors

Selected range

Filename C:\Users\Kozakai Nozomi\Music\小鳥遊六花 , 丹生谷森夏, 五月七日くみん, 凸守早苗, ZAQ\小鳥遊六花 , 丹生谷森夏, 五月七日くみん, 凸守早苗, ZAQ - TVアニメ『中二病でも恋がしたい』ボーカルミニアルバム暗黒虹彩楽典.wav

Peak level 100.0 % Extraction speed 9.9 X Range quality 100.0 % Copy CRC 0DE8CBE4 Copy OK

No errors occurred

End of status report

==== Log checksum 82EC5CD550A17137AADDBC666302D488CD73631012475F09D7FFEC9BD12792EE ====

------------------------------------------------------------

Exact Audio Copy V1.0 beta 3 from 29. August 2011

EAC extraction logfile from 22. December 2012, 18:02

小鳥遊六花 , 丹生谷森夏, 五月七日くみん, 凸守早苗, ZAQ / TVアニメ『中二病でも恋がしたい』ボーカルミニアルバム暗黒虹彩楽典

Used drive : TSSTcorpDVD+-RW TS-L633C Adapter: 0 ID: 1

Read mode : SecureUtilize accurate stream : YesDefeat audio cache : NoMake use of C2 pointers : Yes

Read offset correction : 0Overread into Lead-In and Lead-Out : NoFill up missing offset samples with silence : YesDelete leading and trailing silent blocks : NoNull samples used in CRC calculations : YesUsed interface : Native Win32 interface for Win NT & 2000

Used output format : Internal WAV RoutinesSample format : 44.100 Hz; 16 Bit; Stereo

TOC of the extracted CD

Track | Start | Length | Start sector | End sector --------------------------------------------------------- 1 | 0:00.00 | 3:06.47 | 0 | 13996 2 | 3:06.47 | 4:12.06 | 13997 | 32902 3 | 7:18.53 | 4:39.15 | 32903 | 53842 4 | 11:57.68 | 4:39.55 | 53843 | 74822 5 | 16:37.48 | 3:50.32 | 74823 | 92104 6 | 20:28.05 | 3:25.14 | 92105 | 107493

Range status and errors

Selected range

Filename C:\Users\Kozakai Nozomi\Music\小鳥遊六花 , 丹生谷森夏, 五月七日くみん, 凸守早苗, ZAQ\小鳥遊六花 , 丹生谷森夏, 五月七日くみん, 凸守早苗, ZAQ - TVアニメ『中二病でも恋がしたい』ボーカルミニアルバム暗黒虹彩楽典.wav

Peak level 100.0 % Extraction speed 9.9 X Range quality 100.0 % Copy CRC 0DE8CBE4 Copy OK

No errors occurred

End of status report

==== Log checksum 82EC5CD550A17137AADDBC666302D488CD73631012475F09D7FFEC9BD12792EE ====
[/spoiler]
Дата выпуска: 09 января 2013 г.
Каталог: LACA-9258~9
Тип рипа: image+.cue
Продолжительность: 1.31.00
Наличие сканов в содержимом раздачи: да
Продолжительность: 45.33
Треклист:
1) Sparkling Daydream (TV size);
2) Welcome to the Chu-2 byo world!;
3) 中二病とはなんぞや;
4) 神秘の少女との出逢い;
5) 憧れの普通生活よ;
6) Cute and chu-2 byo;
7) 浮かれ笑顔でGo!;
8) Chu-2 byo is cool!;
9) comical boys;
10) The Dark Hero;
11) 憎めない女の子;
12) 上手く行かないこともあるってもんで;
13) 停滞な感情;
14) 夕暮れと寄り添う感情;
15) 行動の先に何かがあるのだ;
16) ガッカリ学生時代;
17) 感情、その名は「悲哀」;
18) 心の隙間に不安がやってくる;
19) そんなこともあるよね;
20) 期待しちゃっていいんです;
21) おいおい、大丈夫か?;
22) 私にも見える;
23) 魔王降臨 ~壱~;
24) 魔王降臨 ~弐~;
25) 魔王降臨 ~参~;
26) 平和な日常が一番の幸せ;
27) 妄想凸守旋律 ~補完~;
28) 妄想凸守旋律 ~革新~;
29) 妄想凸守旋律 ~革新~;
30) して明日も中二病は続くのであった.
Exact Audio Copy V1.0 beta 3 from 29. August 2011

EAC extraction logfile from 6. January 2013, 1:48

虹音 / TVアニメ「中二病でも恋がしたい」オリジナルサウンドトラック Sound of a Small Love&Chu-2 byo Story Disc1

Used drive : TSSTcorpDVD+-RW TS-L633C Adapter: 0 ID: 1

Read mode : SecureUtilize accurate stream : YesDefeat audio cache : NoMake use of C2 pointers : Yes

Read offset correction : 0Overread into Lead-In and Lead-Out : NoFill up missing offset samples with silence : YesDelete leading and trailing silent blocks : NoNull samples used in CRC calculations : YesUsed interface : Native Win32 interface for Win NT & 2000

Used output format : Internal WAV RoutinesSample format : 44.100 Hz; 16 Bit; Stereo

TOC of the extracted CD

Track | Start | Length | Start sector | End sector --------------------------------------------------------- 1 | 0:00.00 | 1:35.42 | 0 | 7166 2 | 1:35.42 | 2:07.21 | 7167 | 16712 3 | 3:42.63 | 1:29.52 | 16713 | 23439 4 | 5:12.40 | 2:02.45 | 23440 | 32634 5 | 7:15.10 | 1:54.16 | 32635 | 41200 6 | 9:09.26 | 1:39.52 | 41201 | 48677 7 | 10:49.03 | 1:27.42 | 48678 | 55244 8 | 12:16.45 | 2:18.67 | 55245 | 65661 9 | 14:35.37 | 1:30.11 | 65662 | 72422 10 | 16:05.48 | 1:35.57 | 72423 | 79604 11 | 17:41.30 | 1:35.10 | 79605 | 86739 12 | 19:16.40 | 1:32.10 | 86740 | 93649 13 | 20:48.50 | 1:42.65 | 93650 | 101364 14 | 22:31.40 | 1:25.71 | 101365 | 107810 15 | 23:57.36 | 1:30.16 | 107811 | 114576 16 | 25:27.52 | 1:51.59 | 114577 | 122960 17 | 27:19.36 | 1:43.23 | 122961 | 130708 18 | 29:02.59 | 1:46.11 | 130709 | 138669 19 | 30:48.70 | 1:33.38 | 138670 | 145682 20 | 32:22.33 | 1:44.40 | 145683 | 153522 21 | 34:06.73 | 1:32.23 | 153523 | 160445 22 | 35:39.21 | 0:57.63 | 160446 | 164783 23 | 36:37.09 | 0:10.31 | 164784 | 165564 24 | 36:47.40 | 0:11.69 | 165565 | 166458 25 | 36:59.34 | 0:15.32 | 166459 | 167615 26 | 37:14.66 | 1:30.04 | 167616 | 174369 27 | 38:44.70 | 1:51.09 | 174370 | 182703 28 | 40:36.04 | 1:38.44 | 182704 | 190097 29 | 42:14.48 | 1:31.49 | 190098 | 196971 30 | 43:46.22 | 1:46.20 | 196972 | 204941

Range status and errors

Selected range

Filename C:\Users\Kozakai Nozomi\Music\虹音 - TVアニメ「中二病でも恋がしたい」オリジナルサウンドトラック Sound of a Small Love&Chu-2 byo Story Disc1.wav

Peak level 98.8 % Extraction speed 5.4 X Range quality 99.9 % Copy CRC 9DE92CFC Copy OK

No errors occurred

End of status report

==== Log checksum 20189B8028DA15FCC774AE8F107E25015F38A88B0B0B8E9585350743CCE170EE ====

------------------------------------------------------------

Exact Audio Copy V1.0 beta 3 from 29. August 2011

EAC extraction logfile from 6. January 2013, 1:48

虹音 / TVアニメ「中二病でも恋がしたい」オリジナルサウンドトラック Sound of a Small Love&Chu-2 byo Story Disc1

Used drive : TSSTcorpDVD+-RW TS-L633C Adapter: 0 ID: 1

Read mode : SecureUtilize accurate stream : YesDefeat audio cache : NoMake use of C2 pointers : Yes

Read offset correction : 0Overread into Lead-In and Lead-Out : NoFill up missing offset samples with silence : YesDelete leading and trailing silent blocks : NoNull samples used in CRC calculations : YesUsed interface : Native Win32 interface for Win NT & 2000

Used output format : Internal WAV RoutinesSample format : 44.100 Hz; 16 Bit; Stereo

TOC of the extracted CD

Track | Start | Length | Start sector | End sector --------------------------------------------------------- 1 | 0:00.00 | 1:35.42 | 0 | 7166 2 | 1:35.42 | 2:07.21 | 7167 | 16712 3 | 3:42.63 | 1:29.52 | 16713 | 23439 4 | 5:12.40 | 2:02.45 | 23440 | 32634 5 | 7:15.10 | 1:54.16 | 32635 | 41200 6 | 9:09.26 | 1:39.52 | 41201 | 48677 7 | 10:49.03 | 1:27.42 | 48678 | 55244 8 | 12:16.45 | 2:18.67 | 55245 | 65661 9 | 14:35.37 | 1:30.11 | 65662 | 72422 10 | 16:05.48 | 1:35.57 | 72423 | 79604 11 | 17:41.30 | 1:35.10 | 79605 | 86739 12 | 19:16.40 | 1:32.10 | 86740 | 93649 13 | 20:48.50 | 1:42.65 | 93650 | 101364 14 | 22:31.40 | 1:25.71 | 101365 | 107810 15 | 23:57.36 | 1:30.16 | 107811 | 114576 16 | 25:27.52 | 1:51.59 | 114577 | 122960 17 | 27:19.36 | 1:43.23 | 122961 | 130708 18 | 29:02.59 | 1:46.11 | 130709 | 138669 19 | 30:48.70 | 1:33.38 | 138670 | 145682 20 | 32:22.33 | 1:44.40 | 145683 | 153522 21 | 34:06.73 | 1:32.23 | 153523 | 160445 22 | 35:39.21 | 0:57.63 | 160446 | 164783 23 | 36:37.09 | 0:10.31 | 164784 | 165564 24 | 36:47.40 | 0:11.69 | 165565 | 166458 25 | 36:59.34 | 0:15.32 | 166459 | 167615 26 | 37:14.66 | 1:30.04 | 167616 | 174369 27 | 38:44.70 | 1:51.09 | 174370 | 182703 28 | 40:36.04 | 1:38.44 | 182704 | 190097 29 | 42:14.48 | 1:31.49 | 190098 | 196971 30 | 43:46.22 | 1:46.20 | 196972 | 204941

Range status and errors

Selected range

Filename C:\Users\Kozakai Nozomi\Music\虹音 - TVアニメ「中二病でも恋がしたい」オリジナルサウンドトラック Sound of a Small Love&Chu-2 byo Story Disc1.wav

Peak level 98.8 % Extraction speed 5.4 X Range quality 99.9 % Copy CRC 9DE92CFC Copy OK

No errors occurred

End of status report

==== Log checksum 20189B8028DA15FCC774AE8F107E25015F38A88B0B0B8E9585350743CCE170EE ====
Продолжительность: 45.28
Треклист:
1) 妄想バトル ~華麗会心~;
2) 妄想バトル ~カタルシス~;
3) 妄想バトル ~聖戦~;
4) 妄想バトル ~伝説召喚~;
5) すれ違う心と心;
6) 暖かさに包まれて日は暮れる;
7) 始まりの種;
8) 不可視境界線を探して;
9) 落ちるな!;
10) 君のとなりに;
11) 見上げてごらん夜の星を.;
12) 悲しき妄想バトル;
13) 悲しき妄想バトル ~piano~;
14) 手放したものを取り戻しに;
15) 想う者同士の再開;
16) それは本当にあったんだ;
17) 理解と愛情と優しい眼差し;
18) 恋は続いていく;
19) 予告編 ~中二病ワールドの開幕~;
20) 予告編 ~中二病の真実~;
21) 携帯ギャルゲーム;
22) 映画音楽的ロマンス;
23) Sparkling Daydream ~piano~;
24) INSIDE IDENTITY ~piano~;
25) 中二病アイキャッチ ~ミステリアス~;
26) 中二病アイキャッチ ~不安~;
27) 中二病アイキャッチ ~コミカル~;
28) 中二病アイキャッチ ~ギャグ~;
29) 中二病アイキャッチ ~ロマンチック~;
30) 中二病アイキャッチ ~美しさ~;
31) INSIDE IDENTITY (TV size).
Exact Audio Copy V1.0 beta 3 from 29. August 2011

EAC extraction logfile from 6. January 2013, 1:23

虹音 / 中二病でも恋がしたい!オリジナルサウンドトラック Sound of a small love & chu-2 byo story Disc2

Used drive : TSSTcorpDVD+-RW TS-L633C Adapter: 0 ID: 1

Read mode : SecureUtilize accurate stream : YesDefeat audio cache : NoMake use of C2 pointers : Yes

Read offset correction : 0Overread into Lead-In and Lead-Out : NoFill up missing offset samples with silence : YesDelete leading and trailing silent blocks : NoNull samples used in CRC calculations : YesUsed interface : Native Win32 interface for Win NT & 2000

Used output format : Internal WAV RoutinesSample format : 44.100 Hz; 16 Bit; Stereo

TOC of the extracted CD

Track | Start | Length | Start sector | End sector --------------------------------------------------------- 1 | 0:00.00 | 1:55.52 | 0 | 8676 2 | 1:55.52 | 1:44.17 | 8677 | 16493 3 | 3:39.69 | 2:16.32 | 16494 | 26725 4 | 5:56.26 | 1:37.65 | 26726 | 34065 5 | 7:34.16 | 1:50.03 | 34066 | 42318 6 | 9:24.19 | 1:59.40 | 42319 | 51283 7 | 11:23.59 | 2:15.13 | 51284 | 61421 8 | 13:38.72 | 1:36.13 | 61422 | 68634 9 | 15:15.10 | 1:36.74 | 68635 | 75908 10 | 16:52.09 | 2:32.68 | 75909 | 87376 11 | 19:25.02 | 2:41.51 | 87377 | 99502 12 | 22:06.53 | 2:03.42 | 99503 | 108769 13 | 24:10.20 | 0:51.52 | 108770 | 112646 14 | 25:01.72 | 1:56.20 | 112647 | 121366 15 | 26:58.17 | 2:37.72 | 121367 | 133213 16 | 29:36.14 | 2:25.42 | 133214 | 144130 17 | 32:01.56 | 1:52.60 | 144131 | 152590 18 | 33:54.41 | 1:28.49 | 152591 | 159239 19 | 35:23.15 | 1:49.50 | 159240 | 167464 20 | 37:12.65 | 0:40.36 | 167465 | 170500 21 | 37:53.26 | 0:54.14 | 170501 | 174564 22 | 38:47.40 | 0:54.42 | 174565 | 178656 23 | 39:42.07 | 1:20.62 | 178657 | 184718 24 | 41:02.69 | 2:04.13 | 184719 | 194031 25 | 43:07.07 | 0:08.18 | 194032 | 194649 26 | 43:15.25 | 0:07.42 | 194650 | 195216 27 | 43:22.67 | 0:06.21 | 195217 | 195687 28 | 43:29.13 | 0:06.38 | 195688 | 196175 29 | 43:35.51 | 0:07.67 | 196176 | 196767 30 | 43:43.43 | 0:08.46 | 196768 | 197413 31 | 43:52.14 | 1:35.52 | 197414 | 204590

Range status and errors

Selected range

Filename C:\Users\Kozakai Nozomi\Music\虹音 - 中二病でも恋がしたい!オリジナルサウンドトラック Sound of a small love & chu-2 byo story Disc2.wav

Peak level 98.8 % Extraction speed 11.7 X Range quality 100.0 % Copy CRC E2DA16B8 Copy OK

No errors occurred

End of status report

==== Log checksum A16B90B3CD457011F5B39A2C9E8A0D0C7314CF5458208CA88C27B9CC31647E64 ====

------------------------------------------------------------

Exact Audio Copy V1.0 beta 3 from 29. August 2011

EAC extraction logfile from 6. January 2013, 1:23

虹音 / 中二病でも恋がしたい!オリジナルサウンドトラック Sound of a small love & chu-2 byo story Disc2

Used drive : TSSTcorpDVD+-RW TS-L633C Adapter: 0 ID: 1

Read mode : SecureUtilize accurate stream : YesDefeat audio cache : NoMake use of C2 pointers : Yes

Read offset correction : 0Overread into Lead-In and Lead-Out : NoFill up missing offset samples with silence : YesDelete leading and trailing silent blocks : NoNull samples used in CRC calculations : YesUsed interface : Native Win32 interface for Win NT & 2000

Used output format : Internal WAV RoutinesSample format : 44.100 Hz; 16 Bit; Stereo

TOC of the extracted CD

Track | Start | Length | Start sector | End sector --------------------------------------------------------- 1 | 0:00.00 | 1:55.52 | 0 | 8676 2 | 1:55.52 | 1:44.17 | 8677 | 16493 3 | 3:39.69 | 2:16.32 | 16494 | 26725 4 | 5:56.26 | 1:37.65 | 26726 | 34065 5 | 7:34.16 | 1:50.03 | 34066 | 42318 6 | 9:24.19 | 1:59.40 | 42319 | 51283 7 | 11:23.59 | 2:15.13 | 51284 | 61421 8 | 13:38.72 | 1:36.13 | 61422 | 68634 9 | 15:15.10 | 1:36.74 | 68635 | 75908 10 | 16:52.09 | 2:32.68 | 75909 | 87376 11 | 19:25.02 | 2:41.51 | 87377 | 99502 12 | 22:06.53 | 2:03.42 | 99503 | 108769 13 | 24:10.20 | 0:51.52 | 108770 | 112646 14 | 25:01.72 | 1:56.20 | 112647 | 121366 15 | 26:58.17 | 2:37.72 | 121367 | 133213 16 | 29:36.14 | 2:25.42 | 133214 | 144130 17 | 32:01.56 | 1:52.60 | 144131 | 152590 18 | 33:54.41 | 1:28.49 | 152591 | 159239 19 | 35:23.15 | 1:49.50 | 159240 | 167464 20 | 37:12.65 | 0:40.36 | 167465 | 170500 21 | 37:53.26 | 0:54.14 | 170501 | 174564 22 | 38:47.40 | 0:54.42 | 174565 | 178656 23 | 39:42.07 | 1:20.62 | 178657 | 184718 24 | 41:02.69 | 2:04.13 | 184719 | 194031 25 | 43:07.07 | 0:08.18 | 194032 | 194649 26 | 43:15.25 | 0:07.42 | 194650 | 195216 27 | 43:22.67 | 0:06.21 | 195217 | 195687 28 | 43:29.13 | 0:06.38 | 195688 | 196175 29 | 43:35.51 | 0:07.67 | 196176 | 196767 30 | 43:43.43 | 0:08.46 | 196768 | 197413 31 | 43:52.14 | 1:35.52 | 197414 | 204590

Range status and errors

Selected range

Filename C:\Users\Kozakai Nozomi\Music\虹音 - 中二病でも恋がしたい!オリジナルサウンドトラック Sound of a small love & chu-2 byo story Disc2.wav

Peak level 98.8 % Extraction speed 11.7 X Range quality 100.0 % Copy CRC E2DA16B8 Copy OK

No errors occurred

End of status report

==== Log checksum A16B90B3CD457011F5B39A2C9E8A0D0C7314CF5458208CA88C27B9CC31647E64 ====
[spoiler="Chuunibyou Demo Koi ga Shitai Drama CD Kyokutou Majutsu Hirune Kessha no Natsu ni Kiku Mokushiroku [VA]"]
Дата выпуска: 27 февраля 2013 г.
Каталог: LACA-15274
Тип рипа: image+.cue
Продолжительность: 41.02
Наличие сканов в содержимом раздачи: да
Треклист:
1) Prologue;
2) Tokuite ni Fuuin Sareshi Kuro no Kinjo Mokuroku;
3) Senritsu no Night Siesta;
4) Real Omamagoto;
5) Jaou Shingan Dai Ichi no Servant VS Nise Mori Summer;
6) Watashi no Onii-chan;
7) Mathematics Ragnarok;
8) Mjolnir Tornado;
9) Epilogue.
Exact Audio Copy V1.0 beta 3 from 29. August 2011

EAC extraction logfile from 9. March 2013, 20:37

極東魔術昼寝結社の夏 / 極東魔術昼寝結社の夏に聞く黙示録

Used drive : HL-DT-STDVDRAM GT32N Adapter: 0 ID: 1

Read mode : SecureUtilize accurate stream : YesDefeat audio cache : NoMake use of C2 pointers : No

Read offset correction : 103Overread into Lead-In and Lead-Out : NoFill up missing offset samples with silence : YesDelete leading and trailing silent blocks : NoNull samples used in CRC calculations : YesUsed interface : Native Win32 interface for Win NT & 2000

Used output format : Internal WAV RoutinesSample format : 44.100 Hz; 16 Bit; Stereo

TOC of the extracted CD

Track | Start | Length | Start sector | End sector --------------------------------------------------------- 1 | 0:00.00 | 4:10.28 | 0 | 18777 2 | 4:10.28 | 5:57.13 | 18778 | 45565 3 | 10:07.41 | 4:57.21 | 45566 | 67861 4 | 15:04.62 | 4:53.11 | 67862 | 89847 5 | 19:57.73 | 9:15.37 | 89848 | 131509 6 | 29:13.35 | 5:55.34 | 131510 | 158168 7 | 35:08.69 | 3:48.71 | 158169 | 175339 8 | 38:57.65 | 0:25.04 | 175340 | 177218 9 | 39:22.69 | 1:39.10 | 177219 | 184653

Range status and errors

Selected range

Filename D:\temp\極東魔術昼寝結社の夏 - 極東魔術昼寝結社の夏に聞く黙示録.wav

Peak level 99.8 % Extraction speed 3.0 X Range quality 100.0 % Copy CRC 27942476 Copy OK

No errors occurred

AccurateRip summary

Track 1 not present in databaseTrack 2 not present in databaseTrack 3 not present in databaseTrack 4 not present in databaseTrack 5 not present in databaseTrack 6 not present in databaseTrack 7 not present in databaseTrack 8 not present in databaseTrack 9 not present in database

None of the tracks are present in the AccurateRip database

End of status report

---- CUETools DB Plugin V2.1.3

[CTDB TOCID: k9gIEdn3nGE4ohOv8_YVNosaR60-] found, Submit result: k9gIEdn3nGE4ohOv8_YVNosaR60- has been confirmed[09d5a98b] (1/1) Accurately ripped

==== Log checksum 8D864A863CD3F9F22E6A7433072ADAA6EE0DC734A6C8E3C3DECC10AC3F6404FB ====
[/spoiler]
[spoiler="Chuunibyou Demo Koi ga Shitai Radio CD - Yami no Honoo ni Dakarete Kike Vol.1 [VA]"]
Дата выпуска: 13 февраля 2013 г.
Каталог: PCCG-90089
Тип рипа: image+.cue
Продолжительность: 51.08
Наличие сканов в содержимом раздачи: да
Треклист:
1) ラジオCD特別版-Track01
2) ラジオCD特別版-Track02
3) ラジオCD特別版-Track03
4) ラジオCD特別版-Track04
5) ラジオCD特別版-Track05
6) ラジオCD特別版-Track06
7) ラジオCD特別版-Track07.
Exact Audio Copy V1.0 beta 3 from 29. August 2011

EAC extraction logfile from 9. March 2013, 20:21

Black Raison detre / 中二病でも恋がしたい! ~闇の炎に抱かれて聞け~ Vol.1

Used drive : HL-DT-STDVDRAM GT32N Adapter: 0 ID: 1

Read mode : SecureUtilize accurate stream : YesDefeat audio cache : NoMake use of C2 pointers : No

Read offset correction : 103Overread into Lead-In and Lead-Out : NoFill up missing offset samples with silence : YesDelete leading and trailing silent blocks : NoNull samples used in CRC calculations : YesUsed interface : Native Win32 interface for Win NT & 2000

Used output format : Internal WAV RoutinesSample format : 44.100 Hz; 16 Bit; Stereo

TOC of the extracted CD

Track | Start | Length | Start sector | End sector --------------------------------------------------------- 1 | 0:00.00 | 1:45.00 | 0 | 7874 2 | 1:45.00 | 4:10.00 | 7875 | 26624 3 | 5:55.00 | 13:13.39 | 26625 | 86138 4 | 19:08.39 | 20:53.13 | 86139 | 180126 5 | 40:01.52 | 4:16.28 | 180127 | 199354 6 | 44:18.05 | 2:00.00 | 199355 | 208354 7 | 46:18.05 | 4:50.00 | 208355 | 230104

Range status and errors

Selected range

Filename D:\temp\Black Raison detre - 中二病でも恋がしたい! ~闇の炎に抱かれて聞け~ Vol.1.wav

Peak level 80.0 % Extraction speed 3.1 X Range quality 100.0 % Copy CRC 73C88B79 Copy OK

No errors occurred

AccurateRip summary

Track 1 not present in databaseTrack 2 not present in databaseTrack 3 not present in databaseTrack 4 not present in databaseTrack 5 not present in databaseTrack 6 not present in databaseTrack 7 not present in database

None of the tracks are present in the AccurateRip database

End of status report

---- CUETools DB Plugin V2.1.3

[CTDB TOCID: s9zUvCJV6nrTqazT6eq7zw8wCzE-] found, Submit result: s9zUvCJV6nrTqazT6eq7zw8wCzE- has been confirmed[783fae59] (1/1) Accurately ripped

==== Log checksum 0946E833641811C8A4629575088B1C9779D39EB5739667233B7FAE36EFCE941F ====
[/spoiler]
[spoiler="Chuunibyou Demo Koi ga Shitai Radio CD - Yami no Honoo ni Dakarete Kike Vol.2 [VA]"]
Дата выпуска: 26 апреля 2013 г.
Каталог: PCCG-90090
Тип рипа: image+.cue
Продолжительность: 49.21
Наличие сканов в содержимом раздачи: да
Треклист:
1) ふつおた・感想;
2) ネームフレイムマスター;
3) 漆黒の辞書;
4) 妄想の中でも恋がしたい;
5) 「Black Raison d`etre」の自主制作PVを作ろう;
6) 十花塾;
7) 体感ハ゛ニッシュメント.
Exact Audio Copy V1.0 beta 3 from 29. August 2011

EAC extraction logfile from 6. June 2013, 1:41

Black Raison d`etre / 中二病でも恋がしたい! ~闇の炎に抱かれて聞け~ Vol.2

Used drive : HL-DT-STDVDRAM GT32N Adapter: 0 ID: 1

Read mode : SecureUtilize accurate stream : YesDefeat audio cache : NoMake use of C2 pointers : No

Read offset correction : 103Overread into Lead-In and Lead-Out : NoFill up missing offset samples with silence : YesDelete leading and trailing silent blocks : NoNull samples used in CRC calculations : YesUsed interface : Native Win32 interface for Win NT & 2000

Used output format : Internal WAV RoutinesSample format : 44.100 Hz; 16 Bit; Stereo

TOC of the extracted CD

Track | Start | Length | Start sector | End sector --------------------------------------------------------- 1 | 0:00.00 | 1:10.67 | 0 | 5316 2 | 1:10.67 | 1:56.27 | 5317 | 14043 3 | 3:07.19 | 14:26.54 | 14044 | 79047 4 | 17:33.73 | 13:09.28 | 79048 | 138250 5 | 30:43.26 | 14:04.59 | 138251 | 201609 6 | 44:48.10 | 1:34.00 | 201610 | 208659 7 | 46:22.10 | 2:58.67 | 208660 | 222076

Range status and errors

Selected range

Filename D:\temp\Black Raison d`etre - 中二病でも恋がしたい! ~闇の炎に抱かれて聞け~ Vol.2.wav

Peak level 100.0 % Extraction speed 3.1 X Range quality 100.0 % Copy CRC 7500C7F8 Copy OK

No errors occurred

AccurateRip summary

Track 1 not present in databaseTrack 2 not present in databaseTrack 3 not present in databaseTrack 4 not present in databaseTrack 5 not present in databaseTrack 6 not present in databaseTrack 7 not present in database

None of the tracks are present in the AccurateRip database

End of status report

---- CUETools DB Plugin V2.1.3

[CTDB TOCID: RWseZ2cuDkB2KHq2XCaPJzf5Pek-] found, Submit result: RWseZ2cuDkB2KHq2XCaPJzf5Pek- has been confirmed[b07da7d9] (3/3) Accurately ripped

==== Log checksum 260C8615DDF9C1E00255B75D131F7F7A25FBB26DC5DD2428333CC28E1397F7F8 ====
[/spoiler]
[/spoiler]
[spoiler="[AR] Chuunibyou Demo Koi ga Shitai The Movie Takanashi Rikka Kai Theme Song Collection - Chuunibyou Ougi Sankyoku no Kiwami [VA]"]
Дата выпуска:
Каталог: LACM-14132
Тип рипа: image+.cue
Продолжительность: 24.47
Наличие сканов в содержимом раздачи: да
Треклист:
1) -Across the line-;
2) Secret Survivor;
3) Shin'en ni Mau Senritsu Shanikusai;
4) -Across the line- (OFF VOCAL);
5) Secret Survivor (OFF VOCAL);
6) Shin'en ni Mau Senritsu Shanikusai (OFF VOCAL).
Exact Audio Copy V1.0 beta 3 from 29. August 2011

EAC extraction logfile from 29. September 2013, 11:42

V.A. / 「小鳥遊六花・改~劇場版 中二病でも恋がしたい!~」主題歌集 ~中二病奥義・三曲の極み~

Used drive : PIONEER DVD-RW DVR-220L Adapter: 1 ID: 0

www.astost.comMGRT encoded by Act_yegoRead mode : SecureUtilize accurate stream : YesDefeat audio cache : YesMake use of C2 pointers : No

Read offset correction : 6Overread into Lead-In and Lead-Out : NoFill up missing offset samples with silence : YesDelete leading and trailing silent blocks : NoNull samples used in CRC calculations : YesUsed interface : Native Win32 interface for Win NT & 2000

Used output format : Internal WAV RoutinesSample format : 44.100 Hz; 16 Bit; Stereo

TOC of the extracted CD

Track | Start | Length | Start sector | End sector --------------------------------------------------------- 1 | 0:00.00 | 4:20.60 | 0 | 19559 2 | 4:20.60 | 4:07.43 | 19560 | 38127 3 | 8:28.28 | 3:57.07 | 38128 | 55909 4 | 12:25.35 | 4:20.50 | 55910 | 75459 5 | 16:46.10 | 4:05.73 | 75460 | 93907 6 | 20:52.08 | 3:55.12 | 93908 | 111544

Range status and errors

Selected range

Filename D:\「小鳥遊六花・改~劇場版 中二病でも恋がしたい!~」主題歌集 ~中二病奥義・三曲の極み~\「小鳥遊六花・改~劇場版 中二病でも恋がしたい!~」主題歌集 ~中二病奥義・三曲の極み~.wav

Peak level 100.0 % Extraction speed 6.0 X Range quality 100.0 % Copy CRC CD9B5921 Copy OK

No errors occurred

AccurateRip summary

Track 1 not present in databaseTrack 2 not present in databaseTrack 3 not present in databaseTrack 4 not present in databaseTrack 5 not present in databaseTrack 6 not present in database

None of the tracks are present in the AccurateRip database

End of status report

---- CUETools DB Plugin V2.1.3

[CTDB TOCID: i_Hd_bC3I6R5oU4D.ovx0hSzeV4-] found, Submit result: i_Hd_bC3I6R5oU4D.ovx0hSzeV4- has been confirmed[2d8e7ac1] (5/5) Accurately ripped

==== Log checksum 277B69A3A5AF92294E88B0E903C8E34892E4937DB440591AF98737DB9E46ED79 ====
[spoiler="[AR] Chuunibyou Demo Koi ga Shitai The Movie Takanashi Rikka Kai Original Soundtrack [Nijine]"]
Дата выпуска: 11 сентября 2013 г.
Каталог: LACA-9305~6
Тип рипа: image+.cue
Продолжительность: 1.23.34
Наличие сканов в содержимом раздачи: да
Треклист:
1) Chuunibyou no Oniichan;
2) Ankoku no Chikara;
3) Natsukashiki Chuunibyou Jidai yo;
4) Shin'en ni Mau Senritsu Shanikusai (short size);
5) Ketsujitsushita Kanjou;
6) Omoi Afureru Nyuujou;
7) Seijaku wo Yaburu Jitsuryokusha;
8) Seirei to Tomo ni;
9) Honoo no Shikkoukan;
10) Yami no Honoo;
11) Umareru Shinjitsu no Chikara, Sore wa Ai;
12) Katarareru Kaikou no Rekishi;
13) Eyecatch Shinka;
14) -Across the line- (short size);
15) Unmei no Deai kara Rekishi wa Hajimatta;
16) Akasareru Sujou;
17) Fureaidasu Kokoro;
18) Yukai na Kuuki ni Tsutsumarete;
19) Mimamoru Futatsu no Hitomi;
20) Ushinawarekaketa Hokori;
21) Youkoso Himitsu no Basho e;
22) Ketsuzoku ni Yoru Tatakai;
23) Heibonsa no Bigaku;
24) Shoukansareta Mono;
25) Kessha Tanjou;
26) Jitaku ni Shinnyuusha Ari;
27) Ressei kara no Gyakuten;
28) Yukai na Nakamatachi;
29) Tsukisusume Monodomo yo;
30) Kamisama e no Inori;
31) Natsu no Mizu Moyou;
32) Oshieru Mono to Osowaru Mono;
33) Ureshisa no Yuuyake;
34) Kakenukeru Otoko.
Exact Audio Copy V1.0 beta 3 from 29. August 2011

EAC extraction logfile from 29. September 2013, 12:08

虹音 / 「小鳥遊六花・改~劇場版 中二病でも恋がしたい!」オリジナル・サウンドトラック Disc1

Used drive : PIONEER DVD-RW DVR-220L Adapter: 1 ID: 0

www.astost.comMGRT encoded by Act_yegoRead mode : SecureUtilize accurate stream : YesDefeat audio cache : YesMake use of C2 pointers : No

Read offset correction : 6Overread into Lead-In and Lead-Out : NoFill up missing offset samples with silence : YesDelete leading and trailing silent blocks : NoNull samples used in CRC calculations : YesUsed interface : Native Win32 interface for Win NT & 2000

Used output format : Internal WAV RoutinesSample format : 44.100 Hz; 16 Bit; Stereo

TOC of the extracted CD

Track | Start | Length | Start sector | End sector --------------------------------------------------------- 1 | 0:00.00 | 1:12.44 | 0 | 5443 2 | 1:12.44 | 0:51.44 | 5444 | 9312 3 | 2:04.13 | 1:55.41 | 9313 | 17978 4 | 3:59.54 | 1:34.36 | 17979 | 25064 5 | 5:34.15 | 2:08.74 | 25065 | 34738 6 | 7:43.14 | 1:41.24 | 34739 | 42337 7 | 9:24.38 | 1:19.05 | 42338 | 48267 8 | 10:43.43 | 0:35.33 | 48268 | 50925 9 | 11:19.01 | 1:27.73 | 50926 | 57523 10 | 12:46.74 | 1:29.46 | 57524 | 64244 11 | 14:16.45 | 0:55.61 | 64245 | 68430 12 | 15:12.31 | 1:37.52 | 68431 | 75757 13 | 16:50.08 | 0:08.51 | 75758 | 76408 14 | 16:58.59 | 1:44.02 | 76409 | 84210 15 | 18:42.61 | 1:16.03 | 84211 | 89913 16 | 19:58.64 | 3:15.08 | 89914 | 104546 17 | 23:13.72 | 2:14.08 | 104547 | 114604 18 | 25:28.05 | 0:24.50 | 114605 | 116454 19 | 25:52.55 | 1:37.42 | 116455 | 123771 20 | 27:30.22 | 1:33.15 | 123772 | 130761 21 | 29:03.37 | 0:59.61 | 130762 | 135247 22 | 30:03.23 | 2:24.47 | 135248 | 146094 23 | 32:27.70 | 0:40.14 | 146095 | 149108 24 | 33:08.09 | 1:10.14 | 149109 | 154372 25 | 34:18.23 | 2:13.62 | 154373 | 164409 26 | 36:32.10 | 1:12.12 | 164410 | 169821 27 | 37:44.22 | 1:22.46 | 169822 | 176017 28 | 39:06.68 | 1:08.18 | 176018 | 181135 29 | 40:15.11 | 1:23.45 | 181136 | 187405 30 | 41:38.56 | 0:57.29 | 187406 | 191709 31 | 42:36.10 | 1:27.44 | 191710 | 198278 32 | 44:03.54 | 1:55.38 | 198279 | 206941 33 | 45:59.17 | 2:13.48 | 206942 | 216964 34 | 48:12.65 | 0:12.16 | 216965 | 217880

Range status and errors

Selected range

Filename D:\「小鳥遊六花・改~劇場版 中二病でも恋がしたい!」オリジナル・サウンドトラック\虹音 - 「小鳥遊六花・改~劇場版 中二病でも恋がしたい!」オリジナル・サウンドトラック Disc1.wav

Peak level 99.9 % Extraction speed 7.0 X Range quality 100.0 % Copy CRC 06712E4A Copy OK

No errors occurred

AccurateRip summary

Track 1 not present in databaseTrack 2 not present in databaseTrack 3 not present in databaseTrack 4 not present in databaseTrack 5 not present in databaseTrack 6 not present in databaseTrack 7 not present in databaseTrack 8 not present in databaseTrack 9 not present in databaseTrack 10 not present in databaseTrack 11 not present in databaseTrack 12 not present in databaseTrack 13 not present in databaseTrack 14 not present in databaseTrack 15 not present in databaseTrack 16 not present in databaseTrack 17 not present in databaseTrack 18 not present in databaseTrack 19 not present in databaseTrack 20 not present in databaseTrack 21 not present in databaseTrack 22 not present in databaseTrack 23 not present in databaseTrack 24 not present in databaseTrack 25 not present in databaseTrack 26 not present in databaseTrack 27 not present in databaseTrack 28 not present in databaseTrack 29 not present in databaseTrack 30 not present in databaseTrack 31 not present in databaseTrack 32 not present in databaseTrack 33 not present in databaseTrack 34 not present in database

None of the tracks are present in the AccurateRip database

End of status report

---- CUETools DB Plugin V2.1.3

[CTDB TOCID: UfRb.AU29azRV2_KZYCMcPiTZZk-] disk not present in database, Submit result: UfRb.AU29azRV2_KZYCMcPiTZZk- has been uploaded

==== Log checksum 0AE161FEBC5EC2C1AC653C53713933EC252EC84075FC6A3DCC3632579A61D2F1 ====
Треклист:
1) Kagayaku Taiyou to Kessha Ichidou;
2) Tojiteita Tobira ga Hiraku Oto;
3) Tachifusagaru Shouheki;
4) Kakan na Tatakai no Hate ni;
5) Taisetsu na Mono wa Soko ni Atta;
6) Chijimaru Kyorikan;
7) Koi ni Ochiru to Iu Koto;
8) Mukiau Kimochi;
9) Mietekita Kanjou;
10) Gunshi no Oshie;
11) Toroshita Omoi;
12) Rikai Aru Kankeisei;
13) Omoi no Tsutaekata;
14) Todokanai Sekai;
15) Koi ga Hashiri, Koi ga Naki, Koi ga Warau;
16) Kessenmae no Odayakasa;
17) Omou Kokoro ga Ugokasu;
18) Rokkakukei;
19) Kishikan to wa Nanzo ya;
20) Atarashii Seikatsu ga Hajimaru;
21) Natsukashiku Soshite Atarashii Kaze;
22) Secret Survivor (short size).
Exact Audio Copy V1.0 beta 3 from 29. August 2011

EAC extraction logfile from 29. September 2013, 12:27

虹音 / 「小鳥遊六花・改~劇場版 中二病でも恋がしたい!」オリジナル・サウンドトラック Disc2

Used drive : PIONEER DVD-RW DVR-220L Adapter: 1 ID: 0

www.astost.comMGRT encoded by Act_yegoRead mode : SecureUtilize accurate stream : YesDefeat audio cache : YesMake use of C2 pointers : No

Read offset correction : 6Overread into Lead-In and Lead-Out : NoFill up missing offset samples with silence : YesDelete leading and trailing silent blocks : NoNull samples used in CRC calculations : YesUsed interface : Native Win32 interface for Win NT & 2000

Used output format : Internal WAV RoutinesSample format : 44.100 Hz; 16 Bit; Stereo

TOC of the extracted CD

Track | Start | Length | Start sector | End sector --------------------------------------------------------- 1 | 0:00.00 | 1:23.61 | 0 | 6285 2 | 1:23.61 | 0:45.20 | 6286 | 9680 3 | 2:09.06 | 0:49.44 | 9681 | 13399 4 | 2:58.50 | 1:29.06 | 13400 | 20080 5 | 4:27.56 | 1:07.23 | 20081 | 25128 6 | 5:35.04 | 1:27.01 | 25129 | 31654 7 | 7:02.05 | 2:41.69 | 31655 | 43798 8 | 9:43.74 | 0:31.41 | 43799 | 46164 9 | 10:15.40 | 1:53.12 | 46165 | 54651 10 | 12:08.52 | 2:28.50 | 54652 | 65801 11 | 14:37.27 | 1:24.54 | 65802 | 72155 12 | 16:02.06 | 2:16.12 | 72156 | 82367 13 | 18:18.18 | 2:20.73 | 82368 | 92940 14 | 20:39.16 | 0:45.71 | 92941 | 96386 15 | 21:25.12 | 4:51.65 | 96387 | 118276 16 | 26:17.02 | 1:50.48 | 118277 | 126574 17 | 28:07.50 | 1:04.68 | 126575 | 131442 18 | 29:12.43 | 1:07.50 | 131443 | 136517 19 | 30:20.18 | 1:18.29 | 136518 | 142396 20 | 31:38.47 | 1:03.68 | 142397 | 147189 21 | 32:42.40 | 0:52.00 | 147190 | 151089 22 | 33:34.40 | 1:34.60 | 151090 | 158199

Range status and errors

Selected range

Filename D:\「小鳥遊六花・改~劇場版 中二病でも恋がしたい!」オリジナル・サウンドトラック\虹音 - 「小鳥遊六花・改~劇場版 中二病でも恋がしたい!」オリジナル・サウンドトラック Disc2.wav

Peak level 99.9 % Extraction speed 6.5 X Range quality 100.0 % Copy CRC 5C770555 Copy OK

No errors occurred

AccurateRip summary

Track 1 not present in databaseTrack 2 not present in databaseTrack 3 not present in databaseTrack 4 not present in databaseTrack 5 not present in databaseTrack 6 not present in databaseTrack 7 not present in databaseTrack 8 not present in databaseTrack 9 not present in databaseTrack 10 not present in databaseTrack 11 not present in databaseTrack 12 not present in databaseTrack 13 not present in databaseTrack 14 not present in databaseTrack 15 not present in databaseTrack 16 not present in databaseTrack 17 not present in databaseTrack 18 not present in databaseTrack 19 not present in databaseTrack 20 not present in databaseTrack 21 not present in databaseTrack 22 not present in database

None of the tracks are present in the AccurateRip database

End of status report

---- CUETools DB Plugin V2.1.3

[CTDB TOCID: .UKFPNct_SDwFNgTYeOcbbiszak-] disk not present in database, Submit result: .UKFPNct_SDwFNgTYeOcbbiszak- has been uploaded

==== Log checksum 0CC7B9A4CECC24401419F2007B6D50D3C49E1BC64121E7C40E02884FF70DB33C ====
[/spoiler]
[/spoiler]
[spoiler="[AR] Chuunibyou Demo Koi ga Shitai Ren OP Single - VOICE [ZAQ]"]
Дата выпуска: 29 января 2014 г.
Каталог: LACM-34179
Тип рипа: image+.cue
Продолжительность: 16.27
Наличие сканов в содержимом раздачи: да
Треклист:
1) VOICE;
2) PunIshment this worLd-VOICE-Episode.;
3) LATE STARTER;
4) VOICE (Off Vocal).
Exact Audio Copy V1.0 beta 3 from 29. August 2011

EAC extraction logfile from 25. January 2014, 13:55

VOICE【初回限定盤】

Used drive : TSSTcorpDVD-RW SH-216AB Adapter: 0 ID: 1

Read mode : SecureUtilize accurate stream : YesDefeat audio cache : YesMake use of C2 pointers : No

Read offset correction : 6Overread into Lead-In and Lead-Out : NoFill up missing offset samples with silence : YesDelete leading and trailing silent blocks : NoNull samples used in CRC calculations : YesUsed interface : Native Win32 interface for Win NT & 2000

Used output format : Internal WAV RoutinesSample format : 44.100 Hz; 16 Bit; Stereo

TOC of the extracted CD

Track | Start | Length | Start sector | End sector --------------------------------------------------------- 1 | 0:00.00 | 4:17.55 | 0 | 19329 2 | 4:17.55 | 3:38.32 | 19330 | 35711 3 | 7:56.12 | 4:14.03 | 35712 | 54764 4 | 12:10.15 | 4:17.18 | 54765 | 74057

Range status and errors

Selected range

Filename C:\Users\Kenneth\Desktop\VOICE【初回限定盤】.wav

Peak level 100.0 % Extraction speed 2.2 X Range quality 100.0 % Copy CRC DF5BF198 Copy OK

No errors occurred

AccurateRip summary

Track 1 not present in databaseTrack 2 not present in databaseTrack 3 not present in databaseTrack 4 not present in database

None of the tracks are present in the AccurateRip database

End of status report

---- CUETools DB Plugin V2.1.4

[CTDB TOCID: 3HrEWW_TBMOajxVEy7byXRt89OQ-] disk not present in databaseSubmit result: 3HrEWW_TBMOajxVEy7byXRt89OQ- has been uploaded

==== Log checksum 8169D007689FD9FDE63AD7DE58EAA379B25FFDDA0333A4B040D4136072DB24D3 ====
Format : MPEG-PS
File size : 853 MiB
Duration : 1s 201ms
Overall bit rate mode : Variable
Overall bit rate : 5 956 Mbps
Video #224
ID : 224 (0xE0)
Format : MPEG Video
Format version : Version 2
Format profile : [email protected]
Format settings, BVOP : Yes
Format settings, Matrix : Custom
Format settings, GOP : Variable
Duration : 1s 201ms
Bit rate mode : Variable
Bit rate : 5 836 Mbps
Maximum bit rate : 9 800 Kbps
Width : 720 pixels
Height : 480 pixels
Display aspect ratio : 16:9
Frame rate : 29.970 fps
Standard : NTSC
Color space : YUV
Chroma subsampling : 4:2:0
Bit depth : 8 bits
Scan type : Interlaced
Scan order : Top Field First
Compression mode : Lossy
Bits/(Pixel*Frame) : 563.429
Time code of first frame : 00:59:59:00
Time code source : Group of pictures header
Stream size : 836 MiB (98%)
Audio #189-160
ID : 189 (0xBD)-160 (0xA0)
Format : PCM
Format settings, Endianness : Big
Format settings, Sign : Signed
Muxing mode : DVD-Video
Duration : 1s 161ms
Bit rate mode : Constant
Bit rate : 1 536 Kbps
Channel count : 2 channels
Sampling rate : 48.0 KHz
Bit depth : 16 bits
Stream size : 218 KiB (0%)
Menu
[spoiler="[AR] Chuunibyou Demo Koi ga Shitai Ren ED Single - Van!shment Th!s World [Black Raison detre]"]
Дата выпуска: 5 февраля 2014 г.
Каталог: LACM-14184
Тип рипа: image+.cue
Продолжительность: 18.49
Наличие сканов в содержимом раздачи: да
Треклист:
1) Van!shment Th!s World;
2) February Magic;
3) Van!shment Th!s World (OFF VOCAL);
4) February Magic (OFF VOCAL).
Exact Audio Copy V1.0 beta 3 from 29. August 2011

EAC extraction logfile from 3. February 2014, 18:05

Van!shment Th!s World

Used drive : TSSTcorpDVD-RW SH-216AB Adapter: 0 ID: 1

Read mode : SecureUtilize accurate stream : YesDefeat audio cache : YesMake use of C2 pointers : No

Read offset correction : 6Overread into Lead-In and Lead-Out : NoFill up missing offset samples with silence : YesDelete leading and trailing silent blocks : NoNull samples used in CRC calculations : YesUsed interface : Native Win32 interface for Win NT & 2000

Used output format : Internal WAV RoutinesSample format : 44.100 Hz; 16 Bit; Stereo

TOC of the extracted CD

Track | Start | Length | Start sector | End sector --------------------------------------------------------- 1 | 0:00.00 | 3:56.65 | 0 | 17764 2 | 3:56.65 | 5:28.58 | 17765 | 42422 3 | 9:25.48 | 3:56.37 | 42423 | 60159 4 | 13:22.10 | 5:26.69 | 60160 | 84678

Range status and errors

Selected range

Filename C:\Users\Kenneth\Desktop\Van!shment Th!s World.wav

Peak level 100.0 % Extraction speed 2.3 X Range quality 100.0 % Copy CRC 8AC5FF17 Copy OK

No errors occurred

AccurateRip summary

Track 1 not present in databaseTrack 2 not present in databaseTrack 3 not present in databaseTrack 4 not present in database

None of the tracks are present in the AccurateRip database

End of status report

---- CUETools DB Plugin V2.1.4

[CTDB TOCID: 65P21DlxJx_Q5UOsSW4MTCFqKBg-] disk not present in databaseSubmit result: 65P21DlxJx_Q5UOsSW4MTCFqKBg- has been uploaded

==== Log checksum 83CD4A6F9AF8B403D0835B45AD4CC6F52DF5D91D912A0AF38A063DC976662EAA ====
[/spoiler]
[spoiler="[AR] Chuunibyou Demo Koi ga Shitai Ren Original Soundtrack [Nijine]"]
Дата выпуска: 2 апреля 2014 г.
Каталог: LACA-9344~45
Тип рипа: image+.cue
Продолжительность: 1.31.10
Наличие сканов в содержимом раздачи: да
Треклист:
1) VOICE (TV size);
2) Arata na Hajimari no Yokan;
3) Heiwa na Nichijou;
4) Subarashiki Gakuen Seikatsu;
5) Comical Days;
6) POP! HAPPY! ENJOY!;
7) Dekomori, Kenzan ~Tsuujou~;
8) Dekomori, Kenzan ~Yuutousei~;
9) Tohoho na Nichijou;
10) Chiisana Koufukukan;
11) Honto no Kimochi;
12) Kyouteki Shutsugen;
13) Hazero Real! Hajikero Synapse!;
14) Petit Jiken Hassei?;
15) Owari Yokereba Subete Yoshi;
16) Hashiridasu Kodou;
17) Kyokutou Majutsu Hirune Kessha no Natsu no Chotto Zannen na Hibi;
18) All Green!;
19) Yuuta, Keiyaku wo...;
20) Kore ga Bokura no Nichijou;
21) Chuunibyou de Aru to Iu Koto;
22) Mori Summer, Kourin;
23) Ouen Enzetsu I;
24) Ouen Enzetsu II;
25) Kyokutou Majutsu Hirune Kessha no Natsu no Chotto Tanoshii Hibi;
26) Dekomori no March;
27) Game Taiketsu ~Binbou King Hen~;
28) Game Taiketsu ~Dance Battle Hen~;
29) Siesta Battle I;
30) Siesta Battle II;
31) Chuunibyou Eyecatch Ren A.
Exact Audio Copy V1.0 beta 3 from 29. August 2011

EAC extraction logfile from 10. May 2014, 13:25

虹音 / TVアニメ 中二病でも恋がしたい!戀 オリジナルサウンドトラックDisc1

Used drive : MATSHITADVD-R UJ-898 Adapter: 1 ID: 0

Read mode : SecureUtilize accurate stream : YesDefeat audio cache : YesMake use of C2 pointers : No

Read offset correction : 102Overread into Lead-In and Lead-Out : NoFill up missing offset samples with silence : YesDelete leading and trailing silent blocks : NoNull samples used in CRC calculations : YesUsed interface : Native Win32 interface for Win NT & 2000

Used output format : User Defined EncoderSelected bitrate : 1024 kBit/sQuality : HighAdd ID3 tag : NoCommand line compressor : C:\Program Files (x86)\Exact Audio Copy\Flac\flac.exeAdditional command line options : -8 -V -T "ARTIST=%artist%" -T "TITLE=%title%" -T "ALBUM=%albumtitle%" -T "DATE=%year%" -T "TRACKNUMBER=%tracknr%" -T "GENRE=%genre%" -T "PERFORMER=%albuminterpret%" -T "COMPOSER=%composer%" %haslyrics%--tag-from-file=LYRICS="%lyricsfile%"%haslyrics% -T "ALBUMARTIST=%albumartist%" -T "DISCNUMBER=%cdnumber%" -T "TOTALDISCS=%totalcds%" -T "TOTALTRACKS=%numtracks%" -T "COMMENT=EAC V1.0 beta 3, Secure Mode, Test & Copy, AccurateRip, FLAC -8" %source% -o %dest%

TOC of the extracted CD

Track | Start | Length | Start sector | End sector --------------------------------------------------------- 1 | 0:00.00 | 1:32.68 | 0 | 6967 2 | 1:32.68 | 1:37.68 | 6968 | 14310 3 | 3:10.61 | 1:48.73 | 14311 | 22483 4 | 4:59.59 | 1:35.38 | 22484 | 29646 5 | 6:35.22 | 1:40.62 | 29647 | 37208 6 | 8:16.09 | 1:29.66 | 37209 | 43949 7 | 9:46.00 | 1:45.43 | 43950 | 51867 8 | 11:31.43 | 1:31.15 | 51868 | 58707 9 | 13:02.58 | 1:42.04 | 58708 | 66361 10 | 14:44.62 | 1:42.50 | 66362 | 74061 11 | 16:27.37 | 1:49.61 | 74062 | 82297 12 | 18:17.23 | 1:40.52 | 82298 | 89849 13 | 19:58.00 | 2:13.37 | 89850 | 99861 14 | 22:11.37 | 1:36.74 | 99862 | 107135 15 | 23:48.36 | 1:34.36 | 107136 | 114221 16 | 25:22.72 | 1:35.27 | 114222 | 121373 17 | 26:58.24 | 1:39.06 | 121374 | 128804 18 | 28:37.30 | 1:46.25 | 128805 | 136779 19 | 30:23.55 | 1:30.11 | 136780 | 143540 20 | 31:53.66 | 1:34.46 | 143541 | 150636 21 | 33:28.37 | 1:45.16 | 150637 | 158527 22 | 35:13.53 | 1:32.14 | 158528 | 165441 23 | 36:45.67 | 1:33.55 | 165442 | 172471 24 | 38:19.47 | 1:29.61 | 172472 | 179207 25 | 39:49.33 | 1:41.56 | 179208 | 186838 26 | 41:31.14 | 1:18.52 | 186839 | 192740 27 | 42:49.66 | 0:18.29 | 192741 | 194119 28 | 43:08.20 | 0:19.63 | 194120 | 195607 29 | 43:28.08 | 1:31.09 | 195608 | 202441 30 | 44:59.17 | 1:29.33 | 202442 | 209149 31 | 46:28.50 | 0:10.17 | 209150 | 209916

Range status and errors

Selected range

Filename C:\EAC\TVアニメ 中二病でも恋がしたい!戀 オリジナルサウンドトラック\虹音 - TVアニメ 中二病でも恋がしたい!戀 オリジナルサウンドトラックDisc1.wav

Peak level 99.9 % Extraction speed 4.6 X Range quality 100.0 % Copy CRC 704DADBD Copy OK

No errors occurred

AccurateRip summary

Track 1 accurately ripped (confidence 1) [2D194DAA] (AR v2)Track 2 accurately ripped (confidence 1) [79BB972A] (AR v2)Track 3 accurately ripped (confidence 1) [80C3041C] (AR v2)Track 4 accurately ripped (confidence 1) [0337EB5F] (AR v2)Track 5 accurately ripped (confidence 1) [CE5FA693] (AR v2)Track 6 accurately ripped (confidence 1) [B531A7F9] (AR v2)Track 7 accurately ripped (confidence 1) [1B615F60] (AR v2)Track 8 accurately ripped (confidence 1) [2031DA01] (AR v2)Track 9 accurately ripped (confidence 1) [9C318FEF] (AR v2)Track 10 accurately ripped (confidence 1) [2D94709E] (AR v2)Track 11 accurately ripped (confidence 1) [56745217] (AR v2)Track 12 accurately ripped (confidence 1) [9AE7E2ED] (AR v2)Track 13 accurately ripped (confidence 1) [FEBE8F76] (AR v2)Track 14 accurately ripped (confidence 1) [E14551A4] (AR v2)Track 15 accurately ripped (confidence 1) [1CD1945A] (AR v2)Track 16 accurately ripped (confidence 1) [2718DEB2] (AR v2)Track 17 accurately ripped (confidence 1) [07AD012E] (AR v2)Track 18 accurately ripped (confidence 1) [76DE5B0F] (AR v2)Track 19 accurately ripped (confidence 1) [8F1E249E] (AR v2)Track 20 accurately ripped (confidence 1) [99074D31] (AR v2)Track 21 accurately ripped (confidence 1) [CD9C58E0] (AR v2)Track 22 accurately ripped (confidence 1) [BD916E80] (AR v2)Track 23 accurately ripped (confidence 1) [46934B1C] (AR v2)Track 24 accurately ripped (confidence 1) [E5AF7D96] (AR v2)Track 25 accurately ripped (confidence 1) [384FF2E6] (AR v2)Track 26 accurately ripped (confidence 1) [9B397A81] (AR v2)Track 27 accurately ripped (confidence 1) [C8AB176E] (AR v2)Track 28 accurately ripped (confidence 1) [76750A6F] (AR v2)Track 29 accurately ripped (confidence 1) [C10858D8] (AR v2)Track 30 accurately ripped (confidence 1) [B19D599E] (AR v2)Track 31 accurately ripped (confidence 1) [9729FC14] (AR v2)

All tracks accurately ripped

End of status report

==== Log checksum 8F87A73E2089E5E321B4AE113216B59C9E19CACA374AAFC5604563A4CDBAA9F1 ====
Треклист:
1) Chuunibyou Eyecatch Ren B;
2) Shichimiya Satone no Theme;
3) Ano Ko wa Osawagase Girl;
4) Physical Linkage;
5) Yuuta to Shichimiya no Deai;
6) Henshin Scene ~Shichimiya Satone~;
7) Shuugaku Ryokou;
8) Itsumo to Chigau Yoru;
9) Ippo Fumidashitakute;
10) Koigokoro ga Ugoku toki;
11) Futarikiri no Ichinichi;
12) Souzouryoku, Bakuhatsu (Imagination Big Bang);
13) Accident Hassei!;
14) Kimi wo Omou to Iu Koto;
15) Kimi to no Keiyaku;
16) Nise Mori Summer no Theme;
17) Mori Summer no Shoumei;
18) Spiritual Caricature;
19) Watashi wa Watashi de Iyou to Omou;
20) Full Armor Jaoushingan;
21) Kanarazu Nashitogerareru;
22) Watashi no Naka no Teki;
23) Rikka no Sagashimono;
24) An'enryuu to no Tatakai;
25) Bokutachi wa Omoitsudzukeru;
26) Van!shment Th!s World (TV size).
Exact Audio Copy V1.0 beta 3 from 29. August 2011

EAC extraction logfile from 10. May 2014, 12:37

虹音 / TVアニメ 中二病でも恋がしたい!戀 オリジナルサウンドトラックDisc2

Used drive : MATSHITADVD-R UJ-898 Adapter: 1 ID: 0

Read mode : SecureUtilize accurate stream : YesDefeat audio cache : YesMake use of C2 pointers : No

Read offset correction : 102Overread into Lead-In and Lead-Out : NoFill up missing offset samples with silence : YesDelete leading and trailing silent blocks : NoNull samples used in CRC calculations : YesUsed interface : Native Win32 interface for Win NT & 2000

Used output format : User Defined EncoderSelected bitrate : 1024 kBit/sQuality : HighAdd ID3 tag : NoCommand line compressor : C:\Program Files (x86)\Exact Audio Copy\Flac\flac.exeAdditional command line options : -8 -V -T "ARTIST=%artist%" -T "TITLE=%title%" -T "ALBUM=%albumtitle%" -T "DATE=%year%" -T "TRACKNUMBER=%tracknr%" -T "GENRE=%genre%" -T "PERFORMER=%albuminterpret%" -T "COMPOSER=%composer%" %haslyrics%--tag-from-file=LYRICS="%lyricsfile%"%haslyrics% -T "ALBUMARTIST=%albumartist%" -T "DISCNUMBER=%cdnumber%" -T "TOTALDISCS=%totalcds%" -T "TOTALTRACKS=%numtracks%" -T "COMMENT=EAC V1.0 beta 3, Secure Mode, Test & Copy, AccurateRip, FLAC -8" %source% -o %dest%

TOC of the extracted CD

Track | Start | Length | Start sector | End sector --------------------------------------------------------- 1 | 0:00.00 | 0:09.73 | 0 | 747 2 | 0:09.73 | 1:31.17 | 748 | 7589 3 | 1:41.15 | 1:37.52 | 7590 | 14916 4 | 3:18.67 | 1:53.52 | 14917 | 23443 5 | 5:12.44 | 1:43.38 | 23444 | 31206 6 | 6:56.07 | 0:32.52 | 31207 | 33658 7 | 7:28.59 | 1:41.37 | 33659 | 41270 8 | 9:10.21 | 1:36.39 | 41271 | 48509 9 | 10:46.60 | 1:30.61 | 48510 | 55320 10 | 12:17.46 | 1:31.33 | 55321 | 62178 11 | 13:49.04 | 1:36.70 | 62179 | 69448 12 | 15:25.74 | 1:52.02 | 69449 | 77850 13 | 17:18.01 | 1:29.12 | 77851 | 84537 14 | 18:47.13 | 1:34.65 | 84538 | 91652 15 | 20:22.03 | 1:33.55 | 91653 | 98682 16 | 21:55.58 | 1:46.45 | 98683 | 106677 17 | 23:42.28 | 0:53.35 | 106678 | 110687 18 | 24:35.63 | 1:42.71 | 110688 | 118408 19 | 26:18.59 | 1:39.53 | 118409 | 125886 20 | 27:58.37 | 1:44.73 | 125887 | 133759 21 | 29:43.35 | 2:02.27 | 133760 | 142936 22 | 31:45.62 | 1:53.29 | 142937 | 151440 23 | 33:39.16 | 3:23.00 | 151441 | 166665 24 | 37:02.16 | 2:18.66 | 166666 | 177081 25 | 39:21.07 | 3:36.08 | 177082 | 193289 26 | 42:57.15 | 1:33.45 | 193290 | 200309

Range status and errors

Selected range

Filename C:\EAC\TVアニメ 中二病でも恋がしたい!戀 オリジナルサウンドトラック\虹音 - TVアニメ 中二病でも恋がしたい!戀 オリジナルサウンドトラックDisc2.wav

Peak level 99.9 % Extraction speed 4.5 X Range quality 100.0 % Copy CRC 8BA70C35 Copy OK

No errors occurred

AccurateRip summary

Track 1 accurately ripped (confidence 1) [BA476550] (AR v2)Track 2 accurately ripped (confidence 1) [2760A921] (AR v2)Track 3 accurately ripped (confidence 1) [5BC1A145] (AR v2)Track 4 accurately ripped (confidence 1) [D64DA1BF] (AR v2)Track 5 accurately ripped (confidence 1) [51419E25] (AR v2)Track 6 accurately ripped (confidence 1) [7E320B60] (AR v2)Track 7 accurately ripped (confidence 1) [56992C23] (AR v2)Track 8 accurately ripped (confidence 1) [6F810134] (AR v2)Track 9 accurately ripped (confidence 1) [A6647C8F] (AR v2)Track 10 accurately ripped (confidence 1) [90E51EDB] (AR v2)Track 11 accurately ripped (confidence 1) [68748E4A] (AR v2)Track 12 accurately ripped (confidence 1) [EE9EE340] (AR v2)Track 13 accurately ripped (confidence 1) [6CE6AFE2] (AR v2)Track 14 accurately ripped (confidence 1) [BBAC3153] (AR v2)Track 15 accurately ripped (confidence 1) [5049539D] (AR v2)Track 16 accurately ripped (confidence 1) [4FCC69A3] (AR v2)Track 17 accurately ripped (confidence 1) [9B96B78F] (AR v2)Track 18 accurately ripped (confidence 1) [07C9BE3F] (AR v2)Track 19 accurately ripped (confidence 1) [E3906A5D] (AR v2)Track 20 accurately ripped (confidence 1) [04444EBA] (AR v2)Track 21 accurately ripped (confidence 1) [030CE2F8] (AR v2)Track 22 accurately ripped (confidence 1) [8516A0F2] (AR v2)Track 23 accurately ripped (confidence 1) [9CA9D922] (AR v2)Track 24 accurately ripped (confidence 1) [E2015366] (AR v2)Track 25 accurately ripped (confidence 1) [1AB5F888] (AR v2)Track 26 accurately ripped (confidence 1) [2273203F] (AR v2)

All tracks accurately ripped

End of status report

==== Log checksum EED275E483D4250B390BBE5A8A0C1F7DFC0BA02784F78A8F8259EFC9CF3CA798 ====
[/spoiler]
[spoiler="Chuunibyou Demo Koi ga Shitai Ren Drama CD Ai no Tenbin ni Yureru Villanelle [VA]"]
Дата выпуска: 19 марта 2014 г.
Каталог: LACA-15375
Тип рипа: image+.cue
Продолжительность: 43.16
Наличие сканов в содержимом раздачи: да
Треклист:
1) ヴァレンティヌス・タクティクス;
2) ダジャレを言うのは誰じゃ? (1笑い);
3) ロミオとジュリエット!?;
4) ダジャレを言うのは誰じゃ? (2笑い);
5) ヒュプノクロスジハード;
6) ダジャレを言うのは誰じゃ? (3笑い);
7) くみんとゆかいな仲間たち;
8) ダジャレを言うのは誰じゃ? (4笑い);
9) モリサマーって呼ばないで;
10) ダジャレを言うのは誰じゃ? (5笑い);
11) 新たな魔獣召喚;
12) ヴァイス・タグ.
Exact Audio Copy V1.0 beta 3 from 29. August 2011

EAC extraction logfile from 13. April 2014, 5:54

中二病でも恋がしたい!戀 / 中二病でも恋がしたい!戀 ドラマCD 愛の天秤に揺れる抒情詩

Used drive : HL-DT-STDVDRAM GT32N Adapter: 0 ID: 1

Read mode : SecureUtilize accurate stream : YesDefeat audio cache : NoMake use of C2 pointers : No

Read offset correction : 103Overread into Lead-In and Lead-Out : NoFill up missing offset samples with silence : YesDelete leading and trailing silent blocks : NoNull samples used in CRC calculations : YesUsed interface : Native Win32 interface for Win NT & 2000

Used output format : Internal WAV RoutinesSample format : 44.100 Hz; 16 Bit; Stereo

TOC of the extracted CD

Track | Start | Length | Start sector | End sector --------------------------------------------------------- 1 | 0:00.00 | 8:41.43 | 0 | 39117 2 | 8:41.43 | 0:20.43 | 39118 | 40660 3 | 9:02.11 | 6:46.66 | 40661 | 71176 4 | 15:49.02 | 0:29.71 | 71177 | 73422 5 | 16:18.73 | 6:24.36 | 73423 | 102258 6 | 22:43.34 | 0:22.71 | 102259 | 103979 7 | 23:06.30 | 7:00.39 | 103980 | 135518 8 | 30:06.69 | 0:28.71 | 135519 | 137689 9 | 30:35.65 | 2:43.19 | 137690 | 149933 10 | 33:19.09 | 0:21.71 | 149934 | 151579 11 | 33:41.05 | 5:08.24 | 151580 | 174703 12 | 38:49.29 | 4:26.39 | 174704 | 194692

Range status and errors

Selected range

Filename D:\temp\中二病でも恋がしたい!戀 ドラマCD 愛の天秤に揺れる抒情詩.wav

Peak level 99.8 % Extraction speed 2.8 X Range quality 99.9 % Copy CRC 868FD43B Copy OK

No errors occurred

AccurateRip summary

Track 1 not present in databaseTrack 2 not present in databaseTrack 3 not present in databaseTrack 4 not present in databaseTrack 5 not present in databaseTrack 6 not present in databaseTrack 7 not present in databaseTrack 8 not present in databaseTrack 9 not present in databaseTrack 10 not present in databaseTrack 11 not present in databaseTrack 12 not present in database

None of the tracks are present in the AccurateRip database

End of status report

---- CUETools DB Plugin V2.1.3

[CTDB TOCID: oZO9lQw8IwyYqvyX863X.7wYXeg-] found, Submit result: oZO9lQw8IwyYqvyX863X.7wYXeg- has been confirmed[14a36620] (2/2) Accurately ripped

==== Log checksum 830B118B22D9ECEDE8B085792AA7F709D699B77A9FBE966BFEE5AA6FEC1A4977 ====
[/spoiler]
[/spoiler]
[AR] — данное обозначение свидетельствует о том, что рип сделан в соответствии с [url=...3583832]данными[/url] настройками и является максимально точным.
В: Когда тут появится "N-ый" альбом?
О: После его выхода (узнать дату выхода можно, например, на cdjapan), загрузки в интернеты и появления у меня свободного времени.

В: А как называется трек из "N-ой" серии, играющий на "X" минуте?
О: Рекомендую скачать саундтрек и поискать самим — быстрее будет.

В: Почему треки не разделены?
О: Правилами запрещено менять форм-фактор. Да и раздачи образом мне больше нравятся, если честно.

В: Я нашёл ошибку в оформлении/раздаче.
О: Пожалуйста, напишите мне в личку об этом.

В: Как можно отслеживать релизы?
О: Используя фид на весь раздел остов в лосе (или только мои релизы).


Трекер:  [ 27-Ноя-2014 11:00 ]

  

Скачать .torrent

Размер .torrent файла 59 KB


Размер: 5.34 GB
Хэш (hash) релиза: 304b811abce9ab987c68b1e639169929fe21084b

Еще никто не оставлял запись к записи скачать торрент Chuunibyou demo Koi ga Shitai! Chunibyo demo Koi ga Shitai! . Будь первым!

!Обратная связь