Télécharger Part 4 | Warp 2012 ENG Repack by Sash HD | Kaze no Stigma

Скачать через торрент музыку Мобильный доспех Гандам Единорог Mobile Suit Gundam Unicorn бесплатно без регистрации torrent

Статистика раздачи
Размер:  1.64 GB   |    Зарегистрирован:  3 года 8 месяцев   |    .torrent скачан:  37 раз   |   
Раздают:  1  
   
загрузка...
 
Автор Сообщение

Galfimbul

avatar Galfimbul


Мобильный доспех Гандам Единорог / Mobile Suit Gundam Unicorn

Название альбома: Mobile Suit Gundam Unicorn Original Soundtrack Vol. 2, Vol. 3, Vol. 4
Композитор: Hiroyuki Sawano
Год выпуска: 2011-2014 г.
Страна: Япония
Аудио кодек: APE & FLAC
Тип рипа: image+.cue, tracks+.cue
Битрейт аудио: lossless
Наличие сканов в содержимом раздачи: да

Треклист:
Дата выхода: 9 ноября 2011 г.
Продолжительность: 01:05:27

01 EGO
02 DESTROY SELF-SACRIFICE
03 MORE...
04 MAD-NUG
05 THE BATTLE
06 0001
07 SINANJU
08 MARTHA
09 0-G_EP1
10 CAPTURE
11 OYM-PF
12 F2
13 SILENT
14 DESERT
15 MOBILE SUIT _W-REG MIX_
16 MOBILE ARMOR
17 REMIND YOU
18 DAGUZA
PERFORMER "аVЦмНOФV"
TITLE "Л@УЃРнОmГKГУГ_ГАUC ГIГКГWГiГЛГTГEГУГhГgГЙГbГN2"
FILE "CDImage.ape" WAVE
TRACK 01 AUDIO
TITLE "EGO"
PERFORMER "ПђЧ—ЦҐИи"
INDEX 01 00:00:00
TRACK 02 AUDIO
TITLE "DESTROYБ®SELFБ|SACRIFICE"
PERFORMER "аVЦмНOФV"
INDEX 01 03:15:35
TRACK 03 AUDIO
TITLE "MOREБc"
PERFORMER "аVЦмНOФV"
INDEX 01 08:09:10
TRACK 04 AUDIO
TITLE "MAD-NUG"
PERFORMER "аVЦмНOФV"
INDEX 01 10:40:30
TRACK 05 AUDIO
TITLE "THE BATTLE"
PERFORMER "аVЦмНOФV"
INDEX 01 15:01:45
TRACK 06 AUDIO
TITLE "0001"
PERFORMER "аVЦмНOФV"
INDEX 01 19:54:55
TRACK 07 AUDIO
TITLE "SINANJU"
PERFORMER "аVЦмНOФV"
INDEX 01 23:09:10
TRACK 08 AUDIO
TITLE "MARTHA"
PERFORMER "аVЦмНOФV"
INDEX 01 25:54:15
TRACK 09 AUDIO
TITLE "0-G:EP1"
PERFORMER "аVЦмНOФV"
INDEX 01 30:16:60
TRACK 10 AUDIO
TITLE "CAPTURE"
PERFORMER "аVЦмНOФV"
INDEX 01 31:46:70
TRACK 11 AUDIO
TITLE "OYM-PF"
PERFORMER "аVЦмНOФV"
INDEX 01 34:38:40
TRACK 12 AUDIO
TITLE "F2"
PERFORMER "аVЦмНOФV"
INDEX 01 37:21:35
TRACK 13 AUDIO
TITLE "SILENT"
PERFORMER "аVЦмНOФV"
INDEX 01 39:37:15
TRACK 14 AUDIO
TITLE "DESERT"
PERFORMER "аVЦмНOФV"
INDEX 01 43:46:00
TRACK 15 AUDIO
TITLE "MOBILE SUIT <W-REC MIX>"
PERFORMER "аVЦмНOФV"
INDEX 01 46:25:30
TRACK 16 AUDIO
TITLE "MOBILE ARMOR"
PERFORMER "аVЦмНOФV"
INDEX 01 50:36:30
TRACK 17 AUDIO
TITLE "REMIND YOU"
PERFORMER "ПђЧ—ЦҐИи"
INDEX 01 57:22:00
TRACK 18 AUDIO
TITLE "DAGUZA"
PERFORMER "аVЦмНOФV"
INDEX 01 62:20:35
X Lossless Decoder version 20121013 (142.0)

XLD AccurateRip checking logfile

TOC of the selected file
Track | Start | Length | Start sector | End sector
---------------------------------------------------------
1 | 00:00:00 | 03:15:35 | 0 | 14659
2 | 03:15:35 | 04:53:50 | 14660 | 36684
3 | 08:09:10 | 02:31:20 | 36685 | 48029
4 | 10:40:30 | 04:21:15 | 48030 | 67619
5 | 15:01:45 | 04:53:10 | 67620 | 89604
6 | 19:54:55 | 03:14:30 | 89605 | 104184
7 | 23:09:10 | 02:45:05 | 104185 | 116564
8 | 25:54:15 | 04:22:45 | 116565 | 136259
9 | 30:16:60 | 01:30:10 | 136260 | 143019
10 | 31:46:70 | 02:51:45 | 143020 | 155889
11 | 34:38:40 | 02:42:70 | 155890 | 168109
12 | 37:21:35 | 02:15:55 | 168110 | 178289
13 | 39:37:15 | 04:08:60 | 178290 | 196949
14 | 43:46:00 | 02:39:30 | 196950 | 208904
15 | 46:25:30 | 04:11:00 | 208905 | 227729
16 | 50:36:30 | 06:45:45 | 227730 | 258149
17 | 57:22:00 | 04:58:35 | 258150 | 280534
18 | 62:20:35 | 03:06:10 | 280535 | 294494

List of alternate offset correction values
(1) 6 (confidence 4)

AccurateRip Summary (DiscID: 00299735-022781f1-0f0f5612)
Track 01 : OK (v1, confidence 4/4, with different offset)
Track 02 : OK (v1, confidence 4/4, with different offset)
Track 03 : OK (v1, confidence 4/4, with different offset)
Track 04 : OK (v1, confidence 4/4, with different offset)
Track 05 : OK (v1, confidence 4/4, with different offset)
Track 06 : OK (v1, confidence 4/4, with different offset)
Track 07 : OK (v1, confidence 4/4, with different offset)
Track 08 : OK (v1, confidence 4/4, with different offset)
Track 09 : OK (v1, confidence 4/4, with different offset)
Track 10 : OK (v1, confidence 4/4, with different offset)
Track 11 : OK (v1, confidence 4/4, with different offset)
Track 12 : OK (v1, confidence 4/4, with different offset)
Track 13 : OK (v1, confidence 4/4, with different offset)
Track 14 : OK (v1, confidence 4/4, with different offset)
Track 15 : OK (v1, confidence 4/4, with different offset)
Track 16 : OK (v1, confidence 4/4, with different offset)
Track 17 : OK (v1, confidence 4/4, with different offset)
Track 18 : OK (v1, confidence 4/4, with different offset)
->All tracks accurately ripped.

All Tracks
Album gain : -7.34 dB
Peak : 0.988403
CRC32 hash : 1FB72281
CRC32 hash (skip zero) : BE7235D6

Track 01
Track gain : -5.45 dB
Peak : 0.975983
CRC32 hash : 8A06CD44
CRC32 hash (skip zero) : 610DDF59
AccurateRip v1 signature : 581B9A56 (51E9F370 w/correction)
AccurateRip v2 signature : 3DFAB30D
->Accurately ripped with different offset (v1, confidence 4/4, offset +6)

Track 02
Track gain : -5.75 dB
Peak : 0.974060
CRC32 hash : D35CC881
CRC32 hash (skip zero) : B7632873
AccurateRip v1 signature : 7F3361F8 (191ED6BA w/correction)
AccurateRip v2 signature : 7D4547E2
->Accurately ripped with different offset (v1, confidence 4/4, offset +6)

Track 03
Track gain : -1.48 dB
Peak : 0.676544
CRC32 hash : 22C9DE3F
CRC32 hash (skip zero) : 635DA8DB
AccurateRip v1 signature : 91E5A7D2 (9376F72C w/correction)
AccurateRip v2 signature : E5CA9808
->Accurately ripped with different offset (v1, confidence 4/4, offset +6)

Track 04
Track gain : -8.08 dB
Peak : 0.984528
CRC32 hash : 837ACD05
CRC32 hash (skip zero) : 58D993BE
AccurateRip v1 signature : B2F11295 (79377795 w/correction)
AccurateRip v2 signature : CEFCFCDA
->Accurately ripped with different offset (v1, confidence 4/4, offset +6)

Track 05
Track gain : -6.97 dB
Peak : 0.971924
CRC32 hash : 74AE4149
CRC32 hash (skip zero) : E02FB3A7
AccurateRip v1 signature : 3D521A13 (313D0A47 w/correction)
AccurateRip v2 signature : DAB45341
->Accurately ripped with different offset (v1, confidence 4/4, offset +6)

Track 06
Track gain : 2.22 dB
Peak : 0.578949
CRC32 hash : CD690B74
CRC32 hash (skip zero) : C5B0D096
AccurateRip v1 signature : 8A0AF9C2 (3049C200 w/correction)
AccurateRip v2 signature : 67EE2810
->Accurately ripped with different offset (v1, confidence 4/4, offset +6)

Track 07
Track gain : -4.76 dB
Peak : 0.981537
CRC32 hash : 33137C1A
CRC32 hash (skip zero) : 10913CB0
AccurateRip v1 signature : 00E8F06D (44D38489 w/correction)
AccurateRip v2 signature : FF97F309
->Accurately ripped with different offset (v1, confidence 4/4, offset +6)

Track 08
Track gain : -3.30 dB
Peak : 0.869019
CRC32 hash : 7633182E
CRC32 hash (skip zero) : A689FC41
AccurateRip v1 signature : 9DE55CD3 (15670587 w/correction)
AccurateRip v2 signature : D66249B2
->Accurately ripped with different offset (v1, confidence 4/4, offset +6)

Track 09
Track gain : -5.18 dB
Peak : 0.968048
CRC32 hash : 935D5D98
CRC32 hash (skip zero) : 3BEE71AB
AccurateRip v1 signature : F42CBAA3 (97A0FB0F w/correction)
AccurateRip v2 signature : 906F2DA5
->Accurately ripped with different offset (v1, confidence 4/4, offset +6)

Track 10
Track gain : -3.81 dB
Peak : 0.971558
CRC32 hash : 793A3513
CRC32 hash (skip zero) : 887DE4FD
AccurateRip v1 signature : F57297EF (F5ED9E81 w/correction)
AccurateRip v2 signature : 1F824988
->Accurately ripped with different offset (v1, confidence 4/4, offset +6)

Track 11
Track gain : 0.24 dB
Peak : 0.801514
CRC32 hash : B5E49A7C
CRC32 hash (skip zero) : 9307C98C
AccurateRip v1 signature : 787A6DBA (091C2D70 w/correction)
AccurateRip v2 signature : 977AC744
->Accurately ripped with different offset (v1, confidence 4/4, offset +6)

Track 12
Track gain : -0.93 dB
Peak : 0.825287
CRC32 hash : 75D8F678
CRC32 hash (skip zero) : 44179EF5
AccurateRip v1 signature : 6525BF82 (349E7F98 w/correction)
AccurateRip v2 signature : C70120FE
->Accurately ripped with different offset (v1, confidence 4/4, offset +6)

Track 13
Track gain : -2.73 dB
Peak : 0.832428
CRC32 hash : 8F14A68C
CRC32 hash (skip zero) : B3D67B63
AccurateRip v1 signature : C2F26AE0 (0C982B0E w/correction)
AccurateRip v2 signature : E71FE353
->Accurately ripped with different offset (v1, confidence 4/4, offset +6)

Track 14
Track gain : -4.38 dB
Peak : 0.970184
CRC32 hash : F57A1215
CRC32 hash (skip zero) : C8055C8B
AccurateRip v1 signature : 406BD662 (91FB9B0C w/correction)
AccurateRip v2 signature : 0F41FFAE
->Accurately ripped with different offset (v1, confidence 4/4, offset +6)

Track 15
Track gain : -8.37 dB
Peak : 0.980499
CRC32 hash : 7177DD94
CRC32 hash (skip zero) : 3FBE73F5
AccurateRip v1 signature : 81E0814F (A6082903 w/correction)
AccurateRip v2 signature : F541FFBF
->Accurately ripped with different offset (v1, confidence 4/4, offset +6)

Track 16
Track gain : -7.64 dB
Peak : 0.980347
CRC32 hash : EBFC28AF
CRC32 hash (skip zero) : A2A62AC2
AccurateRip v1 signature : AB3CC75E (282E411E w/correction)
AccurateRip v2 signature : 4B86CB31
->Accurately ripped with different offset (v1, confidence 4/4, offset +6)

Track 17
Track gain : -9.22 dB
Peak : 0.988403
CRC32 hash : 67D632C7
CRC32 hash (skip zero) : A5E44A74
AccurateRip v1 signature : D946B47C (F1177ED4 w/correction)
AccurateRip v2 signature : 880A8CBA
->Accurately ripped with different offset (v1, confidence 4/4, offset +6)

Track 18
Track gain : -3.44 dB
Peak : 0.874298
CRC32 hash : D3B9D8F4
CRC32 hash (skip zero) : 3FF0BC98
AccurateRip v1 signature : 3AC46B35 (F4531F09 w/correction)
AccurateRip v2 signature : E66B591E
->Accurately ripped with different offset (v1, confidence 4/4, offset +6)

End of status report
Дата выхода: 9 мая 2012 г.
Продолжительность: 01:45:26

Disc 1:
01 [SYMPHONIC SUITE `UC2012`] 1ST MOV. BANSHEE
02 [SYMPHONIC SUITE `UC2012`] 2ND MOV. PSYCHO-FIELD
03 [SYMPHONIC SUITE `UC2012`] 3RD MOV. ANGELO
04 [SYMPHONIC SUITE `UC2012`] 4TH MOV. NEO ZEON
05 [SYMPHONIC SUITE `UC2012`] 5TH MOV. GUNDAM
06 RIDDHE
07 MINOVSKY PARTICLE
08 SYMPATHY
09 RED COMET
10 AUDREY
11 PIANO UC-NO.1
12 PIANO UC-NO.2
13 PIANO UC-NO.3
Продолжительность: 00:52:03

Disc 2:
01 Opening
02 U.C.0096 (LIVE)
03 MOBILE SUIT (LIVE)
04 MINEVA (LIVE)
05 FULL FRONTAL (LIVE)
06 A LETTER (LIVE)
07 LAPLACE (LIVE)
08 THE UNIVERS - LICHT MEER (LIVE)
09 MAD-NUG (LIVE)
10 RX-0 (LIVE)
11 LIFE & DEATH (LIVE)
12 ON YOUR MARK (LIVE)
13 EGO (LIVE)
14 UNICORN (LIVE)
15 REMIND YOU (LIVE)
Продолжительность: 00:53:23
TITLE "機動戦士ガンダムUC オリジナル サウンドトラック3 Disc1"
PERFORMER "澤野弘之"
REM GENRE "Soundtrack"
REM DATE "2012"
REM DISCNUMBER 1
REM TOTALDISCS 2
REM DISCID AB0C320D
FILE "Disc1.flac" WAVE
TRACK 01 AUDIO
TITLE "[SYMPHONIC SUITE UC2012] 1ST MOV.:BANSHEE (SIDE:A)"
SONGWRITER "澤野弘之"
ISRC JPP301200141
INDEX 01 00:00:00
TRACK 02 AUDIO
TITLE "[SYMPHONIC SUITE UC2012] 2ND MOV.:PSYCHO-FIELD (SIDE:A)"
SONGWRITER "澤野弘之"
ISRC JPP301200142
INDEX 00 05:44:16
INDEX 01 05:45:45
TRACK 03 AUDIO
TITLE "[SYMPHONIC SUITE UC2012] 3RD MOV.:ANGELO (SIDE:A)"
SONGWRITER "澤野弘之"
ISRC JPP301200143
INDEX 01 10:08:35
TRACK 04 AUDIO
TITLE "[SYMPHONIC SUITE UC2012] 4TH MOV.:NEO ZEON (SIDE:A)"
SONGWRITER "澤野弘之"
ISRC JPP301200144
INDEX 00 14:25:11
INDEX 01 14:27:40
TRACK 05 AUDIO
TITLE "[SYMPHONIC SUITE UC2012] 5TH MOV.:GUNDAM (SIDE:A)"
SONGWRITER "澤野弘之"
ISRC JPP301200145
INDEX 01 20:09:10
TRACK 06 AUDIO
TITLE "RIDDHE (SIDE:B)"
SONGWRITER "澤野弘之"
ISRC JPP301200146
INDEX 00 25:56:25
INDEX 01 25:59:65
TRACK 07 AUDIO
TITLE "MINOVSKY PARTICLE (SIDE:B)"
SONGWRITER "澤野弘之"
ISRC JPP301200147
INDEX 01 29:52:35
TRACK 08 AUDIO
TITLE "SYMPATHY (SIDE:B)"
SONGWRITER "澤野弘之"
ISRC JPP301200148
INDEX 00 33:07:55
INDEX 01 33:09:10
TRACK 09 AUDIO
TITLE "RED COMET (SIDE:B)"
SONGWRITER "澤野弘之"
ISRC JPP301200149
INDEX 01 35:17:65
TRACK 10 AUDIO
TITLE "AUDREY (SIDE:B)"
SONGWRITER "澤野弘之"
ISRC JPP301200150
INDEX 01 38:48:63
TRACK 11 AUDIO
TITLE "PIANO UC-NO. 1 (SIDE:B)"
SONGWRITER "澤野弘之"
ISRC JPP301200151
INDEX 00 41:40:31
INDEX 01 41:42:65
TRACK 12 AUDIO
TITLE "PIANO UC-NO. 2 (SIDE:B)"
SONGWRITER "澤野弘之"
ISRC JPP301200152
INDEX 01 45:24:50
TRACK 13 AUDIO
TITLE "PIANO UC-NO. 3 (SIDE:B)"
SONGWRITER "澤野弘之"
ISRC JPP301200153
INDEX 00 48:38:46
INDEX 01 48:42:00
REM GENRE Soundtrack
REM DATE 2012
REM DISCID D60C820F
SONGWRITER "澤野弘之"
TITLE "機動戦士ガンダムUC オリジナル サウンドトラック3 Disc2"
FILE "Disc2.flac" WAVE
TRACK 01 AUDIO
TITLE "Opening"
PERFORMER "澤野弘之"
ISRC JPP301200154
INDEX 01 00:00:00
TRACK 02 AUDIO
TITLE "U.C.0096 [Live]"
PERFORMER "澤野弘之"
ISRC JPP301200155
INDEX 01 01:34:20
TRACK 03 AUDIO
TITLE "MOBILE SUIT [Live]"
PERFORMER "澤野弘之"
ISRC JPP301200156
INDEX 01 04:27:35
TRACK 04 AUDIO
TITLE "MINEVA [Live]"
PERFORMER "澤野弘之"
ISRC JPP301200181
INDEX 01 07:14:65
TRACK 05 AUDIO
TITLE "FULL FRONTAL [Live]"
PERFORMER "澤野弘之"
ISRC JPP301200157
INDEX 01 09:20:35
TRACK 06 AUDIO
TITLE "A LETTER [Live]"
PERFORMER "Cyua"
ISRC JPP301200158
INDEX 01 12:37:60
TRACK 07 AUDIO
TITLE "LAPLACE [Live]"
PERFORMER "澤野弘之"
ISRC JPP301200159
INDEX 01 16:52:50
TRACK 08 AUDIO
TITLE "THE UNIVERS - LICHT MEER [Live]"
PERFORMER "澤野弘之"
ISRC JPP301200160
INDEX 01 19:29:30
TRACK 09 AUDIO
TITLE "MAD-NUG [Live]"
PERFORMER "澤野弘之"
ISRC JPP301200161
INDEX 01 24:08:30
TRACK 10 AUDIO
TITLE "RX-0 [Live]"
PERFORMER "澤野弘之"
ISRC JPP301200162
INDEX 01 28:41:10
TRACK 11 AUDIO
TITLE "LIFE & DEATH [Live]"
PERFORMER "澤野弘之"
ISRC JPP301200163
INDEX 01 31:31:45
TRACK 12 AUDIO
TITLE "ON YOUR MARK [Live]"
PERFORMER "澤野弘之"
ISRC JPP301200164
INDEX 01 33:56:55
TRACK 13 AUDIO
TITLE "EGO [Live]"
PERFORMER "小林未郁"
ISRC JPP301200165
INDEX 01 38:07:55
TRACK 14 AUDIO
TITLE "UNICORN [Live]"
PERFORMER "澤野弘之"
ISRC JPP301200166
INDEX 01 41:28:40
TRACK 15 AUDIO
TITLE "REMIND YOU [Live]"
PERFORMER "小林未郁"
ISRC JPP301200167
INDEX 00 47:34:12
INDEX 01 47:37:70
X Lossless Decoder version 20120407 (140.0)

XLD extraction logfile from 2012-05-12 08:25:03 +0000

澤野弘之 / 機動戦士ガンダムUC オリジナル サウンドトラック3 Disc1

Used drive : MATSHITA DVD-R UJ-898 (revision HE13)

Ripper mode : XLD Secure Ripper
Disable audio cache : OK for the drive with a cache less than 1375KiB
Make use of C2 pointers : NO
Read offset correction : 102
Max retry count : 100
Gap status : Analyzed, Appended

TOC of the extracted CD
Track | Start | Length | Start sector | End sector
---------------------------------------------------------
1 | 00:00:00 | 05:45:45 | 0 | 25919
2 | 05:45:45 | 04:22:65 | 25920 | 45634
3 | 10:08:35 | 04:19:05 | 45635 | 65064
4 | 14:27:40 | 05:41:45 | 65065 | 90684
5 | 20:09:10 | 05:50:55 | 90685 | 116989
6 | 25:59:65 | 03:52:45 | 116990 | 134434
7 | 29:52:35 | 03:16:50 | 134435 | 149184
8 | 33:09:10 | 02:08:55 | 149185 | 158839
9 | 35:17:65 | 03:30:73 | 158840 | 174662
10 | 38:48:63 | 02:54:02 | 174663 | 187714
11 | 41:42:65 | 03:41:60 | 187715 | 204349
12 | 45:24:50 | 03:17:25 | 204350 | 219149
13 | 48:42:00 | 03:20:25 | 219150 | 234174

AccurateRip Summary
Disc not found in AccurateRip DB.

All Tracks
Filename : /Users/deadmaster/Music/機動戦士ガンダムUC オリジナル サウンドトラック3 Disc1.flac
CRC32 hash : 3A958B45
CRC32 hash (skip zero) : DDF68EE7
Statistics
Read error : 0
Jitter error (maybe fixed) : 0
Retry sector count : 0
Damaged sector count : 0

Track 01
Pre-gap length : 00:02:00

CRC32 hash : 376CDFFD
CRC32 hash (skip zero) : 81ED99A5
AccurateRip signature : B8CAA3FF
->Track not present in AccurateRip database.
Statistics
Read error : 0
Jitter error (maybe fixed) : 0
Retry sector count : 0
Damaged sector count : 0

Track 02
Pre-gap length : 00:01:29

CRC32 hash : DED808B7
CRC32 hash (skip zero) : AA7578B2
AccurateRip signature : 3BF043C0
->Track not present in AccurateRip database.
Statistics
Read error : 0
Jitter error (maybe fixed) : 0
Retry sector count : 0
Damaged sector count : 0

Track 03

CRC32 hash : BDEEB8F8
CRC32 hash (skip zero) : 40C26C87
AccurateRip signature : B2E17429
->Track not present in AccurateRip database.
Statistics
Read error : 0
Jitter error (maybe fixed) : 0
Retry sector count : 0
Damaged sector count : 0

Track 04
Pre-gap length : 00:02:29

CRC32 hash : 45688733
CRC32 hash (skip zero) : 1BC91F5B
AccurateRip signature : EEA7F7AB
->Track not present in AccurateRip database.
Statistics
Read error : 0
Jitter error (maybe fixed) : 0
Retry sector count : 0
Damaged sector count : 0

Track 05

CRC32 hash : 1A5FEBDD
CRC32 hash (skip zero) : 1062ECB5
AccurateRip signature : 60BEE1B7
->Track not present in AccurateRip database.
Statistics
Read error : 0
Jitter error (maybe fixed) : 0
Retry sector count : 0
Damaged sector count : 0

Track 06
Pre-gap length : 00:03:40

CRC32 hash : 1BC4E28A
CRC32 hash (skip zero) : A0FF54D4
AccurateRip signature : 45E41060
->Track not present in AccurateRip database.
Statistics
Read error : 0
Jitter error (maybe fixed) : 0
Retry sector count : 0
Damaged sector count : 0

Track 07

CRC32 hash : AAB2C82D
CRC32 hash (skip zero) : 3CEDBC1A
AccurateRip signature : 8A5311DC
->Track not present in AccurateRip database.
Statistics
Read error : 0
Jitter error (maybe fixed) : 0
Retry sector count : 0
Damaged sector count : 0

Track 08
Pre-gap length : 00:01:30

CRC32 hash : 501F5AC0
CRC32 hash (skip zero) : 48D92BBC
AccurateRip signature : 3ACD57A4
->Track not present in AccurateRip database.
Statistics
Read error : 0
Jitter error (maybe fixed) : 0
Retry sector count : 0
Damaged sector count : 0

Track 09

CRC32 hash : 008CA648
CRC32 hash (skip zero) : ACCB4EA1
AccurateRip signature : 37124C6D
->Track not present in AccurateRip database.
Statistics
Read error : 0
Jitter error (maybe fixed) : 0
Retry sector count : 0
Damaged sector count : 0

Track 10

CRC32 hash : 95E4C8AC
CRC32 hash (skip zero) : 83EB4517
AccurateRip signature : A32C248C
->Track not present in AccurateRip database.
Statistics
Read error : 0
Jitter error (maybe fixed) : 0
Retry sector count : 0
Damaged sector count : 0

Track 11
Pre-gap length : 00:02:34

CRC32 hash : 1F69C684
CRC32 hash (skip zero) : 9F1EF08C
AccurateRip signature : 6862F2A8
->Track not present in AccurateRip database.
Statistics
Read error : 0
Jitter error (maybe fixed) : 0
Retry sector count : 0
Damaged sector count : 0

Track 12

CRC32 hash : BA853C02
CRC32 hash (skip zero) : 2383AB8E
AccurateRip signature : E2343900
->Track not present in AccurateRip database.
Statistics
Read error : 0
Jitter error (maybe fixed) : 0
Retry sector count : 0
Damaged sector count : 0

Track 13
Pre-gap length : 00:03:29

CRC32 hash : 4A8E5507
CRC32 hash (skip zero) : 108979BF
AccurateRip signature : BD31F0F3
->Track not present in AccurateRip database.
Statistics
Read error : 0
Jitter error (maybe fixed) : 0
Retry sector count : 0
Damaged sector count : 0

No errors occurred

End of status report
X Lossless Decoder version 20120407 (140.0)

XLD extraction logfile from 2012-05-12 08:44:14 +0000

澤野弘之 / 機動戦士ガンダムUC オリジナル サウンドトラック3 Disc2

Used drive : MATSHITA DVD-R UJ-898 (revision HE13)

Ripper mode : XLD Secure Ripper
Disable audio cache : OK for the drive with a cache less than 1375KiB
Make use of C2 pointers : NO
Read offset correction : 102
Max retry count : 100
Gap status : Analyzed, Appended

TOC of the extracted CD
Track | Start | Length | Start sector | End sector
---------------------------------------------------------
1 | 00:00:00 | 01:34:20 | 0 | 7069
2 | 01:34:20 | 02:53:15 | 7070 | 20059
3 | 04:27:35 | 02:47:30 | 20060 | 32614
4 | 07:14:65 | 02:05:45 | 32615 | 42034
5 | 09:20:35 | 03:17:25 | 42035 | 56834
6 | 12:37:60 | 04:14:65 | 56835 | 75949
7 | 16:52:50 | 02:36:55 | 75950 | 87704
8 | 19:29:30 | 04:39:00 | 87705 | 108629
9 | 24:08:30 | 04:32:55 | 108630 | 129084
10 | 28:41:10 | 02:50:35 | 129085 | 141869
11 | 31:31:45 | 02:25:10 | 141870 | 152754
12 | 33:56:55 | 04:11:00 | 152755 | 171579
13 | 38:07:55 | 03:20:60 | 171580 | 186639
14 | 41:28:40 | 06:09:30 | 186640 | 214344
15 | 47:37:70 | 05:44:65 | 214345 | 240209

AccurateRip Summary
Disc not found in AccurateRip DB.

All Tracks
Filename : /Users/deadmaster/Music/機動戦士ガンダムUC オリジナル サウンドトラック3 Disc2.flac
CRC32 hash : 019DBD8B
CRC32 hash (skip zero) : D47D4D31
Statistics
Read error : 0
Jitter error (maybe fixed) : 0
Retry sector count : 0
Damaged sector count : 0

Track 01
Pre-gap length : 00:02:00

CRC32 hash : 09522335
CRC32 hash (skip zero) : 3391DF0D
AccurateRip signature : AF077C34
->Track not present in AccurateRip database.
Statistics
Read error : 0
Jitter error (maybe fixed) : 0
Retry sector count : 0
Damaged sector count : 0

Track 02

CRC32 hash : 1DB56BCB
CRC32 hash (skip zero) : 5E68D27F
AccurateRip signature : 3AAFDF05
->Track not present in AccurateRip database.
Statistics
Read error : 0
Jitter error (maybe fixed) : 0
Retry sector count : 0
Damaged sector count : 0

Track 03

CRC32 hash : 799E6FFD
CRC32 hash (skip zero) : 0BA95171
AccurateRip signature : 05826D01
->Track not present in AccurateRip database.
Statistics
Read error : 0
Jitter error (maybe fixed) : 0
Retry sector count : 0
Damaged sector count : 0

Track 04

CRC32 hash : C26817FB
CRC32 hash (skip zero) : 596FA9D2
AccurateRip signature : 50AC7E28
->Track not present in AccurateRip database.
Statistics
Read error : 0
Jitter error (maybe fixed) : 0
Retry sector count : 0
Damaged sector count : 0

Track 05

CRC32 hash : 27F32603
CRC32 hash (skip zero) : CC646D19
AccurateRip signature : 226CAA5D
->Track not present in AccurateRip database.
Statistics
Read error : 0
Jitter error (maybe fixed) : 0
Retry sector count : 0
Damaged sector count : 0

Track 06

CRC32 hash : 1575A7AF
CRC32 hash (skip zero) : 4AA0CED8
AccurateRip signature : C071FDF6
->Track not present in AccurateRip database.
Statistics
Read error : 0
Jitter error (maybe fixed) : 0
Retry sector count : 0
Damaged sector count : 0

Track 07

CRC32 hash : 4DCC08C5
CRC32 hash (skip zero) : 025362DE
AccurateRip signature : AFB5DB58
->Track not present in AccurateRip database.
Statistics
Read error : 0
Jitter error (maybe fixed) : 0
Retry sector count : 0
Damaged sector count : 0

Track 08

CRC32 hash : 10728B26
CRC32 hash (skip zero) : B1352E72
AccurateRip signature : 7AD8920D
->Track not present in AccurateRip database.
Statistics
Read error : 0
Jitter error (maybe fixed) : 0
Retry sector count : 0
Damaged sector count : 0

Track 09

CRC32 hash : 91130CEF
CRC32 hash (skip zero) : DC7201AB
AccurateRip signature : 088201C5
->Track not present in AccurateRip database.
Statistics
Read error : 0
Jitter error (maybe fixed) : 0
Retry sector count : 0
Damaged sector count : 0

Track 10

CRC32 hash : 3F366DFF
CRC32 hash (skip zero) : 3CC17576
AccurateRip signature : 7E1503CC
->Track not present in AccurateRip database.
Statistics
Read error : 0
Jitter error (maybe fixed) : 0
Retry sector count : 0
Damaged sector count : 0

Track 11

CRC32 hash : 72DF95B0
CRC32 hash (skip zero) : A00484F8
AccurateRip signature : CD42E868
->Track not present in AccurateRip database.
Statistics
Read error : 0
Jitter error (maybe fixed) : 0
Retry sector count : 0
Damaged sector count : 0

Track 12

CRC32 hash : 90E7A31C
CRC32 hash (skip zero) : AE9EAC76
AccurateRip signature : 58FB7B7C
->Track not present in AccurateRip database.
Statistics
Read error : 0
Jitter error (maybe fixed) : 0
Retry sector count : 0
Damaged sector count : 0

Track 13

CRC32 hash : F0A0974E
CRC32 hash (skip zero) : 329ABD4A
AccurateRip signature : AB271074
->Track not present in AccurateRip database.
Statistics
Read error : 0
Jitter error (maybe fixed) : 0
Retry sector count : 0
Damaged sector count : 0

Track 14

CRC32 hash : B4194768
CRC32 hash (skip zero) : 07637649
AccurateRip signature : D63BAA73
->Track not present in AccurateRip database.
Statistics
Read error : 0
Jitter error (maybe fixed) : 0
Retry sector count : 0
Damaged sector count : 0

Track 15
Pre-gap length : 00:03:58

CRC32 hash : ECC682EE
CRC32 hash (skip zero) : 7E4735DB
AccurateRip signature : 364C6923
->Track not present in AccurateRip database.
Statistics
Read error : 0
Jitter error (maybe fixed) : 0
Retry sector count : 0
Damaged sector count : 0

No errors occurred

End of status report
Дата выхода: 21 мая 2014 г.
Продолжительность: 02:08:48

Disc 1
01 1stMob. :2009522or0311 4:03
02 2ndMob. :MSGUCEP7 3:55
03 3rdMob. :RE:I AM MARIE 3:53
04 4thMob. :ν TYPE-OYM 3:26
05 5thMob. :UXO-→RX0 2:42
06 6thMob. :UNICORN GUNDAM 5:28
07 7thMob. :20140517 5:06
08 8thMob. :BEGINNING <ORCH-VER> 1:51
09 9thMob. :流星のナミダ <ORCH-VER> 3:19
10 EGO <nZk Ver.> 3:14
11 A LETTER <nZk Ver.> 4:06
12 Sternengesang 4:41
13 PM-20:10→20:14 6:08
Продолжительность: 51:52

Disc 2
01 ZERO GRAVITY 3:36
02 MOBILE SUIT <W-REC MIX> 4:12
03 THE BATTLE 4:54
04 ON YOUR MARK 4:11
05 BANSHEE 5:47
06 FULL FRONTAL 3:10
07 DESTROY→SELF-SACRIFICE 4:55
08 RX-0 2:54
09 PSYCHO-FIELD 4:25
10 E.F.S.F. 2:22
11 MOBILE ARMOR 6:46
12 LAPLACE 2:41
13 THE UNIVERS 4:55
14 ANGELO 4:19
15 U.C.0096 2:51
16 MAD-NUG 4:22
17 GUNDAM 5:49
18 UNICORN 4:47
Продолжительность: 76:56
REM GENRE Anime
REM DATE 2014
REM DISCID A60C290D
REM COMMENT "ExactAudioCopy v1.0b3"
PERFORMER "澤野弘之"
TITLE "機動戦士ガンダムUC オリジナルサウンドトラック4 DISC 1"
FILE "澤野弘之 - 機動戦士ガンダムUC オリジナルサウンドトラック4 DISC 1.wav" WAVE
TRACK 01 AUDIO
TITLE "1stMob. :20090522or0331"
PERFORMER "澤野弘之"
INDEX 01 00:00:00
TRACK 02 AUDIO
TITLE "2ndMob. :MSGUCEP7"
PERFORMER "澤野弘之"
INDEX 01 04:03:22
TRACK 03 AUDIO
TITLE "3rdMob. :RE:I AM MARIE"
PERFORMER "澤野弘之"
INDEX 00 07:56:25
INDEX 01 07:58:42
TRACK 04 AUDIO
TITLE "4thMob. :νTYPE-OYM"
PERFORMER "澤野弘之"
INDEX 01 11:51:06
TRACK 05 AUDIO
TITLE "5thMob. :UXO-→RX0"
PERFORMER "澤野弘之"
INDEX 01 15:17:38
TRACK 06 AUDIO
TITLE "6thMob. :UNICORN GUNDAM"
PERFORMER "澤野弘之"
INDEX 01 17:59:61
TRACK 07 AUDIO
TITLE "7thMob. :20140517"
PERFORMER "澤野弘之"
INDEX 00 23:25:22
INDEX 01 23:27:47
TRACK 08 AUDIO
TITLE "8thMob. :BEGINNING"
PERFORMER "澤野弘之"
INDEX 00 28:32:52
INDEX 01 28:34:07
TRACK 09 AUDIO
TITLE "9thMob. :流星のナミダ"
PERFORMER "澤野弘之"
INDEX 01 30:25:23
TRACK 10 AUDIO
TITLE "B-TRACK. :EGO"
PERFORMER "澤野弘之"
INDEX 00 33:40:40
INDEX 01 33:44:32
TRACK 11 AUDIO
TITLE "B-TRACK. :A LETTER"
PERFORMER "澤野弘之"
INDEX 00 36:57:13
INDEX 01 36:58:43
TRACK 12 AUDIO
TITLE "B-TRACK. :Sternengesang"
PERFORMER "澤野弘之"
INDEX 00 41:03:26
INDEX 01 41:04:52
TRACK 13 AUDIO
TITLE "B-TRACK. :PM-20:10→20:14"
PERFORMER "澤野弘之"
INDEX 00 45:42:56
INDEX 01 45:45:20
REM GENRE Anime
REM DATE 2014
REM DISCID 03120912
REM COMMENT "ExactAudioCopy v1.0b3"
PERFORMER "澤野弘之"
TITLE "機動戦士ガンダムUC オリジナルサウンドトラック4 DISC2"
FILE "澤野弘之 - 機動戦士ガンダムUC オリジナルサウンドトラック4 DISC2.wav" WAVE
TRACK 01 AUDIO
TITLE "ZERO GRAVITY"
PERFORMER "澤野弘之"
INDEX 01 00:00:00
TRACK 02 AUDIO
TITLE "MOBILE SUIT"
PERFORMER "澤野弘之"
INDEX 00 03:34:44
INDEX 01 03:35:70
TRACK 03 AUDIO
TITLE "THE BATTLE"
PERFORMER "澤野弘之"
INDEX 00 07:46:16
INDEX 01 07:47:43
TRACK 04 AUDIO
TITLE "ON YOUR MARK"
PERFORMER "澤野弘之"
INDEX 00 12:40:47
INDEX 01 12:41:73
TRACK 05 AUDIO
TITLE "BANSHEE"
PERFORMER "澤野弘之"
INDEX 00 16:51:73
INDEX 01 16:53:22
TRACK 06 AUDIO
TITLE "FULL-FRONTAL"
PERFORMER "澤野弘之"
INDEX 00 22:38:63
INDEX 01 22:40:12
TRACK 07 AUDIO
TITLE "DESTROY→SELF-SACRIFICE"
PERFORMER "澤野弘之"
INDEX 00 25:48:55
INDEX 01 25:50:05
TRACK 08 AUDIO
TITLE "RX-0"
PERFORMER "澤野弘之"
INDEX 00 30:43:25
INDEX 01 30:44:50
TRACK 09 AUDIO
TITLE "PSYCHO-FIELD"
PERFORMER "澤野弘之"
INDEX 00 33:37:09
INDEX 01 33:38:34
TRACK 10 AUDIO
TITLE "E.F.S.F."
PERFORMER "澤野弘之"
INDEX 00 38:01:68
INDEX 01 38:03:18
TRACK 11 AUDIO
TITLE "MOBILE ARMOR"
PERFORMER "澤野弘之"
INDEX 00 40:24:25
INDEX 01 40:25:52
TRACK 12 AUDIO
TITLE "LAPLACE"
PERFORMER "澤野弘之"
INDEX 00 47:10:38
INDEX 01 47:11:65
TRACK 13 AUDIO
TITLE "THE UNIVERS"
PERFORMER "澤野弘之"
INDEX 00 49:51:73
INDEX 01 49:53:22
TRACK 14 AUDIO
TITLE "ANGELO"
PERFORMER "澤野弘之"
INDEX 00 54:47:29
INDEX 01 54:48:56
TRACK 15 AUDIO
TITLE "U.C.0096"
PERFORMER "澤野弘之"
INDEX 00 59:05:50
INDEX 01 59:07:65
TRACK 16 AUDIO
TITLE "MAD-NUG"
PERFORMER "澤野弘之"
INDEX 00 61:57:70
INDEX 01 61:59:22
TRACK 17 AUDIO
TITLE "GUNDAM"
PERFORMER "澤野弘之"
INDEX 00 66:20:14
INDEX 01 66:21:41
TRACK 18 AUDIO
TITLE "UNICORN"
PERFORMER "澤野弘之"
INDEX 00 72:09:40
INDEX 01 72:10:67
AUDIOCHECKER v2.0 beta (build 457) - by Dester - [email protected]
~~~~~~~~~~~~~~~~~~~~~~~~~~~~~~~~~~
-=== DO NOT EDIT THIS FILE! ===-

Path: ...\DISC 1

01 -=- 01.flac -=- CDDA (100%)
02 -=- 02.flac -=- CDDA (100%)
03 -=- 03.flac -=- CDDA (100%)
04 -=- 04.flac -=- CDDA (100%)
05 -=- 05.flac -=- CDDA (100%)
06 -=- 06.flac -=- CDDA (100%)
07 -=- 07.flac -=- CDDA (100%)
08 -=- 08.flac -=- CDDA (100%)
09 -=- 09.flac -=- CDDA (100%)
10 -=- 10.flac -=- MPEG (79%)
11 -=- 11.flac -=- CDDA (85%)
12 -=- 12.flac -=- CDDA (92%)
13 -=- 13.flac -=- CDDA (100%)

Summary 92,15% CDDA

167479828
AUDIOCHECKER v2.0 beta (build 457) - by Dester - [email protected]
~~~~~~~~~~~~~~~~~~~~~~~~~~~~~~~~~~
-=== DO NOT EDIT THIS FILE! ===-

Path: ...\DISC 2

01 -=- 01.flac -=- CDDA (100%)
02 -=- 02.flac -=- CDDA (100%)
03 -=- 03.flac -=- CDDA (100%)
04 -=- 04.flac -=- CDDA (100%)
05 -=- 05.flac -=- CDDA (100%)
06 -=- 06.flac -=- CDDA (100%)
07 -=- 07.flac -=- CDDA (100%)
08 -=- 08.flac -=- CDDA (100%)
09 -=- 09.flac -=- CDDA (99%)
10 -=- 10.flac -=- CDDA (100%)
11 -=- 11.flac -=- CDDA (100%)
12 -=- 12.flac -=- CDDA (100%)
13 -=- 13.flac -=- CDDA (100%)
14 -=- 14.flac -=- CDDA (100%)
15 -=- 15.flac -=- CDDA (100%)
16 -=- 16.flac -=- CDDA (100%)
17 -=- 17.flac -=- CDDA (100%)
18 -=- 18.flac -=- CDDA (100%)

Summary 99,94% CDDA

17274468
Exact Audio Copy V1.0 beta 3 from 29. August 2011

EAC extraction logfile from 4. June 2014, 12:26

澤野弘之 / 機動戦士ガンダムUC オリジナルサウンドトラック4 DISC 1

Used drive : TSSTcorpDVD-ROM TS-H352D Adapter: 0 ID: 0

Read mode : Secure
Utilize accurate stream : Yes
Defeat audio cache : Yes
Make use of C2 pointers : No

Read offset correction : 6
Overread into Lead-In and Lead-Out : No
Fill up missing offset samples with silence : Yes
Delete leading and trailing silent blocks : No
Null samples used in CRC calculations : Yes
Used interface : Native Win32 interface for Win NT & 2000

Used output format : Internal WAV Routines
Sample format : 44.100 Hz; 16 Bit; Stereo

TOC of the extracted CD

Track | Start | Length | Start sector | End sector
---------------------------------------------------------
1 | 0:00.00 | 4:03.22 | 0 | 18246
2 | 4:03.22 | 3:55.20 | 18247 | 35891
3 | 7:58.42 | 3:52.39 | 35892 | 53330
4 | 11:51.06 | 3:26.32 | 53331 | 68812
5 | 15:17.38 | 2:42.23 | 68813 | 80985
6 | 17:59.61 | 5:27.61 | 80986 | 105571
7 | 23:27.47 | 5:06.35 | 105572 | 128556
8 | 28:34.07 | 1:51.16 | 128557 | 136897
9 | 30:25.23 | 3:19.09 | 136898 | 151831
10 | 33:44.32 | 3:14.11 | 151832 | 166392
11 | 36:58.43 | 4:06.09 | 166393 | 184851
12 | 41:04.52 | 4:40.43 | 184852 | 205894
13 | 45:45.20 | 6:07.73 | 205895 | 233492

Range status and errors

Selected range

Filename E:\PSV\澤野弘之 - 機動戦士ガンダムUC オリジナルサウンドトラック4 DISC 1.wav

Peak level 100.0 %
Extraction speed 7.0 X
Range quality 100.0 %
Copy CRC 4C89C707
Copy OK

No errors occurred

End of status report

==== Log checksum AE8E5A1645BFFAC70953E78FC43EA5F2D1AF9B36109090ED10B43F8B84F0C40C ====

------------------------------------------------------------

Exact Audio Copy V1.0 beta 3 from 29. August 2011

EAC extraction logfile from 4. June 2014, 12:26

澤野弘之 / 機動戦士ガンダムUC オリジナルサウンドトラック4 DISC 1

Used drive : TSSTcorpDVD-ROM TS-H352D Adapter: 0 ID: 0

Read mode : Secure
Utilize accurate stream : Yes
Defeat audio cache : Yes
Make use of C2 pointers : No

Read offset correction : 6
Overread into Lead-In and Lead-Out : No
Fill up missing offset samples with silence : Yes
Delete leading and trailing silent blocks : No
Null samples used in CRC calculations : Yes
Used interface : Native Win32 interface for Win NT & 2000

Used output format : Internal WAV Routines
Sample format : 44.100 Hz; 16 Bit; Stereo

TOC of the extracted CD

Track | Start | Length | Start sector | End sector
---------------------------------------------------------
1 | 0:00.00 | 4:03.22 | 0 | 18246
2 | 4:03.22 | 3:55.20 | 18247 | 35891
3 | 7:58.42 | 3:52.39 | 35892 | 53330
4 | 11:51.06 | 3:26.32 | 53331 | 68812
5 | 15:17.38 | 2:42.23 | 68813 | 80985
6 | 17:59.61 | 5:27.61 | 80986 | 105571
7 | 23:27.47 | 5:06.35 | 105572 | 128556
8 | 28:34.07 | 1:51.16 | 128557 | 136897
9 | 30:25.23 | 3:19.09 | 136898 | 151831
10 | 33:44.32 | 3:14.11 | 151832 | 166392
11 | 36:58.43 | 4:06.09 | 166393 | 184851
12 | 41:04.52 | 4:40.43 | 184852 | 205894
13 | 45:45.20 | 6:07.73 | 205895 | 233492

Range status and errors

Selected range

Filename E:\PSV\澤野弘之 - 機動戦士ガンダムUC オリジナルサウンドトラック4 DISC 1.wav

Peak level 100.0 %
Extraction speed 7.0 X
Range quality 100.0 %
Copy CRC 4C89C707
Copy OK

No errors occurred

End of status report

==== Log checksum AE8E5A1645BFFAC70953E78FC43EA5F2D1AF9B36109090ED10B43F8B84F0C40C ====
Exact Audio Copy V1.0 beta 3 from 29. August 2011

EAC extraction logfile from 4. June 2014, 12:39

澤野弘之 / 機動戦士ガンダムUC オリジナルサウンドトラック4 DISC2

Used drive : TSSTcorpDVD-ROM TS-H352D Adapter: 0 ID: 0

Read mode : Secure
Utilize accurate stream : Yes
Defeat audio cache : Yes
Make use of C2 pointers : No

Read offset correction : 6
Overread into Lead-In and Lead-Out : No
Fill up missing offset samples with silence : Yes
Delete leading and trailing silent blocks : No
Null samples used in CRC calculations : Yes
Used interface : Native Win32 interface for Win NT & 2000

Used output format : Internal WAV Routines
Sample format : 44.100 Hz; 16 Bit; Stereo

TOC of the extracted CD

Track | Start | Length | Start sector | End sector
---------------------------------------------------------
1 | 0:00.00 | 3:35.70 | 0 | 16194
2 | 3:35.70 | 4:11.48 | 16195 | 35067
3 | 7:47.43 | 4:54.30 | 35068 | 57147
4 | 12:41.73 | 4:11.24 | 57148 | 75996
5 | 16:53.22 | 5:46.65 | 75997 | 102011
6 | 22:40.12 | 3:09.68 | 102012 | 116254
7 | 25:50.05 | 4:54.45 | 116255 | 138349
8 | 30:44.50 | 2:53.59 | 138350 | 151383
9 | 33:38.34 | 4:24.59 | 151384 | 171242
10 | 38:03.18 | 2:22.34 | 171243 | 181926
11 | 40:25.52 | 6:46.13 | 181927 | 212389
12 | 47:11.65 | 2:41.32 | 212390 | 224496
13 | 49:53.22 | 4:55.34 | 224497 | 246655
14 | 54:48.56 | 4:19.09 | 246656 | 266089
15 | 59:07.65 | 2:51.32 | 266090 | 278946
16 | 61:59.22 | 4:22.19 | 278947 | 298615
17 | 66:21.41 | 5:49.26 | 298616 | 324816
18 | 72:10.67 | 4:46.70 | 324817 | 346336

Range status and errors

Selected range

Filename E:\PSV\澤野弘之 - 機動戦士ガンダムUC オリジナルサウンドトラック4 DISC2.wav

Peak level 100.0 %
Extraction speed 8.4 X
Range quality 100.0 %
Copy CRC AE8DAB2B
Copy OK

No errors occurred

End of status report

==== Log checksum 89539B4C2DBC6B84172CD04751F26C1F54596097EC22146A74033AC46C95073E ====

------------------------------------------------------------

Exact Audio Copy V1.0 beta 3 from 29. August 2011

EAC extraction logfile from 4. June 2014, 12:39

澤野弘之 / 機動戦士ガンダムUC オリジナルサウンドトラック4 DISC2

Used drive : TSSTcorpDVD-ROM TS-H352D Adapter: 0 ID: 0

Read mode : Secure
Utilize accurate stream : Yes
Defeat audio cache : Yes
Make use of C2 pointers : No

Read offset correction : 6
Overread into Lead-In and Lead-Out : No
Fill up missing offset samples with silence : Yes
Delete leading and trailing silent blocks : No
Null samples used in CRC calculations : Yes
Used interface : Native Win32 interface for Win NT & 2000

Used output format : Internal WAV Routines
Sample format : 44.100 Hz; 16 Bit; Stereo

TOC of the extracted CD

Track | Start | Length | Start sector | End sector
---------------------------------------------------------
1 | 0:00.00 | 3:35.70 | 0 | 16194
2 | 3:35.70 | 4:11.48 | 16195 | 35067
3 | 7:47.43 | 4:54.30 | 35068 | 57147
4 | 12:41.73 | 4:11.24 | 57148 | 75996
5 | 16:53.22 | 5:46.65 | 75997 | 102011
6 | 22:40.12 | 3:09.68 | 102012 | 116254
7 | 25:50.05 | 4:54.45 | 116255 | 138349
8 | 30:44.50 | 2:53.59 | 138350 | 151383
9 | 33:38.34 | 4:24.59 | 151384 | 171242
10 | 38:03.18 | 2:22.34 | 171243 | 181926
11 | 40:25.52 | 6:46.13 | 181927 | 212389
12 | 47:11.65 | 2:41.32 | 212390 | 224496
13 | 49:53.22 | 4:55.34 | 224497 | 246655
14 | 54:48.56 | 4:19.09 | 246656 | 266089
15 | 59:07.65 | 2:51.32 | 266090 | 278946
16 | 61:59.22 | 4:22.19 | 278947 | 298615
17 | 66:21.41 | 5:49.26 | 298616 | 324816
18 | 72:10.67 | 4:46.70 | 324817 | 346336

Range status and errors

Selected range

Filename E:\PSV\澤野弘之 - 機動戦士ガンダムUC オリジナルサウンドトラック4 DISC2.wav

Peak level 100.0 %
Extraction speed 8.4 X
Range quality 100.0 %
Copy CRC AE8DAB2B
Copy OK

No errors occurred

End of status report

==== Log checksum 89539B4C2DBC6B84172CD04751F26C1F54596097EC22146A74033AC46C95073E ====


Трекер:  [ 27-Ноя-2014 11:00 ]

  

Скачать .torrent

Размер .torrent файла 21 KB


Размер: 1.64 GB
Хэш (hash) релиза: bc34b2ca5e68c3f0a8d3b7c12be90066f0c480f3

Еще никто не оставлял запись к записи скачать торрент Мобильный доспех Гандам Единорог Mobile Suit Gundam Unicorn . Будь первым!

!Обратная связь