Nate Corddry | Sie nannten ihn Wander | Motive S04E06 HDTV x264-BAJSKORV[ettv]

Скачать через торрент музыку Половое и нравственное воспитание для 30-летних 30-sai no Hoken Taiiku бесплатно без регистрации torrent

Статистика раздачи
Размер:  356 MB   |    Зарегистрирован:  3 года 7 месяцев   |    .torrent скачан:  40 раз   |   
Раздают:  1  
   
загрузка...
 
Автор Сообщение

Galfimbul

avatar Galfimbul


Половое и нравственное воспитание для 30-летних / 30-sai no Hoken Taiiku

Название альбома: OP, ED Singles
Год выпуска: 2011 г.
Страна: Япония
Аудио кодек: APE/FLAC
Тип рипа: image+.cue
Битрейт аудио: lossless
Продолжительность: 31:08
Наличие сканов: да
Исполнитель: kanonxkanon
Продолжительность: 18:39

Треклист:
01 - Koi no Doutei
02 - Ren'ai no Susume
03 - Koi no Doutei [TV SIZE]
04 - Koi no Doutei [madmaid 17's DT Bassline remix]
05 - Koi no Doutei [Instrumental]
Exact Audio Copy V0.99 prebeta 5 from 4. May 2009

EAC 取り込みログファイル 日付 : 18. 6月 2011, 12:47

kanon×kanon / 恋の道程

使用ドライブ : PLEXTOR DVDR PX-880SA Adapter: 0 ID: 0

読み込みモード : セキュアモードドライブが正確なデータ転送能力を持つ : はいオーディオキャッシュを使用できる : いいえC2エラー情報を検出する : はい

読み込みサンプルオフセット訂正値 : 6リードイン・リードアウトをオーバーリードする : いいえ欠落したオフセットサンプルを無音で補完する : はい曲の先頭と末端の無音領域を削除する : いいえCRC計算で無音のサンプルを使用するか : いいえ使用インターフェース : Win NT & 2000用のクラスドライバ

使用出力モード : 内蔵WAV出力ルーチンサンプルフォーマット : 44.100 Hz; 16 Bit; ステレオ使用したエンコードオフセットの値 : : 0

TOC情報を抜き出します

トラック | スタート | 長さ | 始めのセクター | 最終セクター ---------------------------------------------------------------- 1 | 0:00.00 | 3:49.11 | 0 | 17185 2 | 3:49.11 | 4:08.32 | 17186 | 35817 3 | 7:57.43 | 1:33.45 | 35818 | 42837 4 | 9:31.13 | 5:20.11 | 42838 | 66848 5 | 14:51.24 | 3:48.41 | 66849 | 83989

範囲取り込みステータス & エラー

選択された範囲

ファイル名 S:\UP\新しいフォルダー\kanon×kanon - 恋の道程.wav

ピークレベル 100.0 % 範囲取り込み品質 100.0 % コピーCRC 97C02B94 コピー OK

エラーは発生しませんでした

ステータス報告完了
Исполнитель: AiRI
Продолжительность: 12:28

Треклист:
01 - learn together
02 - Time has come
03 - You'll never walk alone
Exact Audio Copy V1.0 beta 1 from 15. November 2010

EAC extraction logfile from 25. May 2011, 18:46

AiRI / LACM-4813

Used drive : PIONEER DVD-RW DVR-216L Adapter: 0 ID: 3

Read mode : SecureUtilize accurate stream : YesDefeat audio cache : YesMake use of C2 pointers : No

Read offset correction : 66Overread into Lead-In and Lead-Out : NoFill up missing offset samples with silence : YesDelete leading and trailing silent blocks : NoNull samples used in CRC calculations : NoUsed interface : Native Win32 interface for Win NT & 2000

Used output format : Internal WAV RoutinesSample format : 44.100 Hz; 16 Bit; Stereo

TOC of the extracted CD

Track | Start | Length | Start sector | End sector --------------------------------------------------------- 1 | 0:00.00 | 4:01.54 | 0 | 18128 2 | 4:01.54 | 3:43.54 | 18129 | 34907 3 | 7:45.33 | 4:43.42 | 34908 | 56174

Range status and errors

Selected range

Filename D:\Desktop\LACM-4813.wav

Peak level 98.8 % Extraction speed 2.0 X Range quality 100.0 % Copy CRC 3D94E6DE Copy OK

No errors occurred

End of status report


Трекер:  [ 27-Ноя-2014 11:00 ]

  

Скачать .torrent

Размер .torrent файла 15 KB


Размер: 356 MB
Хэш (hash) релиза: 61be5512f452e0a88fa66176a252ff10ac901177

Еще никто не оставлял запись к записи скачать торрент Половое и нравственное воспитание для 30-летних 30-sai no Hoken Taiiku . Будь первым!

!Обратная связь