Tsui no Sumika | Robert Griffin | House Interior Garden

Скачать через торрент музыку Арата: Легенда Легенда Араты бесплатно без регистрации torrent

Статистика раздачи
Размер:  481 MB   |    Зарегистрирован:  3 года 7 месяцев   |    .torrent скачан:  43 раза   |   
Раздают:  1  
   
загрузка...
 
Автор Сообщение

Galfimbul

avatar Galfimbul


Арата: Легенда / Легенда Араты / Arata Kangatari
Название альбома: OP Single - GENESIS ARIA
Композитор: Sphere
Год выпуска: 2013 г.
Страна: Япония
Аудио кодек: TAK (*.tak)
Тип рипа: image+cue
Битрейт аудио: lossless
Продолжительность: 18:40
Наличие сканов в содержимом раздачи: да

Треклист:
01 GENESIS ARIA
02 Time Machine
03 GENESIS ARIA (Off Vocal)
04 Time Machine (Off Vocal)
Exact Audio Copy V0.99 prebeta 5 from 4. May 2009

EAC 取り込みログファイル 日付 : 8. 5月 2013, 10:50

- / GENESIS ARIA

使用ドライブ : PIONEER BD-RW BDR-205 Adapter: 0 ID: 1

読み込みモード : セキュアモードドライブが正確なデータ転送能力を持つ : はいオーディオキャッシュを使用できる : はいC2エラー情報を検出する : いいえ

読み込みサンプルオフセット訂正値 : 637リードイン・リードアウトをオーバーリードする : いいえ欠落したオフセットサンプルを無音で補完する : はい曲の先頭と末端の無音領域を削除する : いいえCRC計算で無音のサンプルを使用するか : はい使用インターフェース : Win NT & 2000用のクラスドライバ

使用出力モード : 内蔵WAV出力ルーチンサンプルフォーマット : 44.100 Hz; 16 Bit; ステレオ

TOC情報を抜き出します

トラック | スタート | 長さ | 始めのセクター | 最終セクター ---------------------------------------------------------------- 1 | 0:00.00 | 4:41.64 | 0 | 21138 2 | 4:41.64 | 4:38.01 | 21139 | 41989 3 | 9:19.65 | 4:41.64 | 41990 | 63128 4 | 14:01.54 | 4:38.12 | 63129 | 83990

範囲取り込みステータス & エラー

選択された範囲

ファイル名 F:\EAC\アラタカンガタリ ~革神語~_GENESIS ARIA/Sphere (tak+iso)\GENESIS ARIA.wav

ピークレベル 100.0 % 範囲取り込み品質 100.0 % コピーCRC 0840382D コピー OK

エラーは発生しませんでした

ステータス報告完了
Title: TorrentsSize: 0.32 Gb ( 336 412 KBytes ) - DVD-5Enabled regions: 1, 2, 3, 4, 5, 6, 7, 8

VTS_01 : Play Length: 00:04:52 Video: NTSC 16:9 (720x480) VBR, Auto Pan&Scan Audio: Japanese (LinearPCM, 2 ch)

Menu Video: NTSC 16:9 (720x480) VBR Auto Pan&ScanMenu Audio: Not specified (LinearPCM, 2 ch)Menu Subtitles: Not specifiedMenu Japanese Language Unit : Root Menu Chapter (PTT) Menu
Внимание, раздача обновлена! Потрековый рип заменён на образ с логом и бонусным DVD.
Перекачайте торент, кому необходимо.


Трекер:  [ 27-Ноя-2014 11:00 ]

  

Скачать .torrent

Размер .torrent файла 21 KB


Размер: 481 MB
Хэш (hash) релиза: 141d13aabdd2363e9a08d411e8505696ff44ecb2

Еще никто не оставлял запись к записи скачать торрент Арата: Легенда Легенда Араты . Будь первым!

!Обратная связь